<?xml version="1.0" standalone="no"?>
<!DOCTYPE svg PUBLIC "-//W3C//DTD SVG 1.1//EN" "http://www.w3.org/Graphics/SVG/1.1/DTD/svg11.dtd">
<svg xmlns="http://www.w3.org/2000/svg">
<defs >
<font id="Inconsolata" horiz-adv-x="500" ><font-face
    font-family="Inconsolata"
    units-per-em="1000"
    panose-1="0 0 5 9 0 0 0 0 0 0"
    ascent="859"
    descent="-190"
    alphabetic="0" />
<glyph unicode=" " glyph-name="space" />
<glyph unicode="!" glyph-name="exclam" d="M190 594Q190 629 203 648T241 668Q292 668 292 584L265 194H215L190 594ZM215 -11T198 6T180 47Q180 71 197 89T239 107Q263 107 281 89T299 47Q299 24 281 7T239 -11Q215 -11 198 6Z" />
<glyph unicode="&quot;" glyph-name="quotedbl" d="M471 665Q471 581 469 542T461 455L455 407H407L401 455Q396 500 394 540T391 665H471ZM365 665Q365 581 363 542T355 455L349 407H301L295 455Q290 500 288 540T285 665H365Z" />
<glyph unicode="#" glyph-name="numbersign" d="M270 10L292 193H181L160 14L101 13L122 191H25L29 236H128L148 407H39L42 453H153L173 624L234 626L213 455H323L343 622L405 623L385 457H476L470 410H379L358 241H457L452 196H353L331 14L270 10ZM187 238H297L318
408H207L187 238Z" />
<glyph unicode="$" glyph-name="dollar" d="M235 14Q128 21 60 94L103 154Q106 152 107 144T110 133Q159 80 235 72V292Q155 319 117 355T79 446Q79 501 122 541T235 591V651H299Q300 650 300 648Q300 646 297 641T293 630V592Q386 582 442 515L399 461Q395 463
393 471T388 482Q354 522 293 533V340Q383 311 421 276T460 181Q460 143 440 108T381 47T293 16V-47H235V14ZM235 534Q192 529 169 507T145 454Q145 397 235 361V534ZM340 83T367 112T395 177Q395 212 372 233T293 273V74Q340 83 367 112Z" />
<glyph unicode="%" glyph-name="percent" d="M110 373T84 390T43 437T28 504Q28 540 43 569T84 616T140 634Q170 634 196 617T237 569T252 503Q252 446 220 410T140 373Q110 373 84 390ZM46 0L391 623H448L100 0H46ZM161 426T175 445T189 504Q189 544 174 563T138
582Q118 582 104 563T89 504Q89 465 104 446T140 426Q161 426 175 445ZM341 -10T315 7T274 53T259 119Q259 155 274 184T315 231T371 249Q417 249 449 211T482 119Q482 83 467 54T427 7T371 -10Q341 -10 315 7ZM394 40T408 60T423 118Q423 153 409 175T370 198Q348
198 333 179T318 120Q318 80 334 60T372 40Q394 40 408 60Z" />
<glyph unicode="&amp;" glyph-name="ampersand" d="M361 76Q330 36 285 13T192 -10Q148 -10 112 10T56 65T36 141Q36 203 70 256T162 343Q91 429 91 498Q91 535 109 565T159 612T228 629Q267 629 298 611T346 562T363 498Q363 449 333 400T255 330L367 173Q391
202 400 223T412 274Q412 280 416 284L481 239Q444 174 405 123L475 32L416 -12L361 76ZM256 390T276 424T297 492Q297 525 277 547T229 570Q200 570 180 550T160 497Q160 449 221 373Q256 390 276 424ZM263 54T324 123L197 296Q158 272 135 232T112 152Q112 111
137 83T199 54Q263 54 324 123Z" />
<glyph unicode="&apos;" glyph-name="quotesingle" d="M290 665Q290 581 288 542T280 455L274 407H226L220 455Q215 500 213 540T210 665H290Z" />
<glyph unicode="(" glyph-name="parenleft" d="M313 -136T251 -70T156 79T122 250Q122 338 155 419T248 563T389 665L408 603Q310 550 252 454T193 247Q193 135 253 37T414 -114L395 -174Q313 -136 251 -70Z" />
<glyph unicode=")" glyph-name="parenright" d="M114 -114Q215 -61 275 37T335 247Q335 358 277 454T120 603L139 665Q219 627 279 564T373 419T406 250Q406 162 373 79T277 -70T133 -174L114 -114Z" />
<glyph unicode="*" glyph-name="asterisk" d="M138 123L84 167L214 317L41 370L67 435L229 359L213 536H291L273 359L432 431L458 370L287 318L413 167L358 124L250 290L138 123Z" />
<glyph unicode="+" glyph-name="plus" d="M222 104V291H45V352H222V523H285V352H456V291H285V104H222Z" />
<glyph unicode="," glyph-name="comma" d="M165 -138Q193 -112 211 -82T230 -33Q230 -24 225 -18T207 0Q193 13 186 22T179 44Q179 69 195 86T238 103Q265 103 285 80T306 20Q306 -58 199 -168L165 -138Z" />
<glyph unicode="-" glyph-name="hyphen" d="M71 281V348H431V281H71Z" />
<glyph unicode="." glyph-name="period" d="M214 -11T197 6T180 46Q180 69 197 86T238 103Q261 103 278 86T295 46Q295 23 278 6T238 -11Q214 -11 197 6Z" />
<glyph unicode="/" glyph-name="slash" d="M123 -42L64 -13L377 665L437 634L123 -42Z" />
<glyph unicode="0" glyph-name="zero" d="M342 627T392 542T443 308Q443 155 393 72T250 -11Q157 -11 107 72T57 308Q57 457 107 542T250 627Q342 627 392 542ZM193 566T161 497T129 308Q129 243 138 193L350 467Q335 515 310 540T250 566Q193 566 161 497ZM307
50T339 117T371 308Q371 366 364 408L152 138Q184 50 250 50Q307 50 339 117Z" />
<glyph unicode="1" glyph-name="one" d="M230 0V537L104 500L88 539L251 624H300V0H230Z" />
<glyph unicode="2" glyph-name="two" d="M73 56L154 138Q235 219 275 265T340 356T364 451Q364 512 335 539T258 566Q215 566 179 547T130 505Q124 494 118 483T112 469Q112 468 113 468Q114 468 117 469T121 467L118 461L109 466L58 506Q88 564 140 595T257 627Q337
627 386 579T436 449Q436 395 410 344T344 247T231 130L163 61H395Q411 61 418 63T432 71H439V0H73V56Z" />
<glyph unicode="3" glyph-name="three" d="M363 312T395 272T427 171Q427 121 405 80T341 14T240 -11Q190 -11 146 7T69 60L115 115L116 116L117 115Q142 83 168 66T237 49Q295 49 325 83T355 174Q355 236 318 267T212 298Q202 298 180 296V352Q269 352 301 385T334
475Q334 517 310 542T245 567Q180 567 131 521L89 563Q150 627 244 627Q319 627 362 585T406 472Q406 421 381 383T308 330Q363 312 395 272ZM127 115T124 115T118 118L122 123L127 118Q127 115 124 115ZM112 123T114 121T118 118L116 116Q112 123 114 121Z" />
<glyph unicode="4" glyph-name="four" d="M318 0V153H48V204L333 624H392V211H472V152H392V0H318ZM129 212H318V498L129 212Z" />
<glyph unicode="5" glyph-name="five" d="M311 405T353 380T420 307T445 196Q445 133 420 86T350 14T249 -11Q192 -11 144 14T64 85L120 127L121 128Q122 128 122 128T122 127Q148 87 177 69T253 50Q285 50 313 68T357 120T374 199Q374 267 338 307T246 347Q214
347 183 332T129 288L85 306L106 623H422V560H165L155 381Q204 405 257 405Q311 405 353 380ZM116 136T123 129L121 128Q116 136 123 129ZM132 122T123 129L128 133L132 128Q132 122 123 129Z" />
<glyph unicode="6" glyph-name="six" d="M315 402T354 377T416 305T439 198Q439 137 416 90T351 17T261 -10Q169 -10 118 68T67 284Q67 394 94 472T170 590T287 630Q365 630 424 573L380 523L379 522Q358 548 339 558T289 568Q256 568 222 548T163 474T136 327Q157
362 192 382T268 402Q315 402 354 377ZM368 526T377 519L373 515L368 520Q368 526 377 519ZM385 514T382 516T377 519L379 522Q385 514 382 516ZM309 52T340 90T371 197Q371 244 355 276T314 325T262 341Q227 341 194 318T140 257Q138 241 138 231Q138 187 153
146T198 79T264 52Q309 52 340 90Z" />
<glyph unicode="7" glyph-name="seven" d="M242 285T345 557H79V623H432V584Q309 274 234 0H155Q242 285 345 557Z" />
<glyph unicode="8" glyph-name="eight" d="M193 -10T150 12T83 72T60 157Q60 211 94 258T185 331Q142 353 116 392T90 477Q90 544 133 587T255 631Q337 631 378 590T420 483Q420 438 393 398T321 333Q375 308 408 262T441 161Q441 113 418 74T351 13T250 -10Q193
-10 150 12ZM304 379T328 412T352 481Q352 519 326 545T253 572Q206 572 182 547T157 484Q157 442 184 415T267 358Q304 379 328 412ZM308 53T339 83T370 161Q370 207 334 245T237 303Q191 284 162 246T132 164Q132 117 164 85T252 53Q308 53 339 83Z" />
<glyph unicode="9" glyph-name="nine" d="M305 627T348 594T415 500T439 363Q439 179 384 86T228 -10Q138 -10 79 47L122 96L123 97L124 96Q145 71 167 61T222 50Q290 50 327 116T371 281Q346 259 317 248T249 236Q198 236 157 260T92 326T68 424Q68 481 92 527T157
600T247 627Q305 627 348 594ZM292 297T320 309T372 349Q368 459 339 512T250 566Q198 566 167 528T136 425Q136 367 169 332T250 297Q292 297 320 309ZM134 92T125 99L129 104L134 99Q134 92 125 99ZM117 104T125 99L123 97Q117 104 125 99Z" />
<glyph unicode=":" glyph-name="colon" d="M215 308T197 325T179 365Q179 389 196 406T238 423Q262 423 280 406T298 365Q298 342 280 325T238 308Q215 308 197 325ZM213 -11T196 5T179 46Q179 70 196 87T238 104Q262 104 280 87T298 46Q298 23 281 6T238 -11Q213
-11 196 5Z" />
<glyph unicode=";" glyph-name="semicolon" d="M215 308T197 325T179 365Q179 389 196 406T238 423Q262 423 280 406T298 365Q298 342 280 325T238 308Q215 308 197 325ZM165 -138Q193 -112 211 -82T230 -33Q230 -24 225 -18T207 0Q193 13 186 22T179 44Q179 69
195 86T238 103Q265 103 285 80T306 20Q306 -58 199 -168L165 -138Z" />
<glyph unicode="&lt;" glyph-name="less" d="M461 47L35 296V344L458 567V496L111 319L461 123V47Z" />
<glyph unicode="=" glyph-name="equal" d="M45 377V438H456V377H45ZM45 220V281H456V220H45Z" />
<glyph unicode="&gt;" glyph-name="greater" d="M40 47V123L389 319L42 496V567L466 344V296L40 47Z" />
<glyph unicode="?" glyph-name="question" d="M226 226Q226 275 244 305T297 369Q331 403 348 431T365 504Q365 549 334 576T254 604Q208 604 176 591T133 560Q114 530 114 526Q114 525 117 526T122 524L119 518L110 523L64 561Q99 613 143 639T257 665Q337 665
385 623T434 509Q434 452 414 418T356 348Q323 315 308 290T292 226V185H226V226ZM237 -11T220 6T203 46Q203 69 220 86T261 103Q284 103 301 86T318 46Q318 23 301 6T261 -11Q237 -11 220 6Z" />
<glyph unicode="@" glyph-name="at" d="M226 -11T166 25T68 134T31 313Q31 418 66 490T156 597T271 633Q322 633 366 608T438 531T465 408V175H405V213Q366 167 308 167Q251 167 213 204T175 299Q175 364 226 404T372 445Q392 445 402 444Q402 502 366 540T268
579Q219 579 178 551T113 466T89 324Q89 233 119 171T197 77T301 46Q359 46 408 79L435 30Q370 -11 295 -11Q226 -11 166 25ZM364 222T384 261T405 394Q381 396 371 396Q306 396 272 372T237 303Q237 265 257 244T317 222Q364 222 384 261Z" />
<glyph unicode="A" glyph-name="A" d="M412 0L349 182H148L85 0H16L246 634H254L484 0H412ZM167 236H331L249 474L167 236Z" />
<glyph unicode="B" glyph-name="B" d="M48 623H225Q329 623 380 583T432 472Q432 426 408 388T340 334Q392 316 424 272T457 175Q457 93 399 47T224 0H48V623ZM215 365Q362 365 362 464Q362 509 329 536T226 564H117V365H215ZM236 61Q383 61 383 179Q383 306 219
306H117V61H236Z" />
<glyph unicode="C" glyph-name="C" d="M319 50T353 70T408 126L460 92Q429 41 387 16T285 -10Q215 -10 161 24T74 130T41 308Q41 423 76 494T165 597T281 628Q347 628 395 595T469 505L409 477Q408 477 408 477T408 478Q382 530 350 551T279 572Q200 572 155 504T109
313Q109 236 132 176T194 83T282 50Q319 50 353 70ZM399 482T399 482Q401 482 407 476L400 473L397 480Q399 482 399 482ZM413 468T407 476L409 477Q413 468 407 476Z" />
<glyph unicode="D" glyph-name="D" d="M54 623H199Q276 623 321 603T399 538Q460 456 460 308Q454 157 390 78T187 -1H54V623ZM184 54Q390 54 390 304Q389 431 343 497T195 564H120V54H184Z" />
<glyph unicode="E" glyph-name="E" d="M59 0V624H441V562H125V357H386V293H125V62H438V0H59Z" />
<glyph unicode="F" glyph-name="F" d="M78 0V624H437V563H148V367H381V306H148V0H78Z" />
<glyph unicode="G" glyph-name="G" d="M460 299V55Q371 -10 277 -10Q203 -10 149 29T65 139T36 304Q35 428 72 500T163 601T272 630Q328 630 380 601T458 525L409 486L408 485Q374 530 345 549T273 568Q198 568 152 510T105 319Q105 191 150 122T277 52Q307 52
340 61T395 90V238H282V299H460ZM397 491T406 484L401 479L397 485Q397 491 406 484ZM413 478T406 484L408 485Q413 478 406 484Z" />
<glyph unicode="H" glyph-name="H" d="M50 623H132V616Q126 610 125 603T123 579V357H367V623H449V616Q443 610 442 603T440 579V0H366V297H123V0H50V623Z" />
<glyph unicode="I" glyph-name="I" d="M81 0V59H204V564H88V623H397V564H274V58H403V0H81Z" />
<glyph unicode="J" glyph-name="J" d="M361 564V209Q363 133 341 84T282 12T198 -11Q106 -11 49 58L89 108L90 109L91 108Q119 78 142 65T196 51Q247 51 269 86T292 208V564H172V623H457V564H361ZM101 108T98 108T92 111L96 116L101 112Q101 108 98 108ZM85 114T88
113T92 111L90 109Q85 114 88 113Z" />
<glyph unicode="K" glyph-name="K" d="M166 312L117 258V0H42V623H126V616Q120 610 119 603T117 579V336L377 628Q402 623 429 623H455L219 354L471 0L381 -4L166 312Z" />
<glyph unicode="L" glyph-name="L" d="M66 623H148V616Q142 610 141 603T139 579V60H439V0H66V623Z" />
<glyph unicode="M" glyph-name="M" d="M41 0V623H96L250 318L407 624H460V0H394V470L259 219H232L106 467V0H41Z" />
<glyph unicode="N" glyph-name="N" d="M50 623H118L380 161V623H456V616Q450 610 449 603T447 579V0H392L117 490V0H50V623Z" />
<glyph unicode="O" glyph-name="O" d="M143 -11T85 72T27 308Q27 457 85 542T250 627Q356 627 414 542T473 308Q473 155 415 72T250 -11Q143 -11 85 72ZM322 50T361 117T401 308Q401 427 361 496T250 566Q179 566 139 497T99 308Q99 184 138 117T250 50Q322 50 361 117Z" />
<glyph unicode="P" glyph-name="P" d="M59 623H259Q358 623 407 574T456 447Q456 370 408 323T264 275H131V0H59V623ZM256 337Q322 337 353 365T384 445Q384 494 352 525T257 557H131V337H256Z" />
<glyph unicode="Q" glyph-name="Q" d="M304 -149T265 -118T226 -7Q174 0 129 37T57 143T29 308Q29 424 63 496T147 599T251 630Q311 630 362 596T443 490T471 311Q471 173 425 93T287 -7Q289 -44 305 -63T361 -82L442 -77L440 -145H401Q304 -149 265 -118ZM293
55T326 79T382 157T404 294Q404 398 381 459T323 544T251 569Q177 569 137 498T97 323Q97 203 139 129T256 55Q293 55 326 79Z" />
<glyph unicode="R" glyph-name="R" d="M56 623H240Q346 623 396 576T447 445Q447 390 412 341T320 278L464 0H386L248 275H127V0H56V623ZM248 337Q313 337 344 365T375 445Q375 495 344 526T248 557H127V337H248Z" />
<glyph unicode="S" glyph-name="S" d="M387 307T421 268T455 170Q455 124 433 83T363 16T247 -10Q126 -10 52 69L88 132V133Q89 133 89 133T89 132Q116 96 158 75T257 53Q312 53 349 84T386 160Q386 189 375 208T333 247T243 292Q151 328 112 374T72 477Q72 547
123 589T262 631Q313 631 357 611T435 553L396 501L395 500Q365 541 333 557T251 573Q203 573 174 547T144 482Q144 453 156 432T202 390T298 344Q387 307 421 268ZM384 498Q384 501 388 499T393 497L390 493L384 497V498ZM401 492T398 494T393 497L395 500Q401
492 398 494ZM99 136Q99 133 95 135T90 137L92 141L99 137V136ZM82 141T90 137L88 133Q82 141 90 137Z" />
<glyph unicode="T" glyph-name="T" d="M208 0V561H31V624H463V561H279V0H208Z" />
<glyph unicode="U" glyph-name="U" d="M152 -11T101 48T50 215V623H128V616Q122 610 121 603T119 579V214Q119 134 150 91T252 48Q324 48 355 91T387 217V623H454V218Q454 103 401 46T251 -11Q152 -11 101 48Z" />
<glyph unicode="V" glyph-name="V" d="M237 -4L25 624H98L258 145L409 623H478L269 -4H237Z" />
<glyph unicode="W" glyph-name="W" d="M117 0L17 623H82L149 202L249 577H271L372 200L429 623H488L389 0H362L255 407L146 0H117Z" />
<glyph unicode="X" glyph-name="X" d="M41 0L211 318L44 624H119L250 387L379 624H449L291 319L468 0H389L251 247L117 0H41Z" />
<glyph unicode="Y" glyph-name="Y" d="M220 0V246L28 623H108L261 321L399 623H473L296 246V0H220Z" />
<glyph unicode="Z" glyph-name="Z" d="M50 49L364 560H62V623H447V574L138 62H419Q435 62 442 64T456 72H463V0H50V49Z" />
<glyph unicode="[" glyph-name="bracketleft" d="M131 -89V670H417V610H195V-32H418V-89H131Z" />
<glyph unicode="\" glyph-name="backslash" d="M378 -42L64 634L123 665L437 -13L378 -42Z" />
<glyph unicode="]" glyph-name="bracketright" d="M418 -89H131V-32H354V610H132V670H418V-89Z" />
<glyph unicode="^" glyph-name="asciicircum" d="M143 343L93 367L246 623H268L403 368L350 343L253 518L143 343Z" />
<glyph unicode="_" glyph-name="underscore" d="M35 -80V-19H466V-80H35Z" />
<glyph unicode="`" glyph-name="grave" d="M255 507L154 642L209 682L293 533L255 507Z" />
<glyph unicode="a" glyph-name="a" d="M342 467T393 416T445 243V0H367V70Q325 -11 211 -11Q135 -11 92 23T49 115Q49 163 80 199T163 254T279 274Q336 274 382 268Q376 345 342 376T239 408Q205 408 174 395T116 357L81 403Q145 467 244 467Q342 467 393 416ZM292
44T335 87T382 213Q337 220 285 220Q209 220 165 195T121 119Q121 44 218 44Q292 44 335 87Z" />
<glyph unicode="b" glyph-name="b" d="M225 -11T190 7T131 60L106 0H60V665H142V658Q136 652 135 645T133 621V387Q155 424 192 446T269 468Q355 468 406 408T457 233Q457 155 430 100T359 17T266 -11Q225 -11 190 7ZM311 53T347 95T383 229Q383 317 350 361T259
406Q203 406 168 356T133 227Q133 53 257 53Q311 53 347 95Z" />
<glyph unicode="c" glyph-name="c" d="M358 54T408 110L450 61Q383 -11 285 -11Q219 -11 167 20T86 105T56 228Q56 296 85 350T167 435T284 466Q339 466 384 444T457 381L412 337L411 336Q382 374 352 389T276 405Q237 405 204 384T150 323T130 233Q130 182 150
141T207 77T289 54Q358 54 408 110ZM400 341T409 334L405 330L400 335Q400 341 409 334ZM416 329T414 331T409 334L411 336Q416 329 414 331Z" />
<glyph unicode="d" glyph-name="d" d="M185 -10T142 17T72 100T45 233Q45 312 73 365T145 443T238 469Q284 469 318 448T371 390V665H447V658Q441 652 440 645T438 621L439 71Q439 47 440 32T449 0H378Q371 16 370 31T368 71Q346 33 312 12T234 -10Q185 -10 142
17ZM307 53T336 102T365 231Q365 312 334 361T239 410Q179 410 147 366T115 244Q115 156 148 105T245 53Q307 53 336 102Z" />
<glyph unicode="e" glyph-name="e" d="M170 -10T110 52T49 227Q49 302 77 356T152 439T259 468Q342 468 393 413T445 251Q445 240 443 218H118Q122 134 165 91T274 48Q346 48 392 99L432 60Q374 -10 272 -10Q170 -10 110 52ZM372 274Q372 338 340 375T254 413Q204
413 167 378T121 274H372Z" />
<glyph unicode="f" glyph-name="f" d="M435 555L434 554Q406 589 387 601T332 613Q285 613 258 585T231 495V457H381V400H231V0H162V400H63V457H162V495Q162 583 207 627T330 671Q374 671 411 655T473 608L435 555ZM423 552Q423 555 427 553T432 551L429 547L423
551V552ZM434 554Q440 546 437 548T432 551L434 554Z" />
<glyph unicode="g" glyph-name="g" d="M466 411T449 411Q401 411 369 390Q386 356 386 315Q386 270 367 234T311 176T226 155Q188 155 155 169Q137 147 137 127Q137 103 167 93T277 82Q374 82 409 53T445 -34Q445 -93 397 -132T247 -172Q149 -172 94 -142T38 -54Q38
-18 58 8T109 49Q76 71 76 110Q76 150 117 194Q92 216 79 247T66 315Q66 359 85 395T141 453T226 474Q299 474 343 427Q367 449 392 459T449 470L466 469L475 410Q466 411 449 411ZM269 215T297 244T326 315Q326 357 298 386T226 415Q183 415 155 386T126 315Q126
273 154 244T226 215Q269 215 297 244ZM379 -21T371 -8T337 12T262 19Q190 19 147 32Q123 16 114 -1T104 -46Q104 -80 142 -99T248 -118Q314 -118 346 -99T379 -45Q379 -21 371 -8Z" />
<glyph unicode="h" glyph-name="h" d="M73 665H152V658Q146 652 145 645T143 621V376Q170 418 210 443T293 468Q358 468 395 422T432 277V0H362V275Q362 343 339 374T278 405Q246 405 215 388T164 338T143 263V0H73V665Z" />
<glyph unicode="i" glyph-name="i" d="M100 0V58H217V399H106V457H289V58H396V0H100ZM228 553T213 568T198 604Q198 626 212 641T249 656Q270 656 285 641T301 604Q301 583 286 568T249 553Q228 553 213 568Z" />
<glyph unicode="j" glyph-name="j" d="M369 457V22Q369 -77 320 -125T194 -174Q150 -174 112 -158T48 -110L88 -56L89 -55L90 -56Q110 -82 134 -97T193 -112Q240 -112 268 -80T296 18V398H126V457H369ZM100 -53Q100 -56 97 -55T91 -52L94 -48L100 -52V-53ZM86
-50T87 -50T91 -52L89 -55Q86 -50 87 -50ZM306 553T291 568T276 604Q276 626 290 641T327 656Q348 656 363 641T379 604Q379 583 364 568T327 553Q306 553 291 568Z" />
<glyph unicode="k" glyph-name="k" d="M199 229L139 173V0H66V665H148V658Q142 652 141 645T139 621V247L368 459Q393 454 421 454H447L255 273L479 0L386 -4L199 229Z" />
<glyph unicode="l" glyph-name="l" d="M79 0V58H214V607H85V665H287V58H421V0H79Z" />
<glyph unicode="m" glyph-name="m" d="M38 457H104V412Q120 437 145 452T197 468Q227 468 249 449T278 401Q291 431 319 449T381 468Q426 468 448 436T469 351V0H403V324Q403 381 392 398T360 415Q342 415 325 398T298 355T287 302V0H220V318Q220 374 210 393T170
413Q155 413 140 400T114 362T104 305V0H38V457Z" />
<glyph unicode="n" glyph-name="n" d="M72 457H142V376Q169 418 210 443T297 468Q358 468 394 422T431 277V0H361V275Q361 343 338 374T277 405Q246 405 215 387T163 337T142 263V0H72V457Z" />
<glyph unicode="o" glyph-name="o" d="M189 -8T141 22T66 106T39 229Q39 298 66 352T141 436T250 467Q311 467 359 437T434 352T461 229Q461 160 434 106T359 22T250 -8Q189 -8 141 22ZM289 52T319 75T367 138T385 230Q385 308 347 357T250 407Q191 407 153 358T115
230Q115 179 132 139T180 75T250 52Q289 52 319 75Z" />
<glyph unicode="p" glyph-name="p" d="M60 457H133V367Q148 417 185 442T272 467Q324 467 367 441T437 361T463 232Q463 155 436 100T365 16T270 -12Q229 -12 193 7T134 60V-167H60V457ZM313 52T350 93T388 229Q388 314 355 359T261 405Q204 405 169 358T133 213Q135
134 168 93T258 52Q313 52 350 93Z" />
<glyph unicode="q" glyph-name="q" d="M370 73Q349 34 312 12T230 -10Q178 -10 135 20T67 105T42 230Q42 303 69 357T142 440T243 469Q290 469 323 449T374 390V457H442V-167H370V73ZM299 53T333 99T368 241Q368 410 251 410Q191 410 153 365T115 233Q115 150
149 102T243 53Q299 53 333 99Z" />
<glyph unicode="r" glyph-name="r" d="M426 362V361Q397 388 378 397T332 406Q296 406 264 388T212 334T192 242V-1H119V457H194L192 373Q211 418 250 443T337 468Q410 468 458 418L426 362ZM433 355T430 356T424 358L426 361Q433 355 430 356ZM415 358Q415 361
418 361T424 358L422 353L415 357V358Z" />
<glyph unicode="s" glyph-name="s" d="M369 243T404 213T440 133Q440 71 392 31T251 -10Q135 -10 57 62L97 130L98 131L99 130Q130 90 163 70T253 50Q307 50 338 69T369 123Q369 152 344 171T254 211Q82 260 82 353Q82 406 125 437T250 468Q312 468 354 451T432
396L391 346L390 345Q369 377 331 395T252 414Q209 414 182 399T154 357Q154 332 182 311T283 269Q369 243 404 213ZM379 348T387 342L384 338L379 343Q379 348 387 342ZM393 341T393 340T390 340T387 342L390 345Q393 341 393 340ZM109 134Q109 130 100 134L103
139L109 135V134ZM95 136T96 136T100 134L98 131Q95 136 96 136Z" />
<glyph unicode="t" glyph-name="t" d="M444 42Q378 -7 299 -7Q223 -7 192 39T160 189Q160 206 162 248L171 398H70V457H175L182 579L262 592L272 593L273 587Q266 577 263 570T258 548L247 457H399V398H243L234 243Q232 203 232 190Q232 110 250 82T310 53Q340
53 365 64T422 99L444 42Z" />
<glyph unicode="u" glyph-name="u" d="M149 -11T106 42T64 202L65 457H135V202Q135 120 163 84T239 47Q291 47 326 87T362 205V457H432V71Q432 47 433 32T442 0H373Q366 15 365 31T363 70Q341 32 304 11T221 -11Q149 -11 106 42Z" />
<glyph unicode="v" glyph-name="v" d="M455 457Q439 376 388 257L277 0H221L40 457H112L253 99L327 268Q373 372 387 457H455Z" />
<glyph unicode="w" glyph-name="w" d="M16 457H79L153 90L231 414H275L372 91Q400 278 407 336T414 442V457H481Q451 225 405 -1H337L253 295L173 -1H108L16 457Z" />
<glyph unicode="x" glyph-name="x" d="M47 0L208 232L50 457H129L248 288L362 457H436L288 235L456 0H374L248 178L129 0H47Z" />
<glyph unicode="y" glyph-name="y" d="M443 457Q437 416 425 376T389 270L275 -52Q252 -116 215 -145T127 -174Q63 -174 22 -135L53 -86L54 -85L55 -86Q71 -101 89 -108T131 -115Q168 -115 190 -89T233 -3L46 457H121L263 91L323 275Q345 344 355 380T371 457H443ZM65
-82Q65 -84 63 -84L55 -82L59 -77L65 -81V-82ZM49 -80T51 -81T55 -82L54 -85Q49 -80 51 -81Z" />
<glyph unicode="z" glyph-name="z" d="M50 49L333 394H71V457H426V408L148 62H406Q422 62 429 64T443 72H450V0H50V49Z" />
<glyph unicode="{" glyph-name="braceleft" d="M295 -159T248 -144T179 -91T159 16L163 116Q163 179 141 203T73 228H53V284H72Q119 284 142 309T165 391L163 463Q163 637 345 637H408V580H326Q233 580 233 474L235 404Q235 294 148 256Q233 228 233 101L230 17Q230
-50 259 -76T356 -103H407V-159H371Q295 -159 248 -144Z" />
<glyph unicode="|" glyph-name="bar" d="M217 -151V652H284V-151H217Z" />
<glyph unicode="}" glyph-name="braceright" d="M55 -159V-103H106Q174 -103 203 -77T232 17L229 101Q229 228 314 256Q227 294 227 404L229 474Q229 580 136 580H54V637H117Q299 637 299 463L297 391Q297 335 320 310T390 284H409V228H389Q343 228 321 204T299
116L303 16Q306 -53 284 -91T214 -144T91 -159H55Z" />
<glyph unicode="~" glyph-name="asciitilde" d="M323 266T304 274T261 296Q239 308 226 314T196 320Q172 320 154 310T120 273L71 295Q88 331 119 353T194 375Q218 375 235 368T277 346Q297 333 312 327T344 321Q366 321 380 331T415 369L461 341Q435 299 410
283T348 266Q323 266 304 274Z" />
<glyph unicode="&#xa0;" glyph-name="uni00A0" />
<glyph unicode="&#xa1;" glyph-name="exclamdown" d="M263 598T281 581T299 540Q299 516 281 498T239 480Q215 480 198 498T180 540Q180 564 197 581T239 598Q263 598 281 581ZM265 393L292 3Q292 -81 241 -81Q217 -81 204 -62T190 -7L215 393H265Z" />
<glyph unicode="&#xa2;" glyph-name="cent" d="M358 97T408 153L450 104Q383 32 285 32Q268 32 260 33L246 -73H194L210 44Q140 67 98 128T56 271Q56 337 84 390T161 475T273 509L289 623H338L323 506Q365 499 400 478T457 424L412 380L411 379Q388 409 366 424T314
445L269 98Q275 97 289 97Q358 97 408 153ZM130 220T154 177T219 113L265 448Q229 445 198 423T149 363T130 276Q130 220 154 177ZM400 384T409 377L405 373L400 378Q400 384 409 377ZM416 372T414 374T409 377L411 379Q416 372 414 374Z" />
<glyph unicode="&#xa3;" glyph-name="sterling" d="M39 49Q101 79 124 115T148 222Q148 260 133 321H67V378H119Q112 410 112 442Q112 495 135 536T199 600T288 623Q363 623 418 572L374 517Q353 542 332 554T270 566Q229 566 204 533T179 443Q179 421 187 378H317V321H201Q214
268 214 224Q214 149 178 90Q184 91 195 91Q218 91 240 86T293 69Q323 59 339 55T373 51Q410 51 444 79L470 27Q418 -15 366 -15Q349 -15 290 4Q248 17 224 23T180 30Q136 30 65 -8L39 49Z" />
<glyph unicode="&#xa4;" glyph-name="currency" d="M68 199L124 256Q96 296 96 345Q96 396 125 435L68 492L104 527L160 471Q201 500 251 500Q299 500 340 472L396 527L432 492L376 437Q406 395 406 345Q406 295 377 254L432 199L396 164L341 219Q302 190 251
190Q201 190 159 220L104 164L68 199ZM297 245T324 274T351 345Q351 388 324 417T250 446Q204 446 177 417T150 345Q150 303 177 274T250 245Q297 245 324 274Z" />
<glyph unicode="&#xa5;" glyph-name="yen" d="M292 295V274H426V217H292V154H426V98H292V0H224V98H84V154H224V217H84V274H224V295L36 624H114L259 363L392 623H466L292 295Z" />
<glyph unicode="&#xa6;" glyph-name="brokenbar" d="M217 295V652H284V295H217ZM217 -151V196H284V-151H217Z" />
<glyph unicode="&#xa7;" glyph-name="section" d="M186 -54T141 -32T65 31L117 92Q124 90 125 83T132 66T154 41Q186 12 234 12Q281 12 309 34T337 91Q337 126 313 147T220 188Q143 213 111 242T79 316Q79 349 101 376T161 417Q94 457 94 530Q94 568 115 600T174
652T257 672Q306 672 347 649T413 583L356 533Q352 537 350 544Q346 571 319 592T256 613Q219 613 193 591T167 536Q167 509 180 492T220 462T302 428L326 419Q418 375 418 305Q418 275 398 249T344 209Q408 166 408 98Q408 55 386 20T325 -34T238 -54Q186 -54
141 -32ZM343 248T343 292Q343 324 320 344T240 384L197 399Q177 392 165 375T152 336Q152 303 176 282T256 244L276 238Q303 230 307 228Q343 248 343 292Z" />
<glyph unicode="&#xa8;" glyph-name="dieresis" d="M142 564T127 579T112 614Q112 634 127 649T163 665Q183 665 198 650T213 614Q213 594 198 579T163 564Q142 564 127 579ZM320 564T306 578T291 614Q291 635 305 650T341 665Q361 665 376 650T391 614Q391 594
376 579T341 564Q320 564 306 578Z" />
<glyph unicode="&#xa9;" glyph-name="copyright" d="M190 19T135 53T47 146T14 274Q14 343 46 402T135 495T256 530Q321 530 376 496T465 402T498 274Q498 168 426 93Q355 19 255 19Q190 19 135 53ZM310 62T355 91T428 169T455 275Q455 332 429 381T357 459T257
488Q203 488 158 460T86 382T59 274Q59 216 85 168T157 91T257 62Q310 62 355 91ZM221 122T188 143T135 199T115 276Q115 317 135 351T187 404T254 424Q307 424 342 399T387 331L335 312Q331 318 331 327T326 343T302 364Q286 374 262 374Q229 374 200 351T171
281Q171 237 198 206T265 174Q289 174 309 186T340 219L384 190Q363 158 330 140T261 122Q221 122 188 143Z" />
<glyph unicode="&#xaa;" glyph-name="ordfeminine" d="M170 257T136 287T102 362Q102 478 276 478Q291 478 325 476Q325 525 308 547T251 569Q189 569 157 525L123 566Q173 622 257 622Q327 620 358 586T389 485V267H326V300Q280 257 224 257Q170 257 136 287ZM277
311T302 340T328 424Q310 426 278 426Q221 426 194 411T166 363Q166 342 183 327T231 311Q277 311 302 340ZM76 152V206H425V152H76Z" />
<glyph unicode="&#xab;" glyph-name="guillemotleft" d="M225 61L67 230V253L219 400L258 359L137 241L265 101L225 61ZM406 61L249 230V253L400 400L439 359L318 241L446 101L406 61Z" />
<glyph unicode="&#xac;" glyph-name="logicalnot" d="M350 157V284H91V347H414V157H350Z" />
<glyph unicode="&#xad;" glyph-name="uni00AD" d="M71 281V348H431V281H71Z" />
<glyph unicode="&#xae;" glyph-name="registered" d="M190 19T135 53T47 146T14 274Q14 343 46 402T135 495T256 530Q321 530 376 496T465 402T498 274Q498 168 426 93Q355 19 255 19Q190 19 135 53ZM310 62T355 91T428 169T455 275Q455 332 429 381T357 459T257
488Q203 488 158 460T86 382T59 274Q59 216 85 168T157 91T257 62Q310 62 355 91ZM267 256H201V133H155V425H249Q311 425 340 402T369 340Q369 314 354 293T312 263L376 138L329 131L267 256ZM253 296Q324 296 324 340Q324 384 250 384H201V296H253Z" />
<glyph unicode="&#xaf;" glyph-name="overscore" d="M123 565V621H377V565H123Z" />
<glyph unicode="&#xb0;" glyph-name="degree" d="M219 370T188 388T139 436T121 504Q121 541 139 572T189 621T256 639Q292 639 323 621T372 571T391 504Q391 468 373 438T324 389T256 370Q219 370 188 388ZM288 425T309 448T331 505Q331 537 310 561T257 586Q226
586 204 562T182 505Q182 473 203 449T256 425Q288 425 309 448Z" />
<glyph unicode="&#xb1;" glyph-name="plusminus" d="M222 155V343H45V404H222V575H285V404H456V343H285V155H222ZM46 17V80H457V17H46Z" />
<glyph unicode="&#xb2;" glyph-name="uni00B2" d="M400 317V253H121V307Q200 372 241 409T302 474T322 525Q322 553 307 567T266 582Q236 582 208 572T176 553Q158 518 158 517Q158 516 159 516Q160 516 163 517T167 515L164 509L155 514L111 554Q135 594 175
617T267 640Q325 640 356 608T388 525Q388 493 370 465T323 411T243 346Q232 337 219 328T193 307H356Q372 307 379 309T393 317H400Z" />
<glyph unicode="&#xb3;" glyph-name="uni00B3" d="M368 449T387 425T407 367Q407 334 387 307T333 263T259 247Q169 247 112 316L153 363L154 364Q175 331 198 317T260 302Q297 302 320 318T343 362Q343 393 319 409T256 425Q248 425 226 423V478Q233 477 246
477Q286 477 303 491T321 532Q321 583 257 583Q202 583 163 535L123 579Q175 640 258 640Q314 640 349 614T384 544Q384 513 372 492T335 457Q368 449 387 425ZM165 361T157 367L160 371L165 366Q165 361 157 367ZM151 368T151 369T154 369T157 367L154 364Q151
368 151 369Z" />
<glyph unicode="&#xb4;" glyph-name="acute" d="M254 522L216 548L300 697L355 657L254 522Z" />
<glyph unicode="&#xb5;" glyph-name="uni00B5" d="M24 -131T33 -1Q44 175 44 202V457H110V186Q110 110 136 79T207 43Q256 47 282 85T308 192V457H372V116Q372 47 412 47Q426 47 440 58T461 84L467 96L494 45Q457 -10 406 -10Q374 -10 351 12T324 67Q307 30 274
10T201 -10Q163 -10 132 8T87 60Q87 -91 86 -167H24Q24 -131 33 -1Z" />
<glyph unicode="&#xb6;" glyph-name="paragraph" d="M243 322Q194 324 153 349T88 414T64 502Q64 574 123 619T311 665H436V-68H378V608H302V-68H243V322Z" />
<glyph unicode="&#xb7;" glyph-name="middot" d="M213 274T196 290T179 331Q179 355 196 371T238 388Q261 388 279 371T298 331Q298 308 281 291T238 274Q213 274 196 290Z" />
<glyph unicode="&#xb8;" glyph-name="cedilla" d="M215 -197T169 -166L194 -124Q232 -154 281 -154Q331 -154 331 -118Q331 -102 318 -94T280 -85H250L261 0H305L299 -47Q341 -51 362 -69T384 -112Q384 -148 354 -172T268 -197Q215 -197 169 -166Z" />
<glyph unicode="&#xb9;" glyph-name="uni00B9" d="M235 253V563L138 528L122 559L255 633H299V253H235Z" />
<glyph unicode="&#xba;" glyph-name="ordmasculine" d="M204 256T170 278T116 341T96 434Q96 488 117 531T173 598T249 622Q313 622 355 574T397 441Q397 385 376 343T321 279T245 256Q204 256 170 278ZM285 314T311 346T337 437Q337 496 311 531T247 566Q209
566 183 531T156 438Q156 380 182 347T246 314Q285 314 311 346ZM76 152V206H425V152H76Z" />
<glyph unicode="&#xbb;" glyph-name="guillemotright" d="M112 61L72 101L200 241L79 359L118 400L269 253V230L112 61ZM293 61L253 101L381 241L260 359L299 400L451 253V230L293 61Z" />
<glyph unicode="&#xbc;" glyph-name="onequarter" d="M95 374V614L18 594L5 619L112 677H146V374H95ZM123 -42L76 -16L389 665L437 638L123 -42ZM381 -70V8H236V37L396 242H427V45H477V8H427V-70H381ZM288 45H382V164L288 45Z" />
<glyph unicode="&#xbd;" glyph-name="onehalf" d="M95 374V614L18 594L5 619L112 677H146V374H95ZM123 -42L76 -16L389 665L437 638L123 -42ZM270 -38Q312 18 375 65Q413 95 426 109T439 140Q439 165 423 179T379 194Q333 194 308 160Q306 158 304 152T300 143L263
168Q302 235 389 235Q430 235 458 208T487 143Q487 121 481 106T456 75T398 31Q354 -1 329 -29H475Q477 -29 483 -26T494 -22V-73H270V-38Z" />
<glyph unicode="&#xbe;" glyph-name="threequarters" d="M57 374T11 426L49 468Q51 466 54 457T60 445Q86 419 123 419Q152 419 174 433T197 467Q197 491 181 503T126 515Q110 515 102 514V554Q108 552 111 552L124 553Q154 553 169 565T185 594Q185 612 168 627T125
642Q80 642 51 604L22 634Q64 684 128 684Q172 684 202 659T232 598Q232 576 220 559T187 535Q213 531 229 512T246 467Q246 428 210 401T125 374Q57 374 11 426ZM128 -42L81 -16L394 665L442 638L128 -42ZM381 -70V8H236V37L396 242H427V45H477V8H427V-70H381ZM288
45H382V164L288 45Z" />
<glyph unicode="&#xbf;" glyph-name="questiondown" d="M261 553T278 536T295 496Q295 473 278 456T237 439Q214 439 197 456T180 496Q180 519 197 536T237 553Q261 553 278 536ZM272 316Q272 267 254 237T201 173Q167 139 150 111T133 38Q133 -7 164 -34T244
-62Q290 -62 322 -49T365 -18Q384 12 384 16Q384 17 381 16T376 18L379 24L388 19L434 -19Q399 -71 355 -97T241 -123Q161 -123 113 -81T64 33Q64 90 84 124T142 194Q175 227 190 252T206 316V357H272V316Z" />
<glyph unicode="&#xc0;" glyph-name="Agrave" d="M412 0L349 182H148L85 0H16L246 634H254L484 0H412ZM167 236H331L249 474L167 236ZM293 660L123 721L163 791L316 702L293 660Z" />
<glyph unicode="&#xc1;" glyph-name="Aacute" d="M412 0L349 182H148L85 0H16L246 634H254L484 0H412ZM167 236H331L249 474L167 236ZM177 660L154 702L306 791L346 721L177 660Z" />
<glyph unicode="&#xc2;" glyph-name="Acircumflex" d="M412 0L349 182H148L85 0H16L246 634H254L484 0H412ZM167 236H331L249 474L167 236ZM125 655L92 693L235 791H257L408 692L378 656L248 726L125 655Z" />
<glyph unicode="&#xc3;" glyph-name="Atilde" d="M412 0L349 182H148L85 0H16L246 634H254L484 0H412ZM167 236H331L249 474L167 236ZM425 763Q403 721 383 705T332 688Q311 688 295 695T256 718Q237 730 226 736T200 742Q182 742 169 732T144 695L95 717Q110
753 135 775T198 797Q219 797 234 790T270 768Q287 755 300 749T328 743Q344 743 354 753T379 791L425 763Z" />
<glyph unicode="&#xc4;" glyph-name="Adieresis" d="M412 0L349 182H148L85 0H16L246 634H254L484 0H412ZM167 236H331L249 474L167 236ZM140 688T125 703T110 738Q110 758 125 773T160 789Q181 789 196 774T211 738Q211 718 196 703T160 688Q140 688 125 703ZM318
688T304 702T289 738Q289 759 303 774T338 789Q359 789 374 774T389 738Q389 718 374 703T338 688Q318 688 304 702Z" />
<glyph unicode="&#xc5;" glyph-name="Aring" d="M349 182H148L85 0H16L241 619Q206 623 182 648T158 707Q158 743 185 769T250 795Q287 795 314 769T341 706Q341 673 318 648T259 619L484 0H412L349 182ZM209 688T221 675T251 662Q268 662 280 675T292 707Q292
727 280 740T251 753Q233 753 221 740T209 707Q209 688 221 675ZM167 236H331L249 474L167 236Z" />
<glyph unicode="&#xc6;" glyph-name="AE" d="M15 0L211 624H495V562H324V357H469V293H324V62H493V0H263V169H133L79 0H15ZM147 227H263V562H252L147 227Z" />
<glyph unicode="&#xc7;" glyph-name="Ccedilla" d="M319 50T353 70T408 126L460 92Q433 47 398 22T313 -9L308 -47Q350 -51 371 -69T393 -112Q393 -148 363 -172T277 -197Q224 -197 178 -166L203 -124Q241 -154 290 -154Q340 -154 340 -118Q340 -102 327 -94T289
-85H259L269 -10Q167 -4 105 76T41 308Q41 423 76 494T165 597T281 628Q347 628 395 595T469 505L409 477Q408 477 408 477T408 478Q382 530 350 551T279 572Q200 572 155 504T109 313Q109 236 132 176T194 83T282 50Q319 50 353 70ZM399 482T399 482Q401 482 407
476L400 473L397 480Q399 482 399 482ZM413 468T407 476L409 477Q413 468 407 476Z" />
<glyph unicode="&#xc8;" glyph-name="Egrave" d="M59 0V624H441V562H125V357H386V293H125V62H438V0H59ZM313 660L143 721L183 791L336 702L313 660Z" />
<glyph unicode="&#xc9;" glyph-name="Eacute" d="M59 0V624H441V562H125V357H386V293H125V62H438V0H59ZM197 660L174 702L326 791L366 721L197 660Z" />
<glyph unicode="&#xca;" glyph-name="Ecircumflex" d="M59 0V624H441V562H125V357H386V293H125V62H438V0H59ZM145 655L112 693L255 791H277L428 692L398 656L268 726L145 655Z" />
<glyph unicode="&#xcb;" glyph-name="Edieresis" d="M59 0V624H441V562H125V357H386V293H125V62H438V0H59ZM160 688T145 703T130 738Q130 758 145 773T180 789Q201 789 216 774T231 738Q231 718 216 703T180 688Q160 688 145 703ZM338 688T324 702T309 738Q309
759 323 774T358 789Q379 789 394 774T409 738Q409 718 394 703T358 688Q338 688 324 702Z" />
<glyph unicode="&#xcc;" glyph-name="Igrave" d="M81 0V59H204V564H88V623H397V564H274V58H403V0H81ZM282 660L112 721L152 791L305 702L282 660Z" />
<glyph unicode="&#xcd;" glyph-name="Iacute" d="M81 0V59H204V564H88V623H397V564H274V58H403V0H81ZM166 660L143 702L295 791L335 721L166 660Z" />
<glyph unicode="&#xce;" glyph-name="Icircumflex" d="M81 0V59H204V564H88V623H397V564H274V58H403V0H81ZM114 655L81 693L224 791H246L397 692L367 656L237 726L114 655Z" />
<glyph unicode="&#xcf;" glyph-name="Idieresis" d="M81 0V59H204V564H88V623H397V564H274V58H403V0H81ZM129 688T114 703T99 738Q99 758 114 773T149 789Q170 789 185 774T200 738Q200 718 185 703T149 688Q129 688 114 703ZM307 688T293 702T278 738Q278 759
292 774T327 789Q348 789 363 774T378 738Q378 718 363 703T327 688Q307 688 293 702Z" />
<glyph unicode="&#xd0;" glyph-name="Eth" d="M79 301H30V359H79V623H218Q346 623 406 539T466 306Q466 213 427 131T319 18Q281 -1 206 -1H79V301ZM203 57Q298 57 348 122T399 306Q399 430 354 497T214 564H143V359H248V301H143V57H203Z" />
<glyph unicode="&#xd1;" glyph-name="Ntilde" d="M50 623H118L380 161V623H456V616Q450 610 449 603T447 579V0H392L117 490V0H50V623ZM425 763Q403 721 383 705T332 688Q311 688 295 695T256 718Q237 730 226 736T200 742Q182 742 169 732T144 695L95 717Q110
753 135 775T198 797Q219 797 234 790T270 768Q287 755 300 749T328 743Q344 743 354 753T379 791L425 763Z" />
<glyph unicode="&#xd2;" glyph-name="Ograve" d="M143 -11T85 72T27 308Q27 457 85 542T250 627Q356 627 414 542T473 308Q473 155 415 72T250 -11Q143 -11 85 72ZM322 50T361 117T401 308Q401 427 361 496T250 566Q179 566 139 497T99 308Q99 184 138 117T250
50Q322 50 361 117ZM293 660L123 721L163 791L316 702L293 660Z" />
<glyph unicode="&#xd3;" glyph-name="Oacute" d="M143 -11T85 72T27 308Q27 457 85 542T250 627Q356 627 414 542T473 308Q473 155 415 72T250 -11Q143 -11 85 72ZM322 50T361 117T401 308Q401 427 361 496T250 566Q179 566 139 497T99 308Q99 184 138 117T250
50Q322 50 361 117ZM177 660L154 702L306 791L346 721L177 660Z" />
<glyph unicode="&#xd4;" glyph-name="Ocircumflex" d="M143 -11T85 72T27 308Q27 457 85 542T250 627Q356 627 414 542T473 308Q473 155 415 72T250 -11Q143 -11 85 72ZM322 50T361 117T401 308Q401 427 361 496T250 566Q179 566 139 497T99 308Q99 184 138 117T250
50Q322 50 361 117ZM125 655L92 693L235 791H257L408 692L378 656L248 726L125 655Z" />
<glyph unicode="&#xd5;" glyph-name="Otilde" d="M143 -11T85 72T27 308Q27 457 85 542T250 627Q356 627 414 542T473 308Q473 155 415 72T250 -11Q143 -11 85 72ZM322 50T361 117T401 308Q401 427 361 496T250 566Q179 566 139 497T99 308Q99 184 138 117T250
50Q322 50 361 117ZM425 763Q403 721 383 705T332 688Q311 688 295 695T256 718Q237 730 226 736T200 742Q182 742 169 732T144 695L95 717Q110 753 135 775T198 797Q219 797 234 790T270 768Q287 755 300 749T328 743Q344 743 354 753T379 791L425 763Z" />
<glyph unicode="&#xd6;" glyph-name="Odieresis" d="M143 -11T85 72T27 308Q27 457 85 542T250 627Q356 627 414 542T473 308Q473 155 415 72T250 -11Q143 -11 85 72ZM322 50T361 117T401 308Q401 427 361 496T250 566Q179 566 139 497T99 308Q99 184 138 117T250
50Q322 50 361 117ZM140 688T125 703T110 738Q110 758 125 773T160 789Q181 789 196 774T211 738Q211 718 196 703T160 688Q140 688 125 703ZM318 688T304 702T289 738Q289 759 303 774T338 789Q359 789 374 774T389 738Q389 718 374 703T338 688Q318 688 304 702Z"
/>
<glyph unicode="&#xd7;" glyph-name="multiply" d="M381 145L254 278L129 149L85 193L211 324L85 457L132 503L256 372L382 503L430 459L300 325L427 191L381 145Z" />
<glyph unicode="&#xd8;" glyph-name="Oslash" d="M437 516T455 453T473 308Q473 155 415 72T250 -11Q175 -11 123 30L85 -42L41 -22L88 67Q27 149 27 308Q27 457 85 542T250 627Q316 627 368 591L416 682L458 660L403 557Q437 516 455 453ZM99 205T127 140L335
530Q299 566 250 566Q179 566 139 497T99 308Q99 205 127 140ZM322 50T361 117T401 308Q401 420 366 487L156 92Q194 50 250 50Q322 50 361 117Z" />
<glyph unicode="&#xd9;" glyph-name="Ugrave" d="M152 -11T101 48T50 215V623H128V616Q122 610 121 603T119 579V214Q119 134 150 91T252 48Q324 48 355 91T387 217V623H454V218Q454 103 401 46T251 -11Q152 -11 101 48ZM293 660L123 721L163 791L316 702L293 660Z" />
<glyph unicode="&#xda;" glyph-name="Uacute" d="M152 -11T101 48T50 215V623H128V616Q122 610 121 603T119 579V214Q119 134 150 91T252 48Q324 48 355 91T387 217V623H454V218Q454 103 401 46T251 -11Q152 -11 101 48ZM177 660L154 702L306 791L346 721L177 660Z" />
<glyph unicode="&#xdb;" glyph-name="Ucircumflex" d="M152 -11T101 48T50 215V623H128V616Q122 610 121 603T119 579V214Q119 134 150 91T252 48Q324 48 355 91T387 217V623H454V218Q454 103 401 46T251 -11Q152 -11 101 48ZM125 655L92 693L235 791H257L408
692L378 656L248 726L125 655Z" />
<glyph unicode="&#xdc;" glyph-name="Udieresis" d="M152 -11T101 48T50 215V623H128V616Q122 610 121 603T119 579V214Q119 134 150 91T252 48Q324 48 355 91T387 217V623H454V218Q454 103 401 46T251 -11Q152 -11 101 48ZM140 688T125 703T110 738Q110 758 125
773T160 789Q181 789 196 774T211 738Q211 718 196 703T160 688Q140 688 125 703ZM318 688T304 702T289 738Q289 759 303 774T338 789Q359 789 374 774T389 738Q389 718 374 703T338 688Q318 688 304 702Z" />
<glyph unicode="&#xdd;" glyph-name="Yacute" d="M220 0V246L28 623H108L261 321L399 623H473L296 246V0H220ZM177 660L154 702L306 791L346 721L177 660Z" />
<glyph unicode="&#xde;" glyph-name="Thorn" d="M59 623H137Q139 621 139 620Q139 618 135 610T129 595V506H259Q357 506 404 458T456 330Q452 252 406 205T264 158H129V0H59V623ZM264 219Q375 219 384 328Q380 378 350 409T257 440H129V219H264Z" />
<glyph unicode="&#xdf;" glyph-name="germandbls" d="M223 -10T177 21L212 77Q242 53 285 53Q313 53 339 71T382 122T398 193Q398 251 360 287T244 323H214V380H250Q290 380 321 409T352 490Q352 541 320 576T241 611Q185 611 154 561T123 425V0H55V423Q55 543
102 606T231 669Q283 669 326 645T395 580T420 493Q420 450 399 414T341 359Q398 341 431 293T464 181Q464 128 442 85T378 16T281 -10Q223 -10 177 21Z" />
<glyph unicode="&#xe0;" glyph-name="agrave" d="M342 467T393 416T445 243V0H367V70Q325 -11 211 -11Q135 -11 92 23T49 115Q49 163 80 199T163 254T279 274Q336 274 382 268Q376 345 342 376T239 408Q205 408 174 395T116 357L81 403Q145 467 244 467Q342 467
393 416ZM292 44T335 87T382 213Q337 220 285 220Q209 220 165 195T121 119Q121 44 218 44Q292 44 335 87ZM244 507L143 642L198 682L282 533L244 507Z" />
<glyph unicode="&#xe1;" glyph-name="aacute" d="M342 467T393 416T445 243V0H367V70Q325 -11 211 -11Q135 -11 92 23T49 115Q49 163 80 199T163 254T279 274Q336 274 382 268Q376 345 342 376T239 408Q205 408 174 395T116 357L81 403Q145 467 244 467Q342 467
393 416ZM292 44T335 87T382 213Q337 220 285 220Q209 220 165 195T121 119Q121 44 218 44Q292 44 335 87ZM243 507L205 533L289 682L344 642L243 507Z" />
<glyph unicode="&#xe2;" glyph-name="acircumflex" d="M342 467T393 416T445 243V0H367V70Q325 -11 211 -11Q135 -11 92 23T49 115Q49 163 80 199T163 254T279 274Q336 274 382 268Q376 345 342 376T239 408Q205 408 174 395T116 357L81 403Q145 467 244 467Q342
467 393 416ZM292 44T335 87T382 213Q337 220 285 220Q209 220 165 195T121 119Q121 44 218 44Q292 44 335 87ZM139 511L99 545L238 685H262L401 545L361 511L250 621L139 511Z" />
<glyph unicode="&#xe3;" glyph-name="atilde" d="M342 467T393 416T445 243V0H367V70Q325 -11 211 -11Q135 -11 92 23T49 115Q49 163 80 199T163 254T279 274Q336 274 382 268Q376 345 342 376T239 408Q205 408 174 395T116 357L81 403Q145 467 244 467Q342 467
393 416ZM292 44T335 87T382 213Q337 220 285 220Q209 220 165 195T121 119Q121 44 218 44Q292 44 335 87ZM421 649Q399 607 379 591T328 574Q307 574 291 581T252 604Q233 616 222 622T196 628Q178 628 165 618T140 581L91 603Q106 639 131 661T194 683Q215 683
230 676T266 654Q283 641 296 635T324 629Q340 629 350 639T375 677L421 649Z" />
<glyph unicode="&#xe4;" glyph-name="adieresis" d="M342 467T393 416T445 243V0H367V70Q325 -11 211 -11Q135 -11 92 23T49 115Q49 163 80 199T163 254T279 274Q336 274 382 268Q376 345 342 376T239 408Q205 408 174 395T116 357L81 403Q145 467 244 467Q342
467 393 416ZM292 44T335 87T382 213Q337 220 285 220Q209 220 165 195T121 119Q121 44 218 44Q292 44 335 87ZM141 564T126 579T111 614Q111 634 126 649T162 665Q182 665 197 650T212 614Q212 594 197 579T162 564Q141 564 126 579ZM319 564T305 578T290 614Q290
635 304 650T340 665Q360 665 375 650T390 614Q390 594 375 579T340 564Q319 564 305 578Z" />
<glyph unicode="&#xe5;" glyph-name="aring" d="M342 467T393 416T445 243V0H367V70Q325 -11 211 -11Q135 -11 92 23T49 115Q49 163 80 199T163 254T279 274Q336 274 382 268Q376 345 342 376T239 408Q205 408 174 395T116 357L81 403Q145 467 244 467Q342 467
393 416ZM292 44T335 87T382 213Q337 220 285 220Q209 220 165 195T121 119Q121 44 218 44Q292 44 335 87ZM213 517T186 543T158 605Q158 641 185 667T249 693Q287 693 314 668T341 605Q341 569 314 543T249 517Q213 517 186 543ZM267 560T279 573T292 606Q292
625 280 638T250 652Q233 652 221 639T209 606Q209 587 221 574T250 560Q267 560 279 573Z" />
<glyph unicode="&#xe6;" glyph-name="ae" d="M75 -11T43 26T10 123Q10 196 63 235T221 279Q221 346 202 378T142 411Q97 411 66 368L31 412Q74 467 147 467Q183 467 212 451T258 405Q275 434 303 450T362 467Q490 467 490 268V230L282 223V175Q282 117 310 82T386
47Q432 47 459 84L494 42Q450 -11 380 -11Q342 -11 309 7T255 58Q238 26 208 8T142 -11Q75 -11 43 26ZM432 284Q432 348 416 379T362 411Q324 411 303 377T282 279L432 284ZM192 50T206 92T221 219Q139 215 107 195T74 122Q74 82 91 66T144 50Q192 50 206 92Z"
/>
<glyph unicode="&#xe7;" glyph-name="ccedilla" d="M358 54T408 110L450 61Q393 1 319 -9L314 -47Q356 -51 377 -69T399 -112Q399 -148 369 -172T283 -197Q230 -197 184 -166L209 -124Q247 -154 296 -154Q346 -154 346 -118Q346 -102 333 -94T295 -85H265L275
-11Q212 -9 162 23T84 108T56 228Q56 296 85 350T167 435T284 466Q339 466 384 444T457 381L412 337L411 336Q382 374 352 389T276 405Q237 405 204 384T150 323T130 233Q130 182 150 141T207 77T289 54Q358 54 408 110ZM400 341T409 334L405 330L400 335Q400 341
409 334ZM416 329T414 331T409 334L411 336Q416 329 414 331Z" />
<glyph unicode="&#xe8;" glyph-name="egrave" d="M170 -10T110 52T49 227Q49 302 77 356T152 439T259 468Q342 468 393 413T445 251Q445 240 443 218H118Q122 134 165 91T274 48Q346 48 392 99L432 60Q374 -10 272 -10Q170 -10 110 52ZM372 274Q372 338 340 375T254
413Q204 413 167 378T121 274H372ZM254 507L153 642L208 682L292 533L254 507Z" />
<glyph unicode="&#xe9;" glyph-name="eacute" d="M170 -10T110 52T49 227Q49 302 77 356T152 439T259 468Q342 468 393 413T445 251Q445 240 443 218H118Q122 134 165 91T274 48Q346 48 392 99L432 60Q374 -10 272 -10Q170 -10 110 52ZM372 274Q372 338 340 375T254
413Q204 413 167 378T121 274H372ZM253 507L215 533L299 682L354 642L253 507Z" />
<glyph unicode="&#xea;" glyph-name="ecircumflex" d="M170 -10T110 52T49 227Q49 302 77 356T152 439T259 468Q342 468 393 413T445 251Q445 240 443 218H118Q122 134 165 91T274 48Q346 48 392 99L432 60Q374 -10 272 -10Q170 -10 110 52ZM372 274Q372 338 340
375T254 413Q204 413 167 378T121 274H372ZM149 511L109 545L248 685H272L411 545L371 511L260 621L149 511Z" />
<glyph unicode="&#xeb;" glyph-name="edieresis" d="M170 -10T110 52T49 227Q49 302 77 356T152 439T259 468Q342 468 393 413T445 251Q445 240 443 218H118Q122 134 165 91T274 48Q346 48 392 99L432 60Q374 -10 272 -10Q170 -10 110 52ZM372 274Q372 338 340
375T254 413Q204 413 167 378T121 274H372ZM151 564T136 579T121 614Q121 634 136 649T172 665Q192 665 207 650T222 614Q222 594 207 579T172 564Q151 564 136 579ZM329 564T315 578T300 614Q300 635 314 650T350 665Q370 665 385 650T400 614Q400 594 385 579T350
564Q329 564 315 578Z" />
<glyph unicode="&#xec;" glyph-name="igrave" d="M100 0V58H217V399H106V457H289V58H396V0H100ZM487 522L386 657L449 699L537 552L487 522Z" />
<glyph unicode="&#xed;" glyph-name="iacute" d="M100 0V58H217V399H106V457H289V58H396V0H100ZM502 522L464 548L548 697L603 657L502 522Z" />
<glyph unicode="&#xee;" glyph-name="icircumflex" d="M100 0V58H217V399H106V457H289V58H396V0H100ZM579 518L491 621L396 515L360 545L481 685H503L623 544L579 518Z" />
<glyph unicode="&#xef;" glyph-name="idieresis" d="M100 0V58H217V399H106V457H289V58H396V0H100ZM390 564T375 579T360 614Q360 634 375 649T411 665Q431 665 446 650T461 614Q461 594 446 579T411 564Q390 564 375 579ZM568 564T554 578T539 614Q539 635 553
650T589 665Q609 665 624 650T639 614Q639 594 624 579T589 564Q568 564 554 578Z" />
<glyph unicode="&#xf0;" glyph-name="eth" d="M198 -12T149 18T70 103T40 223Q40 288 69 344T144 433T242 467Q320 467 369 415Q336 494 283 552L155 516L137 564L241 592Q193 632 139 656L220 672Q268 645 307 610L415 639L432 595L347 570Q460 442 460 253Q460
131 407 60T256 -12Q198 -12 149 18ZM311 50T349 96T387 232Q387 321 347 363T253 406Q219 406 188 386T137 327T117 232Q117 179 135 138T186 73T256 50Q311 50 349 96Z" />
<glyph unicode="&#xf1;" glyph-name="ntilde" d="M72 457H142V376Q169 418 210 443T297 468Q358 468 394 422T431 277V0H361V275Q361 343 338 374T277 405Q246 405 215 387T163 337T142 263V0H72V457ZM436 649Q414 607 394 591T343 574Q322 574 306 581T267 604Q248
616 237 622T211 628Q193 628 180 618T155 581L106 603Q121 639 146 661T209 683Q230 683 245 676T281 654Q298 641 311 635T339 629Q355 629 365 639T390 677L436 649Z" />
<glyph unicode="&#xf2;" glyph-name="ograve" d="M189 -8T141 22T66 106T39 229Q39 298 66 352T141 436T250 467Q311 467 359 437T434 352T461 229Q461 160 434 106T359 22T250 -8Q189 -8 141 22ZM289 52T319 75T367 138T385 230Q385 308 347 357T250 407Q191
407 153 358T115 230Q115 179 132 139T180 75T250 52Q289 52 319 75ZM244 507L143 642L198 682L282 533L244 507Z" />
<glyph unicode="&#xf3;" glyph-name="oacute" d="M189 -8T141 22T66 106T39 229Q39 298 66 352T141 436T250 467Q311 467 359 437T434 352T461 229Q461 160 434 106T359 22T250 -8Q189 -8 141 22ZM289 52T319 75T367 138T385 230Q385 308 347 357T250 407Q191
407 153 358T115 230Q115 179 132 139T180 75T250 52Q289 52 319 75ZM243 507L205 533L289 682L344 642L243 507Z" />
<glyph unicode="&#xf4;" glyph-name="ocircumflex" d="M189 -8T141 22T66 106T39 229Q39 298 66 352T141 436T250 467Q311 467 359 437T434 352T461 229Q461 160 434 106T359 22T250 -8Q189 -8 141 22ZM289 52T319 75T367 138T385 230Q385 308 347 357T250 407Q191
407 153 358T115 230Q115 179 132 139T180 75T250 52Q289 52 319 75ZM139 511L99 545L238 685H262L401 545L361 511L250 621L139 511Z" />
<glyph unicode="&#xf5;" glyph-name="otilde" d="M189 -8T141 22T66 106T39 229Q39 298 66 352T141 436T250 467Q311 467 359 437T434 352T461 229Q461 160 434 106T359 22T250 -8Q189 -8 141 22ZM289 52T319 75T367 138T385 230Q385 308 347 357T250 407Q191
407 153 358T115 230Q115 179 132 139T180 75T250 52Q289 52 319 75ZM421 649Q399 607 379 591T328 574Q307 574 291 581T252 604Q233 616 222 622T196 628Q178 628 165 618T140 581L91 603Q106 639 131 661T194 683Q215 683 230 676T266 654Q283 641 296 635T324
629Q340 629 350 639T375 677L421 649Z" />
<glyph unicode="&#xf6;" glyph-name="odieresis" d="M189 -8T141 22T66 106T39 229Q39 298 66 352T141 436T250 467Q311 467 359 437T434 352T461 229Q461 160 434 106T359 22T250 -8Q189 -8 141 22ZM289 52T319 75T367 138T385 230Q385 308 347 357T250 407Q191
407 153 358T115 230Q115 179 132 139T180 75T250 52Q289 52 319 75ZM141 564T126 579T111 614Q111 634 126 649T162 665Q182 665 197 650T212 614Q212 594 197 579T162 564Q141 564 126 579ZM319 564T305 578T290 614Q290 635 304 650T340 665Q360 665 375 650T390
614Q390 594 375 579T340 564Q319 564 305 578Z" />
<glyph unicode="&#xf7;" glyph-name="divide" d="M237 422T224 435T211 466Q211 485 224 498T255 512Q273 512 286 498T300 466Q300 448 287 435T255 422Q237 422 224 435ZM71 281V348H431V281H71ZM238 114T224 127T210 158Q210 178 224 191T256 204Q273 204 286
190T300 158Q300 140 287 127T256 114Q238 114 224 127Z" />
<glyph unicode="&#xf8;" glyph-name="oslash" d="M70 -37L114 44Q40 115 40 221Q40 291 69 347T149 435T257 467Q295 467 335 450L372 519L425 490L386 417Q460 349 460 233Q460 158 433 103T359 18T255 -12Q205 -12 162 10L122 -64L70 -37ZM304 393Q279 406 252
406Q216 406 185 384T135 323T116 235Q116 159 150 110L304 393ZM291 50T321 71T370 131T388 223Q388 305 351 354L194 67Q223 50 255 50Q291 50 321 71Z" />
<glyph unicode="&#xf9;" glyph-name="ugrave" d="M149 -11T106 42T64 202L65 457H135V202Q135 120 163 84T239 47Q291 47 326 87T362 205V457H432V71Q432 47 433 32T442 0H373Q366 15 365 31T363 70Q341 32 304 11T221 -11Q149 -11 106 42ZM244 507L143 642L198
682L282 533L244 507Z" />
<glyph unicode="&#xfa;" glyph-name="uacute" d="M149 -11T106 42T64 202L65 457H135V202Q135 120 163 84T239 47Q291 47 326 87T362 205V457H432V71Q432 47 433 32T442 0H373Q366 15 365 31T363 70Q341 32 304 11T221 -11Q149 -11 106 42ZM243 507L205 533L289
682L344 642L243 507Z" />
<glyph unicode="&#xfb;" glyph-name="ucircumflex" d="M149 -11T106 42T64 202L65 457H135V202Q135 120 163 84T239 47Q291 47 326 87T362 205V457H432V71Q432 47 433 32T442 0H373Q366 15 365 31T363 70Q341 32 304 11T221 -11Q149 -11 106 42ZM139 511L99 545L238
685H262L401 545L361 511L250 621L139 511Z" />
<glyph unicode="&#xfc;" glyph-name="udieresis" d="M149 -11T106 42T64 202L65 457H135V202Q135 120 163 84T239 47Q291 47 326 87T362 205V457H432V71Q432 47 433 32T442 0H373Q366 15 365 31T363 70Q341 32 304 11T221 -11Q149 -11 106 42ZM141 564T126 579T111
614Q111 634 126 649T162 665Q182 665 197 650T212 614Q212 594 197 579T162 564Q141 564 126 579ZM319 564T305 578T290 614Q290 635 304 650T340 665Q360 665 375 650T390 614Q390 594 375 579T340 564Q319 564 305 578Z" />
<glyph unicode="&#xfd;" glyph-name="yacute" d="M443 457Q437 416 425 376T389 270L275 -52Q252 -116 215 -145T127 -174Q63 -174 22 -135L53 -86L54 -85L55 -86Q71 -101 89 -108T131 -115Q168 -115 190 -89T233 -3L46 457H121L263 91L323 275Q345 344 355 380T371
457H443ZM65 -82Q65 -84 63 -84L55 -82L59 -77L65 -81V-82ZM49 -80T51 -81T55 -82L54 -85Q49 -80 51 -81ZM246 507L208 533L292 682L347 642L246 507Z" />
<glyph unicode="&#xfe;" glyph-name="thorn" d="M60 665H140Q140 658 137 646T133 622V387Q156 423 194 445T272 467Q324 467 367 441T437 361T463 232Q463 155 436 100T365 16T271 -12Q229 -12 193 7T134 60V-167H60V665ZM313 52T350 91T388 219Q388 307 354
356T259 406Q202 406 168 358T133 220Q135 130 166 91T256 52Q313 52 350 91Z" />
<glyph unicode="&#xff;" glyph-name="ydieresis" d="M443 457Q437 416 425 376T389 270L275 -52Q252 -116 215 -145T127 -174Q63 -174 22 -135L53 -86L54 -85L55 -86Q71 -101 89 -108T131 -115Q168 -115 190 -89T233 -3L46 457H121L263 91L323 275Q345 344 355
380T371 457H443ZM65 -82Q65 -84 63 -84L55 -82L59 -77L65 -81V-82ZM49 -80T51 -81T55 -82L54 -85Q49 -80 51 -81ZM144 564T129 579T114 614Q114 634 129 649T165 665Q185 665 200 650T215 614Q215 594 200 579T165 564Q144 564 129 579ZM322 564T308 578T293 614Q293
635 307 650T343 665Q363 665 378 650T393 614Q393 594 378 579T343 564Q322 564 308 578Z" />
<glyph unicode="&#x2013;" glyph-name="endash" d="M71 348H431V281H71V348Z" />
<glyph unicode="&#x2014;" glyph-name="emdash" d="M10 281V348H490V281H10Z" />
<glyph unicode="&#x2018;" glyph-name="quoteleft" d="M223 367T203 390T182 450Q182 532 288 638L323 607Q296 583 277 552T258 502Q258 493 263 487T281 469Q295 456 302 447T309 425Q309 401 293 384T250 367Q223 367 203 390Z" />
<glyph unicode="&#x2019;" glyph-name="quoteright" d="M165 397Q193 423 211 453T230 502Q230 511 225 518T207 536Q194 548 187 557T179 579Q179 604 195 621T238 638Q265 638 285 615T306 555Q306 477 199 367L165 397Z" />
<glyph unicode="&#x201a;" glyph-name="quotesinglbase" d="M165 -138Q193 -112 211 -82T230 -33Q230 -25 225 -19T209 -5Q194 8 187 18T179 44Q179 69 195 86T238 103Q271 103 288 81T306 20Q306 -58 199 -168L165 -138Z" />
<glyph unicode="&#x201c;" glyph-name="quotedblleft" d="M119 367T99 390T79 450Q79 532 185 638L219 607Q192 583 173 552T154 502Q154 494 160 487T177 470Q191 458 198 448T206 425Q206 401 189 384T146 367Q119 367 99 390ZM326 367T306 390T286 450Q286
532 392 638L426 607Q399 583 380 552T361 502Q361 494 367 487T384 470Q398 458 405 448T413 425Q413 401 396 384T353 367Q326 367 306 390Z" />
<glyph unicode="&#x201d;" glyph-name="quotedblright" d="M182 638T202 615T222 555Q222 473 116 367L82 398Q109 422 128 453T147 503Q147 511 141 518T124 535Q110 547 103 557T95 580Q95 604 112 621T155 638Q182 638 202 615ZM389 638T409 615T429 555Q429
473 323 367L289 398Q316 422 335 453T354 503Q354 511 348 518T331 535Q317 547 310 557T302 580Q302 604 319 621T362 638Q389 638 409 615Z" />
<glyph unicode="&#x201e;" glyph-name="quotedblbase" d="M61 -138Q90 -112 108 -82T126 -33Q126 -24 121 -17T103 1Q90 13 83 22T75 44Q75 69 91 86T134 103Q162 103 182 80T202 20Q202 -62 96 -168L61 -138ZM268 -138Q297 -112 315 -82T333 -33Q333 -24 328
-18T310 0Q296 13 289 22T282 44Q282 69 298 86T341 103Q369 103 389 80T409 20Q409 -62 303 -168L268 -138Z" />
<glyph unicode="&#x2022;" glyph-name="bullet" d="M221 213T196 237T171 296Q171 331 196 355T256 380Q291 380 316 355T341 296Q341 262 316 238T256 213Q221 213 196 237Z" />
<glyph unicode="&#x2039;" glyph-name="guilsinglleft" d="M303 61L145 230V253L297 400L336 359L215 241L343 101L303 61Z" />
<glyph unicode="&#x203a;" glyph-name="guilsinglright" d="M185 61L145 101L273 241L152 359L191 400L343 253V230L185 61Z" />
</font>
</defs>
</svg>
