<?xml version="1.0" standalone="no"?>
<!DOCTYPE svg PUBLIC "-//W3C//DTD SVG 1.1//EN" "http://www.w3.org/Graphics/SVG/1.1/DTD/svg11.dtd">
<svg xmlns="http://www.w3.org/2000/svg">
<defs >
<font id="PTSerif" horiz-adv-x="590" ><font-face
    font-family="PT Serif"
    units-per-em="1000"
    panose-1="2 10 7 3 4 5 5 9 2 4"
    ascent="1039"
    descent="-286"
    alphabetic="0" />
<glyph unicode=" " glyph-name="space" horiz-adv-x="270" />
<glyph unicode="!" glyph-name="exclam" horiz-adv-x="347" d="M158 218L146 412L200 690Q211 695 232 698T277 701Q300 701 320 698T350 690L290 412L202 218H158ZM72 71Q72 107 95 129T156 151Q194 151 218 129T242 71Q242 35 218 14T156 -8Q118 -8 95 13T72 71Z" />
<glyph unicode="&quot;" glyph-name="quotedbl" horiz-adv-x="394" d="M228 670Q236 683 256 691T299 700Q320 700 338 693T358 670L280 486H242L228 670ZM72 670Q80 683 100 691T143 700Q164 700 182 693T202 670L124 486H86L72 670Z" />
<glyph unicode="#" glyph-name="numbersign" horiz-adv-x="560" d="M300 220H176L104 58H33L105 220H24L57 284H134L193 416H116L148 480H222L296 642H366L293 480H417L491 642H561L487 480H566L531 416H458L399 284H475L439 220H370L298 58H228L300 220ZM205
284H329L388 416H264L205 284Z" />
<glyph unicode="$" glyph-name="dollar" horiz-adv-x="560" d="M198 -12Q171 -11 142 -6T88 7T42 22T13 39Q25 85 40 118T72 175H113L143 78Q151 70 168 63T212 53L264 297Q237 315 210 333T161 375T124 429T110 502Q110 546 127 582T175 646T251 690T351 710L362
760H432L421 711Q469 709 507 701T578 677Q569 636 555 610T526 564H484L444 636Q427 641 408 644L360 419Q387 402 414 384T463 341T500 284T514 207Q514 164 498 127T450 62T373 15T269 -10L256 -70H186L198 -12ZM255 548Q255 516 269 495T307 455L348 644Q306
638 281 614T255 548ZM364 155Q364 188 351 212T315 256L273 57Q310 65 337 89T364 155Z" />
<glyph unicode="%" glyph-name="percent" horiz-adv-x="827" d="M722 715L770 673L105 -13L58 30L722 715ZM55 504Q55 547 73 585T122 651T196 696T288 712Q364 712 406 677T449 581Q449 531 429 493T376 427T301 386T216 372Q183 372 154 381T102 407T68 449T55
504ZM174 492Q174 465 186 444T229 423Q247 423 265 434T298 466T322 521T331 599Q331 622 320 641T277 661Q259 661 241 649T208 615T184 561T174 492ZM373 121Q373 164 391 202T440 268T514 313T606 329Q682 329 724 294T767 198Q767 148 747 110T694 44T619
3T534 -11Q501 -11 472 -2T420 24T386 66T373 121ZM492 109Q492 82 504 61T547 40Q565 40 583 51T616 83T640 138T649 216Q649 239 638 258T595 278Q577 278 559 266T526 232T502 178T492 109Z" />
<glyph unicode="&amp;" glyph-name="ampersand" horiz-adv-x="898" d="M477 116Q451 143 426 178T379 249T340 319T314 377Q272 340 248 294T223 195Q223 168 231 144T256 102T296 74T351 63Q381 63 415 75T477 116ZM369 563Q369 532 380 504T408 448Q447 474
474 511T502 592Q502 618 491 637T451 657Q416 657 393 630T369 563ZM600 0Q582 12 559 28T515 71Q496 55 471 40T417 14T357 -5T293 -12Q229 -12 186 3T115 44T77 100T65 164Q65 212 87 254T143 330T214 391T284 434Q266 461 257 491T248 551Q248 587 263 616T305
667T368 700T445 712Q520 712 554 681T588 598Q588 568 574 540T536 486T484 440T428 403Q478 307 573 201Q583 212 598 238T628 297T652 367T661 437Q646 440 636 446T614 461L622 500H850L841 461Q811 445 770 437Q756 394 737 352T697 273T655 207T615 162Q644
131 674 107T736 63L782 39L774 0H600Z" />
<glyph unicode="&apos;" glyph-name="quotesingle" horiz-adv-x="238" d="M72 670Q80 683 100 691T143 700Q164 700 182 693T202 670L124 486H86L72 670Z" />
<glyph unicode="(" glyph-name="parenleft" horiz-adv-x="374" d="M249 -210Q207 -181 172 -147T110 -72T70 18T55 128Q55 241 91 332T185 495T311 618T446 702L469 671Q419 629 370 574T280 452T214 304T189 131Q189 86 194 46T211 -32T242 -105T289 -177L249 -210Z" />
<glyph unicode=")" glyph-name="parenright" horiz-adv-x="374" d="M-80 -177Q-35 -141 14 -87T104 37T171 192T198 375Q198 417 194 454T179 526T148 596T99 671L136 702Q236 636 284 551T332 355Q332 250 298 161T208 -1T84 -125T-55 -210L-80 -177Z" />
<glyph unicode="*" glyph-name="asterisk" horiz-adv-x="463" d="M122 597Q116 605 120 621T133 654T155 683T180 697L270 591Q270 576 258 569L122 597ZM182 429Q171 429 159 441T136 470T122 504T122 530L257 556Q270 549 270 535L182 429ZM356 395Q351 387
335 383T300 378Q280 377 264 381T242 393L285 524Q298 532 312 524L356 395ZM469 530Q475 519 472 502T460 469T439 442T414 430L327 533Q327 546 339 554L469 530ZM417 696Q429 697 440 687T459 661T471 628T471 598L337 568Q325 577 325 590L417 696ZM241 731Q246
741 262 745T297 750Q316 750 332 746T353 731L311 600Q298 592 284 600L241 731Z" />
<glyph unicode="+" glyph-name="plus" horiz-adv-x="560" d="M55 384H240V580H320V384H505V304H320V102H240V304H55V384Z" />
<glyph unicode="," glyph-name="comma" horiz-adv-x="306" d="M-22 -131Q-1 -125 17 -113T50 -86T74 -54T87 -21Q78 -3 60 8T22 26Q21 47 29 68T50 107T81 137T113 153Q155 151 178 128T202 56Q202 15 183 -23T133 -93T66 -145T-9 -175L-22 -131Z" />
<glyph unicode="-" glyph-name="hyphen" horiz-adv-x="414" d="M83 327H370L350 237H63L83 327Z" />
<glyph unicode="." glyph-name="period" horiz-adv-x="289" d="M24 71Q24 107 47 129T108 151Q146 151 170 129T194 71Q194 35 170 14T108 -8Q70 -8 47 13T24 71Z" />
<glyph unicode="/" glyph-name="slash" horiz-adv-x="344" d="M321 716L381 691L16 -133L-43 -107L321 716Z" />
<glyph unicode="0" glyph-name="zero" horiz-adv-x="560" d="M11 220Q11 312 33 400T98 558T205 669T354 712Q415 712 456 692T521 639T556 564T566 478Q566 383 543 295T477 138T369 29T223 -12Q161 -12 120 8T55 60T21 134T11 220ZM161 194Q161 164 164 137T176
89T199 56T236 43Q263 43 287 62T331 114T367 191T393 287T410 394T416 505Q416 537 413 564T400 612T377 645T341 657Q313 657 289 637T244 583T209 502T183 405T167 299T161 194Z" />
<glyph unicode="1" glyph-name="one" horiz-adv-x="560" d="M426 0H80L89 43Q141 65 198 77L296 536L315 595Q286 587 254 584T189 581L192 618Q249 632 316 656T443 712H477L342 77Q365 72 388 64T435 43L426 0Z" />
<glyph unicode="2" glyph-name="two" horiz-adv-x="560" d="M195 478H161Q158 493 154 513T147 555T142 598T140 638Q159 651 182 664T232 688T293 705T366 712Q421 712 458 699T517 665T549 617T559 559Q559 496 524 438T435 327T319 231T203 151L144 116V112L205
118H377L450 230H484Q483 206 480 174T473 109T464 47T455 0H-3L11 64Q46 90 90 124T180 197T270 281T348 371T403 464T424 556Q424 593 402 617T331 642Q298 642 265 633L195 478Z" />
<glyph unicode="3" glyph-name="three" horiz-adv-x="560" d="M222 53Q258 53 286 67T334 106T364 161T375 226Q375 256 367 275T343 305T306 320T261 324H206L211 363L399 560L445 595V599L390 593H243L182 491H148Q148 512 148 541T151 599T155 655T162 700H595L588
651L377 440L319 396V394L354 401Q437 396 476 353T515 240Q515 189 498 143T443 63T346 8T204 -12Q174 -12 145 -8T90 5T44 24T12 48L71 152H100Q105 145 113 134T129 109T146 83T161 61Q183 53 222 53Z" />
<glyph unicode="4" glyph-name="four" horiz-adv-x="560" d="M461 0H152L161 43Q212 60 258 67L282 180H-14L-5 225L482 712H536L437 245H560L546 180H423L399 67Q436 59 470 43L461 0ZM341 458L369 528H366L312 458L129 271L82 238L155 245H296L341 458Z" />
<glyph unicode="5" glyph-name="five" horiz-adv-x="560" d="M572 755H606Q603 740 597 716T583 667T565 620T549 585H276L227 442H293Q346 442 386 429T452 393T492 337T506 267Q506 208 487 158T428 69T328 10T185 -12Q123 -12 77 6T7 48L69 147H98Q104 140
111 129T125 106T138 82T150 61Q159 57 172 55T199 53Q244 53 276 67T330 106T361 162T371 228Q371 287 331 312T222 336L134 335L252 700H513L572 755Z" />
<glyph unicode="6" glyph-name="six" horiz-adv-x="560" d="M542 267Q542 214 524 164T469 74T376 12T245 -12Q198 -12 159 0T93 38T50 103T34 194Q34 280 69 363T172 517T336 640T555 718L561 675Q436 637 350 557T222 349Q245 380 287 400T383 421Q466 421 504
379T542 267ZM392 259Q392 307 375 329T313 351Q282 351 253 334T207 293Q204 286 200 272T193 241T187 206T184 173Q184 147 187 125T199 85T223 58T261 48Q294 48 319 69T360 121T384 190T392 259Z" />
<glyph unicode="7" glyph-name="seven" horiz-adv-x="560" d="M128 481H94Q94 502 95 532T98 594T103 653T110 700H578V656Q504 574 448 497T349 341T271 179T207 0H65Q129 143 209 275T400 540L451 588L401 583H189L128 481Z" />
<glyph unicode="8" glyph-name="eight" horiz-adv-x="560" d="M8 137Q8 173 22 205T63 264T127 311T212 345Q165 380 141 416T117 506Q117 548 133 585T182 651T261 695T369 712Q465 712 513 675T562 571Q562 540 549 512T513 458T457 414T383 383Q419 360 442
339T480 295T500 249T506 196Q506 154 487 117T432 51T344 5T225 -12Q123 -12 66 25T8 137ZM365 170Q365 192 356 211T331 247T293 282T245 318Q218 301 200 279T170 234T153 187T148 145Q148 97 176 73T242 48Q276 48 299 59T337 88T358 127T365 170ZM253 535Q253
499 280 465T348 406Q392 445 411 487T431 571Q431 606 413 629T354 652Q330 652 311 643T279 617T260 580T253 535Z" />
<glyph unicode="9" glyph-name="nine" horiz-adv-x="560" d="M48 438Q48 491 66 541T121 631T214 694T345 718Q392 718 431 706T497 667T540 602T556 511Q556 425 521 342T418 188T254 65T35 -12L29 31Q154 69 240 149T368 357Q345 326 303 306T207 285Q124 285
86 327T48 438ZM198 447Q198 399 215 377T277 355Q308 355 337 372T383 412Q386 419 390 433T397 465T403 500T406 533Q406 558 403 581T391 621T367 648T329 658Q296 658 271 637T230 585T206 516T198 447Z" />
<glyph unicode=":" glyph-name="colon" horiz-adv-x="341" d="M106 429Q106 465 129 487T190 509Q228 509 252 487T276 429Q276 393 252 372T190 350Q152 350 129 371T106 429ZM56 71Q56 107 79 129T140 151Q178 151 202 129T226 71Q226 35 202 14T140 -8Q102
-8 79 13T56 71Z" />
<glyph unicode=";" glyph-name="semicolon" horiz-adv-x="334" d="M102 429Q102 465 125 487T186 509Q224 509 248 487T272 429Q272 393 248 372T186 350Q148 350 125 371T102 429ZM-6 -131Q15 -125 33 -113T66 -86T90 -54T103 -21Q94 -3 76 8T38 26Q37 47 45
68T66 107T97 137T129 153Q171 151 194 128T218 56Q218 15 199 -23T149 -93T82 -145T7 -175L-6 -131Z" />
<glyph unicode="&lt;" glyph-name="less" horiz-adv-x="560" d="M61 324V355L446 590L482 525L269 397L187 363L268 332L501 195L445 103L61 324Z" />
<glyph unicode="=" glyph-name="equal" horiz-adv-x="560" d="M55 469H505V389H55V469ZM55 299H505V219H55V299Z" />
<glyph unicode="&gt;" glyph-name="greater" horiz-adv-x="560" d="M499 369V338L114 103L79 168L292 296L373 330L293 361L59 497L115 590L499 369Z" />
<glyph unicode="?" glyph-name="question" horiz-adv-x="505" d="M204 501H170Q167 514 163 533T154 574T149 618T149 661Q192 684 241 698T357 712Q445 712 495 676T546 574Q546 524 526 490T474 428T406 379T335 332T276 277T243 203H210Q205 251 217 287T250
354T297 409T346 459T384 510T400 569Q400 609 379 628T323 647Q299 647 282 643T255 633L204 501ZM142 71Q142 107 165 129T226 151Q264 151 288 129T312 71Q312 35 288 14T226 -8Q188 -8 165 13T142 71Z" />
<glyph unicode="@" glyph-name="at" horiz-adv-x="1027" d="M642 465Q666 476 699 481T767 485L718 207Q706 143 707 112T737 80Q760 80 789 95T845 140T889 217T907 326Q907 402 880 462T804 563T689 625T545 647Q458 647 386 617T261 532T180 404T151 242Q151
153 180 87T262 -25T385 -92T541 -115Q570 -115 607 -108T674 -87L690 -144Q655 -164 613 -172T520 -180Q431 -180 351 -154T209 -76T112 54T76 236Q76 345 113 433T215 583T366 678T550 712Q645 712 724 686T861 610T950 489T982 326Q982 256 957 199T890 100T797
36T692 13Q662 13 640 20T604 46T586 93T587 165H583Q574 138 557 111T517 62T467 27T412 13Q344 13 310 57T275 169Q275 228 294 286T348 389T431 463T536 492Q571 492 594 486T642 465ZM622 415Q611 423 599 426T570 430Q536 430 507 404T457 339T424 253T412
166Q412 132 424 113T465 93Q482 93 499 107T533 143T565 194T594 251L622 415Z" />
<glyph unicode="A" glyph-name="A" horiz-adv-x="724" d="M205 0H-44L-37 38Q-19 48 1 55T41 67L437 712H510L623 67Q642 63 660 55T692 38L684 0H376L383 38Q404 48 427 55T472 67L448 226H227L132 67Q153 64 174 57T212 38L205 0ZM261 291H440L412 482V568H410L372
480L261 291Z" />
<glyph unicode="B" glyph-name="B" horiz-adv-x="644" d="M-24 -1L-17 37Q5 48 28 56T72 66L192 632Q172 636 152 643T116 661L124 699H283Q321 699 356 702T436 705Q484 705 524 698T592 675T637 634T653 572Q653 530 639 497T599 439T538 398T462 374V370Q489
368 516 360T564 336T599 296T613 237Q613 183 592 139T528 62T423 11T277 -7Q256 -7 232 -6T182 -4T134 -2T95 -1H-24ZM290 58Q327 58 358 71T411 107T445 162T458 231Q458 286 423 304T323 322H270L216 65Q229 62 244 60T290 58ZM316 387Q333 387 350 388T383
392Q443 415 473 458T503 558Q503 597 480 618T405 640Q384 640 368 639T337 636L284 387H316Z" />
<glyph unicode="C" glyph-name="C" horiz-adv-x="652" d="M561 210H603Q603 194 602 172T598 124T591 73T582 28Q561 17 536 10T484 -3T434 -10T392 -12Q300 -12 237 13T134 78T77 168T59 269Q59 368 88 449T172 589T308 680T491 712Q557 712 609 703T695 677Q692
661 685 636T669 584T650 530T631 485H589L566 636Q557 641 536 644T494 647Q436 647 388 619T304 540T249 417T229 255Q229 199 245 161T286 98T342 64T402 53Q431 53 452 58T483 70L561 210Z" />
<glyph unicode="D" glyph-name="D" horiz-adv-x="734" d="M-24 0L-17 38Q2 48 25 55T72 67L192 633Q169 638 150 645T116 662L124 700H240Q257 700 282 701T335 703T388 706T432 708Q516 708 574 690T669 639T722 561T739 460Q739 403 729 347T696 238T637 141T549
63T427 10T269 -9Q256 -9 234 -8T185 -5T134 -2T89 0H-24ZM409 643Q391 643 375 642T345 639L222 60Q237 58 256 57T286 56Q367 56 422 94T511 193T559 328T574 473Q574 514 566 546T539 599T488 632T409 643Z" />
<glyph unicode="E" glyph-name="E" horiz-adv-x="602" d="M650 700Q640 655 625 607T592 517H550L529 635H342L290 390H413L473 467H504Q499 418 487 358T458 246H426L399 325H276L222 65H416L496 192H538Q538 174 537 150T533 100T526 48T517 0H-24L-17 38Q3
47 25 55T72 67L192 633Q172 637 152 644T116 662L124 700H650Z" />
<glyph unicode="F" glyph-name="F" horiz-adv-x="572" d="M212 67Q257 61 292 38L285 0H-24L-17 38Q1 47 20 54T62 67L182 633Q140 645 116 662L124 700H647Q643 680 637 657T623 609T607 561T589 517H547L526 635H332L276 372H414L475 449H506Q504 424 500 395T489
336T474 278T459 228H428L401 307H263L212 67Z" />
<glyph unicode="G" glyph-name="G" horiz-adv-x="709" d="M603 44Q578 31 547 21T483 3T420 -8T368 -12Q300 -12 243 5T145 57T82 145T59 270Q59 369 88 450T173 589T310 680T493 712Q526 712 558 710T620 703T674 692T713 677Q710 662 703 639T687 588T668 534T648
485H607L584 637Q570 642 545 644T497 647Q430 647 380 615T296 527T246 400T229 249Q229 197 241 160T273 99T321 64T381 53Q410 53 441 61T491 80L531 268Q506 270 484 278T445 297L453 335H726L718 297Q707 288 691 281T650 268L603 44Z" />
<glyph unicode="H" glyph-name="H" horiz-adv-x="766" d="M279 0H-24L-17 38Q3 48 26 55T72 67L192 633Q169 637 149 645T116 662L124 700H427L419 662Q404 651 383 644T342 633L290 391H555L607 633Q564 644 542 662L550 700H853L845 662Q826 651 803 644T757
633L637 67Q659 63 678 55T712 38L705 0H402L409 38Q426 47 446 55T487 67L541 326H276L222 67Q256 60 286 38L279 0Z" />
<glyph unicode="I" glyph-name="I" horiz-adv-x="369" d="M298 0H-14L-7 38Q40 60 81 67L201 633Q181 636 162 643T126 662L134 700H446L438 662Q418 651 395 644T351 633L231 67Q250 63 270 56T305 38L298 0Z" />
<glyph unicode="J" glyph-name="J" horiz-adv-x="361" d="M129 700H438L430 662Q413 651 390 644T346 633L238 121Q221 39 186 -13T110 -97T31 -142T-31 -160L-43 -134Q-24 -121 -7 -102T27 -55T59 15T87 115L196 633Q175 637 155 644T121 662L129 700Z" />
<glyph unicode="K" glyph-name="K" horiz-adv-x="705" d="M499 700H771L763 662Q745 651 722 644T678 633L436 390Q452 357 475 317T523 234T576 147T631 63L673 34L666 0H498L463 28Q445 58 426 94T389 170T355 250T325 328H277L222 67Q242 62 258 54T286 38L279
0H-24L-17 38Q5 49 27 56T72 67L192 633Q169 636 149 644T116 662L124 700H427L419 662Q405 654 385 646T342 633L288 379L347 393L558 633Q538 638 521 645T491 662L499 700Z" />
<glyph unicode="L" glyph-name="L" horiz-adv-x="577" d="M124 700H452L444 662Q422 651 395 644T342 633L222 65H415L519 244H561Q561 221 558 190T550 125T539 58T525 0H-24L-17 38Q9 50 31 57T72 67L192 633Q170 637 150 644T116 662L124 700Z" />
<glyph unicode="M" glyph-name="M" horiz-adv-x="926" d="M864 0H565L573 38Q595 48 616 55T660 67L748 485L778 602H770L715 495L416 0H371L282 491L270 608H261L235 481L149 71Q167 67 188 58T227 38L219 0H-24L-17 38Q0 47 26 57T75 72L193 633Q173 637 153
644T117 662L125 700H396L459 293L467 197H468L515 295L761 700H1013L1005 662Q987 651 966 644T923 633L803 66Q823 62 841 54T872 38L864 0Z" />
<glyph unicode="N" glyph-name="N" horiz-adv-x="755" d="M595 700H842L834 662Q811 645 787 635T740 618L606 -12H525L277 498L253 575H250L241 495L152 78Q170 73 192 62T229 38L222 0H-24L-17 38Q28 66 76 78L192 624Q175 631 156 642T125 663L132 700H344L545
284L575 198H579L594 284L664 618Q642 626 622 637T587 662L595 700Z" />
<glyph unicode="O" glyph-name="O" horiz-adv-x="751" d="M59 271Q59 363 87 443T169 583T300 677T476 712Q543 712 595 693T683 637T737 548T756 431Q756 349 731 270T655 128T528 27T348 -12Q279 -12 225 9T134 69T78 159T59 271ZM229 252Q229 152 266 103T368
53Q425 53 466 90T534 184T573 313T586 454Q586 543 556 595T455 647Q416 647 385 630T328 582T284 513T253 429T235 340T229 252Z" />
<glyph unicode="P" glyph-name="P" horiz-adv-x="634" d="M222 67Q248 63 272 56T316 38L309 0H-24L-17 38Q27 59 72 67L192 633Q170 637 151 644T116 662L124 700H250Q290 700 342 704T438 708Q490 708 534 699T610 671T660 619T678 541Q678 482 656 432T592
344T489 286T351 264Q346 264 335 264T310 264T284 265T264 267L222 67ZM401 643Q381 643 368 641T343 637L278 333Q287 331 305 330T334 329Q377 329 410 344T465 388T500 455T512 541Q512 564 507 583T489 615T455 636T401 643Z" />
<glyph unicode="Q" glyph-name="Q" horiz-adv-x="761" d="M755 -112Q733 -131 709 -148T659 -180T607 -202T553 -210Q507 -210 464 -194T376 -156T279 -114T164 -86L198 -42Q248 -33 293 -37T382 -52T467 -76T554 -97T647 -105T750 -87L755 -112ZM59 271Q59 363
87 443T169 583T300 677T476 712Q543 712 595 693T683 637T737 548T756 431Q756 349 731 270T655 128T528 27T348 -12Q279 -12 225 9T134 69T78 159T59 271ZM229 252Q229 152 266 103T368 53Q425 53 466 90T534 184T573 313T586 454Q586 543 556 595T455 647Q416
647 385 630T328 582T284 513T253 429T235 340T229 252Z" />
<glyph unicode="R" glyph-name="R" horiz-adv-x="692" d="M222 67Q243 61 260 54T291 38L284 0H-24L-17 38Q8 50 29 56T72 67L192 633Q143 644 116 662L124 700H230Q250 700 275 701T329 703T386 706T441 708Q552 708 605 665T659 543Q659 506 647 472T612 408T554
356T473 320Q499 257 537 192T613 66L655 34L648 0H489L452 33Q418 88 390 160T348 303H272L222 67ZM395 643Q379 643 366 641T342 637L283 358H341Q382 358 412 373T463 415T493 476T503 548Q504 599 478 621T395 643Z" />
<glyph unicode="S" glyph-name="S" horiz-adv-x="556" d="M140 83Q150 73 176 63T231 53Q262 53 289 58T335 76T366 107T377 155Q377 191 358 216T311 263T250 304T188 351T141 412T122 498Q122 551 143 591T201 658T289 698T401 712Q462 712 512 704T601 677Q596
657 588 631T571 580T552 532T535 494H494L477 631Q463 639 440 643T391 647Q365 647 343 642T304 625T277 595T267 552Q267 517 286 491T334 444T397 401T459 353T507 291T527 207Q527 101 449 45T224 -12Q192 -12 160 -8T98 3T47 18T15 35Q21 59 30 85T49 138T69
188T89 230H130L140 83Z" />
<glyph unicode="T" glyph-name="T" horiz-adv-x="662" d="M461 0H117L125 38Q147 47 174 55T228 67L349 635H233L132 464H91Q91 484 93 515T99 579T108 644T119 700H756Q751 676 743 644T724 579T704 516T684 464H642L615 635H499L378 67Q403 62 427 55T469 38L461 0Z" />
<glyph unicode="U" glyph-name="U" horiz-adv-x="715" d="M112 700H420L412 662Q376 641 330 633L251 260Q231 162 266 118T376 74Q446 74 493 114T561 253L640 628Q617 633 595 642T559 662L567 700H815L807 662Q789 649 765 641T717 628L637 252Q610 123 539
57T334 -9Q191 -9 134 66T104 271L180 633Q160 637 139 644T104 662L112 700Z" />
<glyph unicode="V" glyph-name="V" horiz-adv-x="729" d="M652 633Q629 638 609 645T574 662L582 700H836L828 662Q814 654 794 646T750 633L386 0L286 -12L165 633Q144 638 126 645T96 662L104 700H434L426 662Q408 653 385 646T338 633L395 239L398 145H400L442
241L652 633Z" />
<glyph unicode="W" glyph-name="W" horiz-adv-x="1029" d="M955 633Q935 636 914 643T876 662L884 700H1136L1128 662Q1110 651 1089 644T1049 633L738 0L631 -12L579 472L328 0L221 -12L163 633Q122 642 96 662L104 700H425L417 662Q398 652 375 645T329 633L346
279L341 149H343L405 284L627 700H687L739 289L747 159H749L801 291L955 633Z" />
<glyph unicode="X" glyph-name="X" horiz-adv-x="723" d="M539 700H787L779 662Q763 652 745 645T705 633L470 371L610 67Q632 62 649 55T680 38L673 0H350L357 38Q375 47 394 54T435 67L342 286L160 66Q180 61 196 55T228 38L220 0H-36L-28 38Q-11 49 7 55T46
67L309 353L183 633Q165 638 150 645T121 662L129 700H445L437 662Q423 654 404 647T359 633L436 433L601 633Q582 638 564 645T531 662L539 700Z" />
<glyph unicode="Y" glyph-name="Y" horiz-adv-x="695" d="M554 700H803L795 662Q778 652 758 645T718 633L451 293L403 67Q422 64 440 56T473 38L465 0H157L165 38Q184 47 207 55T253 67L301 292L171 633Q149 637 130 644T96 662L104 700H429L421 662Q407 654
387 646T341 633L428 364L619 633Q598 638 579 645T546 662L554 700Z" />
<glyph unicode="Z" glyph-name="Z" horiz-adv-x="631" d="M539 211H580Q580 190 578 163T573 108T566 52T556 0H5V65L496 635H266L177 492H135Q135 514 136 542T141 598T149 653T158 700H674V635L182 65H446L539 211Z" />
<glyph unicode="[" glyph-name="bracketleft" horiz-adv-x="324" d="M179 700H413L401 645H297L123 -175H227L216 -230H-18L179 700Z" />
<glyph unicode="\" glyph-name="backslash" horiz-adv-x="382" d="M416 -104L359 -134L-56 686L2 715L416 -104Z" />
<glyph unicode="]" glyph-name="bracketright" horiz-adv-x="324" d="M162 -230H-71L-60 -175H43L217 645H113L125 700H359L162 -230Z" />
<glyph unicode="^" glyph-name="asciicircum" horiz-adv-x="508" d="M283 711H329L499 434H379L300 569L282 622L256 568L167 434H97L283 711Z" />
<glyph unicode="_" glyph-name="underscore" horiz-adv-x="410" d="M-43 -116H367V-196H-43V-116Z" />
<glyph unicode="`" glyph-name="grave" horiz-adv-x="337" d="M357 589L312 567L146 712V741Q152 747 172 752T214 761T257 764T284 763L357 589Z" />
<glyph unicode="a" glyph-name="a" horiz-adv-x="563" d="M215 68Q234 68 254 85T293 127T327 183T354 240L391 438Q379 446 369 449T341 453Q301 453 269 427T215 358T182 262T170 156Q170 110 181 89T215 68ZM339 159Q326 127 307 97T262 42T207 3T142 -12Q90
-12 59 26T28 139Q28 217 49 284T110 402T206 481T331 510Q357 510 375 504T415 489Q441 499 471 504T543 509L459 69H529V35Q519 27 503 19T467 5T427 -5T388 -9Q353 -9 338 6T323 37Q323 55 328 84T343 159H339Z" />
<glyph unicode="b" glyph-name="b" horiz-adv-x="565" d="M145 669L79 682V714Q98 721 126 727T182 739T237 747T280 752L301 741L224 362H229Q245 392 265 419T308 467T358 500T414 512Q440 512 462 503T501 474T527 424T537 351Q537 277 517 212T458 96T360
17T225 -12Q193 -12 163 -8T106 3T58 20T24 41L145 669ZM341 432Q320 432 301 415T265 374T235 324T214 280L171 65Q182 55 199 50T233 45Q267 45 296 70T348 136T382 230T395 341Q395 383 382 407T341 432Z" />
<glyph unicode="c" glyph-name="c" horiz-adv-x="445" d="M412 109Q399 88 378 66T330 27T269 -1T199 -12Q120 -12 74 35T27 166Q27 236 48 299T109 409T203 484T327 512Q372 512 405 503T450 480Q451 469 447 453T433 420T412 389T386 368L325 455Q298 455 271
437T221 384T185 301T171 191Q171 130 196 102T263 73Q283 73 301 79T336 95T365 114T389 134L412 109Z" />
<glyph unicode="d" glyph-name="d" horiz-adv-x="570" d="M215 68Q236 68 256 85T295 129T329 185T356 240L392 437Q379 445 368 448T340 452Q302 452 271 427T217 360T183 265T171 155Q171 68 215 68ZM340 159Q325 124 305 93T260 39T206 2T145 -12Q94 -12 62
27T29 145Q29 216 48 281T105 397T197 478T322 509Q355 509 370 505T403 493L437 669L368 682V716Q383 722 409 728T464 739T522 747T569 752L589 741L460 69H532V35Q522 27 506 19T470 5T429 -5T390 -9Q355 -9 340 7T325 40Q325 57 330 89T344 159H340Z" />
<glyph unicode="e" glyph-name="e" horiz-adv-x="472" d="M429 109Q418 89 397 68T348 29T286 0T215 -12Q126 -12 77 36T27 174Q27 243 49 304T110 411T204 485T324 512Q384 512 423 485T462 409Q462 341 395 297T176 242Q173 228 172 214T170 186Q170 129 199
99T273 68Q292 68 311 74T347 90T379 111T405 134L429 109ZM301 455Q267 455 236 418T183 293Q257 295 302 326T348 407Q348 427 338 441T301 455Z" />
<glyph unicode="f" glyph-name="f" horiz-adv-x="316" d="M113 437H42V476Q62 487 84 495T127 509L134 544Q147 606 169 646T222 710T290 743T372 752Q404 752 437 747T490 730Q492 716 489 700T478 668T460 641T438 623L366 699Q352 696 339 690T313 668T290
625T269 550L260 500H370Q372 489 370 470T357 437H247L185 43Q175 -28 144 -75T76 -150T0 -193T-62 -212L-73 -178Q-61 -172 -43 -159T-7 -121T26 -62T50 24L113 437Z" />
<glyph unicode="g" glyph-name="g" horiz-adv-x="520" d="M294 512Q351 512 387 499T441 472Q451 481 468 490T504 508T543 524T579 536Q584 527 585 512T586 482T579 452T566 429L467 440Q472 432 475 419T479 390Q479 354 462 322T413 265T335 227T232 212Q215
212 205 212T181 216Q176 212 170 208T157 198T146 187T141 172Q141 157 166 149T228 135T309 121T390 98T452 58T477 -10Q477 -56 448 -93T371 -156T264 -197T143 -212Q93 -212 55 -203T-8 -177T-46 -139T-59 -95Q-59 -43 -14 -8T100 51Q74 62 59 77T43 117Q43
132 52 148T75 179T106 206T140 227Q125 230 109 239T79 261T56 293T47 333Q47 372 64 405T113 461T190 498T294 512ZM190 -155Q217 -155 242 -149T288 -130T320 -98T333 -53Q333 -29 314 -15T264 9T199 25T131 39Q103 18 89 -11T75 -69Q75 -109 106 -132T190 -155ZM282
457Q258 457 240 447T210 420T192 380T186 331Q186 296 203 282T241 267Q265 267 283 277T313 303T331 342T337 389Q337 419 323 438T282 457Z" />
<glyph unicode="h" glyph-name="h" horiz-adv-x="581" d="M90 682V714Q105 720 128 726T179 738T236 748T291 752L312 743L228 354H233Q252 386 275 415T325 465T380 499T439 512Q485 512 510 486T535 420Q535 393 530 362T518 302L461 69H535V35Q515 19 477 5T389
-9Q356 -9 341 4T326 37Q326 55 330 74T340 118L377 285Q384 316 389 341T395 390Q395 408 388 420T365 432Q342 432 319 416T276 376T241 328T218 286L159 0H21L156 669L90 682Z" />
<glyph unicode="i" glyph-name="i" horiz-adv-x="304" d="M59 442V476Q74 482 99 488T152 500T207 508T256 512L274 500L184 69H254V35Q241 26 224 18T187 4T147 -5T109 -9Q71 -9 57 5T42 37Q42 57 45 76T53 118L121 428L59 442ZM398 667Q398 701 421 720T479
739Q517 739 539 720T562 667Q562 635 540 616T479 597Q444 597 421 616T398 667Z" />
<glyph unicode="j" glyph-name="j" horiz-adv-x="299" d="M119 429L60 442V476Q75 483 98 489T147 501T201 509T252 512L272 500L180 43Q165 -28 135 -75T70 -151T-1 -194T-65 -212L-81 -181Q-69 -175 -53 -162T-21 -125T10 -65T37 24L119 429ZM398 667Q398 701
421 720T479 739Q517 739 539 720T562 667Q562 635 540 616T479 597Q444 597 421 616T398 667Z" />
<glyph unicode="k" glyph-name="k" horiz-adv-x="539" d="M315 45Q287 93 271 140T239 229L206 239L161 0H21L154 669L87 682V716Q101 722 124 728T174 740T230 748T288 752L309 741L216 283H248Q265 296 283 314T317 350T345 385T365 415Q366 422 366 434T367
458T366 482T364 500Q381 506 407 509T460 513Q487 513 510 510T545 500Q532 467 507 435T452 375T394 325T347 289Q354 270 368 241T401 181T439 120T476 69H530V35Q520 27 505 19T471 5T434 -5T397 -9Q373 -9 353 2T315 45Z" />
<glyph unicode="l" glyph-name="l" horiz-adv-x="299" d="M153 669L85 682V716Q99 722 123 728T175 739T232 748T287 752L307 741L176 69H247V35Q237 27 220 19T183 5T140 -5T98 -9Q64 -9 49 5T33 37Q33 57 36 76T44 118L153 669Z" />
<glyph unicode="m" glyph-name="m" horiz-adv-x="849" d="M645 300Q650 323 656 349T662 391Q662 410 656 421T632 432Q615 432 597 420T562 387T530 340T502 287L437 0H303L364 281Q371 312 376 341T381 395Q381 432 353 432Q339 432 321 419T285 386T251 339T226
286L168 0H28L117 429L60 442V476Q76 484 99 491T149 502T202 509T252 512L273 500L234 354H238Q253 381 274 409T323 460T381 497T444 512Q456 512 469 508T493 494T512 465T519 419Q519 405 517 387T510 354Q527 385 550 414T599 464T655 499T717 512Q755 512
779 488T803 422Q803 390 797 361T784 300L727 69H797V35Q787 27 770 19T732 5T691 -5T652 -9Q616 -9 602 5T588 38Q588 67 602 118L645 300Z" />
<glyph unicode="n" glyph-name="n" horiz-adv-x="588" d="M384 285Q391 316 396 340T402 390Q402 407 395 419T368 432Q349 432 329 418T289 382T253 334T226 286L166 0H28L114 429L55 442L57 476Q71 483 93 489T141 501T194 509T247 512L267 500L236 354H241Q259
387 283 416T334 466T391 499T452 512Q494 512 518 485T542 413Q542 390 537 361T525 302L470 69H542V35Q532 27 516 19T480 5T439 -5T399 -9Q365 -9 350 4T334 34Q334 55 339 79T349 125L384 285Z" />
<glyph unicode="o" glyph-name="o" horiz-adv-x="549" d="M29 192Q29 246 47 302T102 405T195 482T328 512Q418 512 469 463T520 317Q520 251 500 192T442 87T350 15T225 -12Q183 -12 147 0T85 38T44 102T29 192ZM311 455Q271 455 245 425T202 350T178 251T171
153Q171 102 190 74T244 45Q273 45 297 69T340 135T368 230T378 342Q378 397 361 426T311 455Z" />
<glyph unicode="p" glyph-name="p" horiz-adv-x="572" d="M135 -133Q152 -136 170 -144T202 -162V-200H-4L-17 -187L115 428L57 442V476Q73 483 98 489T150 501T203 509T249 512L269 500L236 362H240Q256 393 276 420T320 468T371 500T430 512Q481 512 514 472T548
360Q548 279 525 211T463 93T369 16T251 -12Q222 -12 204 -8T165 8L135 -133ZM353 432Q332 432 313 417T276 378T245 328T222 279L178 62Q191 53 203 49T240 45Q274 45 304 72T356 142T391 239T404 346Q404 388 391 410T353 432Z" />
<glyph unicode="q" glyph-name="q" horiz-adv-x="546" d="M408 -132Q424 -135 442 -143T474 -162V-200H268L259 -192L336 152H332Q319 123 301 94T258 42T205 3T140 -12Q88 -12 57 29T26 148Q26 220 45 285T105 401T207 480T351 510Q381 510 410 507T465 498T509
487T538 476L408 -132ZM218 68Q237 68 256 84T292 126T324 180T350 236L390 442Q372 453 337 453Q296 453 265 427T212 358T179 262T168 156Q168 68 218 68Z" />
<glyph unicode="r" glyph-name="r" horiz-adv-x="435" d="M314 405Q295 397 272 369T232 298L168 0H28L117 429L60 442V476Q77 484 99 490T147 501T200 508T252 512L272 500L246 376H250Q280 434 319 473T410 512Q424 512 438 510T464 500Q466 479 461 455T446
408T425 369T402 346L314 405Z" />
<glyph unicode="s" glyph-name="s" horiz-adv-x="432" d="M229 110Q229 132 217 149T187 184T148 217T108 255T78 301T66 361Q66 437 120 474T269 512Q285 512 304 511T344 505T382 496T416 481Q417 470 415 453T406 418T389 386T363 366L283 455Q251 455 230
442T208 396Q208 374 220 356T251 322T291 288T331 251T361 204T374 144Q374 106 357 77T311 28T240 -2T151 -12Q100 -12 60 -1T-1 25Q-2 57 10 88T47 136L144 45Q177 45 203 61T229 110Z" />
<glyph unicode="t" glyph-name="t" horiz-adv-x="367" d="M45 476Q64 488 87 496T132 510L148 586Q155 592 170 597T203 607T239 616T273 622L294 610L270 500H387Q389 488 386 469T374 437H257L199 178Q195 159 193 145T191 118Q191 92 204 80T239 68Q264 68
286 74T328 91L341 65Q329 52 309 39T264 14T210 -5T151 -12Q99 -12 73 12T47 78Q47 101 51 127T59 171L117 437H45V476Z" />
<glyph unicode="u" glyph-name="u" horiz-adv-x="585" d="M546 69V35Q536 27 520 19T484 5T443 -5T400 -9Q364 -9 351 5T337 36Q337 54 341 86T357 160H353Q340 136 320 106T273 50T211 6T134 -12Q93 -12 68 12T42 82Q42 104 48 145T64 234T85 334T106 429L47
442V476Q63 482 87 488T137 499T190 507T239 512L261 500Q245 425 229 358T198 215Q193 191 188 162T182 104Q182 86 191 77T215 68Q240 68 264 87T309 134T345 191T368 239L420 500H555L476 69H546Z" />
<glyph unicode="v" glyph-name="v" horiz-adv-x="481" d="M289 175Q316 224 338 274T376 381Q376 392 374 409T369 445T363 478T358 500Q372 506 392 509T433 512T473 509T503 500Q488 438 461 373T398 242T322 116T238 0L146 -12L72 429L8 437V471Q20 478 37
485T74 498T116 508T159 512Q186 512 197 498T211 461L249 173L255 106H257L289 175Z" />
<glyph unicode="w" glyph-name="w" horiz-adv-x="762" d="M579 174Q606 226 625 274T660 374Q660 385 657 403T651 441T645 477T639 500Q653 506 674 509T716 512Q736 512 754 509T784 500Q769 438 744 373T688 244T620 117T545 0L442 -12L397 243L394 320H391L358
242Q329 183 295 120T227 0L120 -12L72 429L8 437V471Q20 478 37 485T74 498T114 508T154 512Q181 512 196 499T213 463L236 177L234 105H236L264 178L403 480L482 500Q502 425 518 342T545 177L550 106H552L579 174Z" />
<glyph unicode="x" glyph-name="x" horiz-adv-x="506" d="M201 202Q181 179 158 152T122 100Q121 92 121 79T122 52T124 26T128 7Q111 0 89 -3T44 -6Q22 -6 3 -3T-27 7Q-18 37 7 73T64 143T128 208T184 257L123 423L54 431V465Q68 473 87 481T128 495T170 505T209
509Q235 509 248 496T269 460L314 302Q333 322 354 350T386 401Q387 408 387 421T385 448T381 475T377 494Q414 507 458 507Q478 507 497 504T527 494Q518 464 494 428T439 358T379 296T329 252L395 77L464 69V35Q454 28 436 21T397 7T354 -4T314 -9Q288 -9 273
4T251 39L201 202Z" />
<glyph unicode="y" glyph-name="y" horiz-adv-x="487" d="M72 429L8 437V471Q13 475 28 481T63 495T107 507T152 512Q179 512 194 499T214 463L291 160L296 100H298L319 159Q339 207 358 262T388 366Q388 377 385 396T377 436T369 474T363 498Q377 504 398 507T440
510Q461 510 479 507T508 498Q482 379 429 251T305 0Q247 -103 190 -156T57 -209Q36 -209 19 -204T-13 -189Q-16 -175 -11 -156T3 -119T26 -86T53 -66L128 -119Q135 -114 146 -105T168 -81T190 -46T210 0L72 429Z" />
<glyph unicode="z" glyph-name="z" horiz-adv-x="468" d="M122 183V184L313 383Q274 382 229 386T135 399L89 327L55 333L69 474Q75 513 126 513Q146 513 176 510T243 501T324 492T415 484L441 512Q455 511 470 499T487 469L165 133Q216 122 264 106T354 66L421
132L454 118L410 -23Q405 -38 391 -48T356 -58Q335 -58 306 -45T239 -16T160 17T72 39L25 -9Q17 -9 9 -5T-6 5T-17 19T-21 36L122 183Z" />
<glyph unicode="{" glyph-name="braceleft" horiz-adv-x="356" d="M98 102Q103 125 103 141Q103 174 87 192T41 211L51 259Q70 259 86 267T116 289T139 323T154 364L203 594Q213 642 243 671T321 700H442L431 645H396Q369 645 354 631T331 585L284 365Q277 332
262 309T227 272T187 250T148 240L146 234Q161 232 176 226T203 207T224 178T232 136Q232 121 229 105L182 -115Q179 -129 179 -138Q179 -175 222 -175H256L245 -230H124Q87 -230 67 -212T46 -158Q46 -141 50 -125L98 102Z" />
<glyph unicode="|" glyph-name="bar" horiz-adv-x="235" d="M114 700H184V-130H114V700Z" />
<glyph unicode="}" glyph-name="braceright" horiz-adv-x="356" d="M277 369Q272 346 272 330Q272 260 334 260L323 212Q285 212 258 182T221 107L172 -124Q162 -172 132 -201T54 -230H-67L-56 -175H-21Q6 -175 21 -161T44 -115L91 106Q98 139 112 162T143 199T180
221T218 231L219 237Q205 238 191 244T166 262T149 290T142 330Q142 349 146 366L193 585Q195 591 195 596T195 607Q196 645 152 645H118L130 700H252Q289 700 309 682T329 628Q329 611 325 595L277 369Z" />
<glyph unicode="~" glyph-name="asciitilde" horiz-adv-x="560" d="M81 312Q107 370 147 400T224 431Q249 431 273 421T320 397T366 374T415 363Q433 363 452 370T492 397L515 367Q492 319 460 296T392 272Q366 272 342 282T293 306T245 329T197 340Q175 340 153
328T107 285L81 312Z" />
<glyph unicode="&#xa0;" glyph-name="uni00A0" horiz-adv-x="270" />
<glyph unicode="&#xa1;" glyph-name="exclamdown" horiz-adv-x="347" d="M210 286L222 92L168 -186Q156 -192 135 -194T91 -197Q68 -197 48 -195T18 -186L78 92L166 286H210ZM128 432Q128 468 151 490T212 512Q250 512 274 490T298 432Q298 396 274 375T212 353Q174
353 151 374T128 432Z" />
<glyph unicode="&#xa2;" glyph-name="cent" horiz-adv-x="560" d="M475 109Q449 68 408 38T312 -3L278 -170H201L235 -11Q150 -6 99 41T47 175Q47 240 68 297T129 399T224 472T345 508L378 660H455L423 509Q431 508 437 508T452 506Q483 504 514 498T559 480Q560
469 556 453T542 420T521 389T494 368L433 455Q418 455 403 452L322 74Q370 79 401 98T451 134L475 109ZM191 184Q191 139 210 113T260 77L337 434Q304 419 277 395T231 339T202 267T191 184Z" />
<glyph unicode="&#xa3;" glyph-name="sterling" horiz-adv-x="560" d="M68 375H145Q133 407 126 439T119 501Q119 598 183 655T389 712Q452 712 506 702T596 674Q591 658 583 634T564 585T544 535T524 494H490L479 631Q461 639 440 643T393 647Q346 647 315 630T276
575Q271 551 272 528T277 487Q280 470 283 458T288 433T294 408T300 375H425L411 314H304Q301 283 292 265T266 223Q260 203 244 180T202 139L163 116V112L214 118H391L464 230H498Q496 207 493 175T486 110T478 48T469 0H-9L2 54Q27 63 47 73T84 96T114 122T141
154Q156 175 165 203T175 249Q175 271 173 285T166 314H54L68 375Z" />
<glyph unicode="&#xa4;" glyph-name="currency" horiz-adv-x="560" d="M34 178L108 252L148 266Q135 283 130 301T125 346Q125 393 148 425L108 440L34 514L112 592L186 518L201 478Q217 489 235 495T279 501Q332 500 360 479L375 518L448 590L525 513L452 440L414
426Q423 409 428 390T434 345Q435 323 430 303T414 266L452 252L525 178L447 100L374 173L360 212Q345 203 324 197T280 191Q254 192 235 197T199 212L186 174L112 100L34 178ZM279 263Q315 264 339 287T364 346Q364 382 340 405T279 429Q243 430 219 406T195 346Q194
310 218 287T279 263Z" />
<glyph unicode="&#xa5;" glyph-name="yen" horiz-adv-x="560" d="M472 700H713L705 662Q688 652 666 644T623 633L410 342H527L513 277H371L358 220H501L487 155H345L326 67Q345 64 363 56T396 38L388 0H80L88 38Q107 47 130 55T176 67L195 155H52L66 220H208L221
277H78L92 342H206L106 633Q84 637 65 645T31 662L39 700H366L358 662Q330 647 278 633L350 351L538 633Q516 638 497 645T464 662L472 700Z" />
<glyph unicode="&#xa6;" glyph-name="brokenbar" horiz-adv-x="235" d="M97 190H167V-130H97V190ZM167 380H97V700H167V380Z" />
<glyph unicode="&#xa7;" glyph-name="section" horiz-adv-x="566" d="M366 39Q366 66 345 84T293 115T224 143T156 176T103 224T82 298Q82 347 121 382T218 441Q197 452 179 465T147 494T125 532T117 580Q117 610 130 634T169 676T228 702T304 712Q358 712 401
704T481 685Q477 653 471 627T452 570H418L366 647Q354 652 344 653T317 655Q283 655 267 638T251 598Q251 571 272 553T326 519T395 488T465 452T518 403T540 333Q540 307 529 285T499 245T459 212T414 186Q450 166 475 139T500 68Q500 -2 445 -42T290 -82Q242
-82 194 -72T107 -44Q109 -8 119 16T146 70H180L239 -14Q250 -22 261 -23T284 -25Q316 -25 341 -8T366 39ZM406 301Q406 323 395 340T365 370T322 393T271 415Q249 399 233 376T216 328Q216 306 228 290T259 260T304 237T356 215Q376 232 391 255T406 301Z" />
<glyph unicode="&#xa8;" glyph-name="dieresis" horiz-adv-x="520" d="M175 659Q175 691 195 710T248 729Q280 729 300 710T321 659Q321 629 301 610T248 591Q215 591 195 610T175 659ZM394 659Q394 691 414 710T466 729Q499 729 519 710T540 659Q540 629 520
610T466 591Q434 591 414 610T394 659Z" />
<glyph unicode="&#xa9;" glyph-name="copyright" horiz-adv-x="813" d="M65 290Q65 373 94 438T173 549T286 618T419 642Q488 642 551 618T664 549T743 439T773 290Q773 207 744 142T665 31T552 -38T419 -62Q347 -62 283 -38T170 31T93 141T65 290ZM132 290Q132
223 155 169T217 77T308 19T419 -2Q480 -2 532 18T623 77T684 169T706 290Q706 359 682 413T619 504T527 562T419 582Q356 582 304 562T213 503T154 411T132 290ZM525 220H559Q561 212 563 200T567 172T569 142T569 115Q552 101 516 92T440 82Q391 82 351 95T281
135T235 201T218 291Q218 343 236 382T284 447T351 486T427 500Q475 500 510 492T566 470Q567 461 566 446T563 415T559 382T553 356H519L489 439Q482 444 470 444T445 445Q400 445 377 407T353 291Q353 258 358 230T376 181T407 149T453 137Q469 137 481 139T497
146L525 220Z" />
<glyph unicode="&#xaa;" glyph-name="ordfeminine" horiz-adv-x="460" d="M269 475Q262 461 249 444T219 413T179 388T129 378Q78 378 52 408T26 489Q26 540 44 581T92 651T160 695T240 711Q264 711 287 705T328 688L415 710L433 700L380 445L430 435L429 407Q409
395 372 387T303 378Q280 378 271 389T264 418L273 475H269ZM187 446Q199 446 213 454T241 476T265 504T283 533L304 635Q290 641 279 646T252 651Q232 651 214 641T180 613T156 566T147 502Q147 476 157 461T187 446Z" />
<glyph unicode="&#xab;" glyph-name="guillemotleft" horiz-adv-x="500" d="M254 259L479 481L514 445L364 256L442 77L392 41L254 259ZM38 259L325 482L356 446L168 255L284 76L237 39L38 259Z" />
<glyph unicode="&#xac;" glyph-name="logicalnot" horiz-adv-x="547" d="M55 401H489V185H409V311H55V401Z" />
<glyph unicode="&#xad;" glyph-name="uni00AD" horiz-adv-x="414" d="M83 327H370L350 237H63L83 327Z" />
<glyph unicode="&#xae;" glyph-name="registered" horiz-adv-x="700" d="M115 451Q115 517 138 569T200 657T290 712T397 731Q454 731 505 712T595 657T656 569T679 451Q679 385 656 333T594 245T504 190T397 171Q340 171 289 190T199 245T138 333T115 451ZM177
451Q177 399 194 358T242 287T312 242T397 226Q444 226 484 241T554 286T600 356T617 451Q617 503 600 544T552 615T482 660T397 676Q349 676 309 660T240 615T194 545T177 451ZM366 351Q379 350 386 348T400 342V309H262V342Q279 348 297 351V566Q286 567 278
569T262 577V608H314Q332 608 357 610T398 612Q452 612 486 593T520 528Q520 497 501 478T454 449Q463 434 470 422T486 399T504 376T529 351L552 339V309H488L460 320Q435 350 423 380T399 439H366V351ZM393 571Q382 571 377 571T366 568V477H395Q419 477 432
489T444 528Q443 551 430 561T393 571Z" />
<glyph unicode="&#xaf;" glyph-name="overscore" horiz-adv-x="491" d="M194 619L209 689H503L488 619H194Z" />
<glyph unicode="&#xb0;" glyph-name="degree" horiz-adv-x="408" d="M122 571Q122 602 133 628T164 672T210 701T266 712Q295 712 321 703T367 677T398 633T410 571Q410 538 399 512T368 468T322 440T266 430Q237 430 211 439T165 467T134 512T122 571ZM191 571Q191
533 213 512T266 490Q298 490 319 510T341 571Q341 610 320 631T266 652Q233 652 212 631T191 571Z" />
<glyph unicode="&#xb1;" glyph-name="plusminus" horiz-adv-x="560" d="M55 504H240V700H320V504H505V424H320V292H240V424H55V504ZM55 244H505V164H55V244Z" />
<glyph unicode="&#xb2;" glyph-name="twosuperior" horiz-adv-x="440" d="M204 621H177Q174 633 171 653T166 695T162 736T161 765Q200 788 240 800T339 813Q419 813 452 785T486 711Q486 675 465 642T408 577T323 518T219 466V460L250 467H369L427 534H458Q458
517 456 495T452 452T446 414T440 386H83L95 437Q147 466 196 498T282 563T343 628T366 691Q366 714 353 726T309 738Q295 738 281 735T255 726L204 621Z" />
<glyph unicode="&#xb3;" glyph-name="threesuperior" horiz-adv-x="440" d="M257 437Q281 437 298 445T326 465T342 493T347 522Q347 546 334 560T277 574H239L247 609L338 695L395 737V739L332 735H261L204 652H173Q171 665 171 686T171 729T173 772T177 804H509L500
759L381 658L335 627L334 626L366 630Q409 628 438 605T467 535Q467 503 456 474T417 424T347 390T240 377Q220 377 198 380T154 390T114 405T85 423L142 529H169Q177 516 185 492T200 447Q218 437 257 437Z" />
<glyph unicode="&#xb4;" glyph-name="acute" horiz-adv-x="532" d="M357 763Q365 765 383 765T422 761T458 753T480 741V717L279 562L239 584L357 763Z" />
<glyph unicode="&#xb5;" glyph-name="mu" horiz-adv-x="622" d="M163 13L180 -161L172 -200Q134 -208 103 -208T44 -200L177 429L118 437L124 476Q141 482 165 488T216 499T266 507T306 512L339 506Q331 469 324 436T308 368T292 299T275 222Q258 140 261 104T297
68Q328 68 368 108T442 223L489 457L640 506L554 70L623 66L617 28Q594 16 559 4T491 -10Q481 -11 473 -11T456 -8L407 11L431 154H427Q392 78 341 33T228 -12Q208 -12 194 -5T168 13H163Z" />
<glyph unicode="&#xb6;" glyph-name="paragraph" horiz-adv-x="547" d="M452 94Q452 27 442 -16T413 -86T365 -126T299 -148Q279 -177 250 -191T189 -212L173 -179Q195 -170 214 -157T248 -121T270 -63T279 24V310Q247 310 216 320T159 352T117 411T101 500Q101
542 113 578T150 642T213 684T302 700H528V657Q511 649 493 643T452 633V94ZM319 -111Q360 -98 374 -47T388 94V638H344V24Q344 -16 339 -50T319 -111Z" />
<glyph unicode="&#xb7;" glyph-name="middot" horiz-adv-x="235" d="M50 321Q50 357 73 379T134 401Q172 401 196 379T220 321Q220 285 196 264T134 242Q96 242 73 263T50 321Z" />
<glyph unicode="&#xb8;" glyph-name="cedilla" horiz-adv-x="445" d="M187 -68Q241 -71 262 -88T285 -139Q285 -170 265 -192T214 -228T144 -250T70 -257V-218Q87 -215 103 -210T132 -198T152 -180T160 -157Q159 -140 149 -129T107 -114L168 1H230L187 -68Z" />
<glyph unicode="&#xb9;" glyph-name="onesuperior" horiz-adv-x="440" d="M415 386H101L108 416Q138 430 164 440T217 455L263 670L278 715Q265 712 250 710T220 708T190 707T163 709L172 751Q220 757 272 775T366 813H406L330 455Q381 443 422 416L415 386Z" />
<glyph unicode="&#xba;" glyph-name="ordmasculine" horiz-adv-x="446" d="M26 504Q26 547 44 585T93 651T167 696T259 712Q335 712 377 677T420 581Q420 531 400 493T347 427T272 386T187 372Q154 372 125 381T73 407T39 449T26 504ZM145 492Q145 465 157 444T200
423Q218 423 236 434T269 466T293 521T302 599Q302 622 291 641T248 661Q230 661 212 649T179 615T155 561T145 492Z" />
<glyph unicode="&#xbb;" glyph-name="guillemotright" horiz-adv-x="500" d="M286 262L61 40L26 76L176 265L98 444L148 480L286 262ZM502 262L215 39L184 75L372 266L256 445L303 482L502 262Z" />
<glyph unicode="&#xbc;" glyph-name="onequarter" horiz-adv-x="953" d="M631 282H317L324 312Q354 326 380 336T433 351L479 566L494 611Q481 608 466 606T436 604T406 603T379 605L388 647Q436 653 488 671T582 709H622L546 351Q597 339 638 312L631 282ZM841
715L889 673L224 -13L177 30L841 715ZM870 0H625L632 30Q649 39 669 47T711 59L723 113H494L501 150L832 427H902L848 173H933L920 113H835L824 59Q838 55 851 48T877 30L870 0ZM757 276L776 319H773L731 276L631 189L590 166L645 173H735L757 276Z" />
<glyph unicode="&#xbd;" glyph-name="onehalf" horiz-adv-x="1026" d="M631 282H317L324 312Q354 326 380 336T433 351L479 566L494 611Q481 608 466 606T436 604T406 603T379 605L388 647Q436 653 488 671T582 709H622L546 351Q597 339 638 312L631 282ZM835
715L883 673L218 -13L171 30L835 715ZM704 235H677Q674 247 671 267T666 309T662 350T661 379Q700 402 740 414T839 427Q919 427 952 399T986 325Q986 289 965 256T908 191T823 132T719 80V74L750 81H869L927 148H958Q958 131 956 109T952 66T946 28T940 0H583L595
51Q647 80 696 112T782 177T843 242T866 305Q866 328 853 340T809 352Q795 352 781 349T755 340L704 235Z" />
<glyph unicode="&#xbe;" glyph-name="threequarters" horiz-adv-x="975" d="M232 333Q256 333 273 341T301 361T317 389T322 418Q322 442 309 456T252 470H214L222 505L313 591L370 633V635L307 631H236L179 548H148Q146 561 146 582T146 625T148 668T152 700H484L475
655L356 554L310 523L309 522L341 526Q384 524 413 501T442 431Q442 399 431 370T392 320T322 286T215 273Q195 273 173 276T129 286T89 301T60 319L117 425H144Q152 412 160 388T175 343Q193 333 232 333ZM859 715L907 673L242 -13L195 30L859 715ZM894 0H649L656
30Q673 39 693 47T735 59L747 113H518L525 150L856 427H926L872 173H957L944 113H859L848 59Q862 55 875 48T901 30L894 0ZM781 276L800 319H797L755 276L655 189L614 166L669 173H759L781 276Z" />
<glyph unicode="&#xbf;" glyph-name="questiondown" horiz-adv-x="486" d="M318 3H352Q357 -17 364 -49T374 -115Q375 -126 375 -136T373 -157Q331 -180 281 -194T166 -208Q77 -208 27 -172T-24 -70Q-24 -21 -4 14T48 75T117 124T188 172T247 227T280 301H313Q318
253 306 216T273 149T226 94T176 44T138 -7T122 -66Q122 -106 143 -124T200 -143Q248 -143 267 -129L318 3ZM217 432Q217 468 240 490T301 512Q339 512 363 490T387 432Q387 396 363 375T301 353Q263 353 240 374T217 432Z" />
<glyph unicode="&#xc0;" glyph-name="Agrave" horiz-adv-x="724" d="M205 0H-44L-37 38Q-19 48 1 55T41 67L437 712H510L623 67Q642 63 660 55T692 38L684 0H376L383 38Q404 48 427 55T472 67L448 226H227L132 67Q153 64 174 57T212 38L205 0ZM261 291H440L412
482V568H410L372 480L261 291ZM524 764L490 745L254 841V861Q257 870 275 877T317 890T363 898T397 898L524 764Z" />
<glyph unicode="&#xc1;" glyph-name="Aacute" horiz-adv-x="724" d="M205 0H-44L-37 38Q-19 48 1 55T41 67L437 712H510L623 67Q642 63 660 55T692 38L684 0H376L383 38Q404 48 427 55T472 67L448 226H227L132 67Q153 64 174 57T212 38L205 0ZM261 291H440L412
482V568H410L372 480L261 291ZM575 898Q591 899 611 896T651 888T686 875T708 861V841L461 745L433 769L575 898Z" />
<glyph unicode="&#xc2;" glyph-name="Acircumflex" horiz-adv-x="724" d="M205 0H-44L-37 38Q-19 48 1 55T41 67L437 712H510L623 67Q642 63 660 55T692 38L684 0H376L383 38Q404 48 427 55T472 67L448 226H227L132 67Q153 64 174 57T212 38L205 0ZM261 291H440L412
482V568H410L372 480L261 291ZM338 743L310 771L482 888Q494 895 515 893Q534 893 544 888L624 774L596 744L492 800L338 743Z" />
<glyph unicode="&#xc3;" glyph-name="Atilde" horiz-adv-x="724" d="M205 0H-44L-37 38Q-19 48 1 55T41 67L437 712H510L623 67Q642 63 660 55T692 38L684 0H376L383 38Q404 48 427 55T472 67L448 226H227L132 67Q153 64 174 57T212 38L205 0ZM261 291H440L412
482V568H410L372 480L261 291ZM925 817Q893 785 865 769T801 752Q782 752 766 757T733 769T702 780T671 786Q657 786 641 781T608 761L580 808Q656 876 715 876Q733 876 749 871T781 860T811 849T842 844Q855 844 871 848T903 864L925 817Z" />
<glyph unicode="&#xc4;" glyph-name="Adieresis" horiz-adv-x="724" d="M205 0H-44L-37 38Q-19 48 1 55T41 67L437 712H510L623 67Q642 63 660 55T692 38L684 0H376L383 38Q404 48 427 55T472 67L448 226H227L132 67Q153 64 174 57T212 38L205 0ZM261 291H440L412
482V568H410L372 480L261 291ZM277 793Q277 825 300 841T358 857Q393 857 416 841T439 793Q439 765 416 750T358 734Q323 734 300 749T277 793ZM522 793Q522 825 545 841T604 857Q639 857 662 841T685 793Q685 765 662 750T604 734Q569 734 546 749T522 793Z" />
<glyph unicode="&#xc5;" glyph-name="Aring" horiz-adv-x="724" d="M356 777Q356 798 367 816T398 848T446 870T510 878Q558 878 587 861T616 806Q616 768 586 742T510 709L623 67Q642 63 660 55T692 38L684 0H376L383 38Q404 48 427 55T472 67L448 226H227L132
67Q153 64 174 57T212 38L205 0H-44L-37 38Q-19 48 1 55T41 67L434 706Q356 715 356 777ZM261 291H440L412 482V568H410L372 480L261 291ZM439 785Q439 769 451 762T479 754Q503 754 518 765T533 792Q533 812 522 820T492 828Q469 828 454 817T439 785Z" />
<glyph unicode="&#xc6;" glyph-name="AE" horiz-adv-x="953" d="M1001 700Q991 655 976 607T943 517H901L880 635H693L641 390H764L824 467H855Q853 443 849 415T838 357T825 300T809 246H777L750 325H627L572 65H767L847 192H889Q889 173 888 149T884 100T877
48T868 0H332L339 38Q357 46 378 54T423 67L461 244H279L141 67Q179 58 211 38L204 0H-44L-37 38Q-19 48 1 55T40 67L508 638Q494 643 480 648T455 662L463 700H1001ZM329 309H476L540 594H538L484 504L329 309Z" />
<glyph unicode="&#xc7;" glyph-name="Ccedilla" horiz-adv-x="652" d="M561 210H603Q603 194 602 172T598 124T591 73T582 28Q563 18 540 11T493 -1T446 -8T404 -12L369 -70Q427 -72 452 -92T477 -147Q477 -185 452 -211T390 -253T314 -277T245 -285V-239Q263
-237 280 -232T312 -218T335 -197T344 -167Q343 -149 333 -138T288 -125L342 -10Q264 -3 211 23T123 89T74 175T59 269Q59 368 88 449T172 589T308 680T491 712Q557 712 609 703T695 677Q692 661 685 636T669 584T650 530T631 485H589L566 636Q557 641 536 644T494
647Q436 647 388 619T304 540T249 417T229 255Q229 199 245 161T286 98T342 64T402 53Q431 53 452 58T483 70L561 210Z" />
<glyph unicode="&#xc8;" glyph-name="Egrave" horiz-adv-x="602" d="M650 700Q640 655 625 607T592 517H550L529 635H342L290 390H413L473 467H504Q499 418 487 358T458 246H426L399 325H276L222 65H416L496 192H538Q538 174 537 150T533 100T526 48T517 0H-24L-17
38Q3 47 25 55T72 67L192 633Q172 637 152 644T116 662L124 700H650ZM485 764L451 745L215 841V861Q218 870 236 877T278 890T324 898T358 898L485 764Z" />
<glyph unicode="&#xc9;" glyph-name="Eacute" horiz-adv-x="602" d="M650 700Q640 655 625 607T592 517H550L529 635H342L290 390H413L473 467H504Q499 418 487 358T458 246H426L399 325H276L222 65H416L496 192H538Q538 174 537 150T533 100T526 48T517 0H-24L-17
38Q3 47 25 55T72 67L192 633Q172 637 152 644T116 662L124 700H650ZM734 898Q750 899 770 896T810 888T845 875T867 861V841L620 745L592 769L734 898Z" />
<glyph unicode="&#xca;" glyph-name="Ecircumflex" horiz-adv-x="602" d="M650 700Q640 655 625 607T592 517H550L529 635H342L290 390H413L473 467H504Q499 418 487 358T458 246H426L399 325H276L222 65H416L496 192H538Q538 174 537 150T533 100T526 48T517
0H-24L-17 38Q3 47 25 55T72 67L192 633Q172 637 152 644T116 662L124 700H650ZM544 743L516 771L688 888Q700 895 721 893Q740 893 750 888L830 774L802 744L698 800L544 743Z" />
<glyph unicode="&#xcb;" glyph-name="Edieresis" horiz-adv-x="602" d="M650 700Q640 655 625 607T592 517H550L529 635H342L290 390H413L473 467H504Q499 418 487 358T458 246H426L399 325H276L222 65H416L496 192H538Q538 174 537 150T533 100T526 48T517 0H-24L-17
38Q3 47 25 55T72 67L192 633Q172 637 152 644T116 662L124 700H650ZM465 793Q465 825 488 841T546 857Q581 857 604 841T627 793Q627 765 604 750T546 734Q511 734 488 749T465 793ZM710 793Q710 825 733 841T792 857Q827 857 850 841T873 793Q873 765 850 750T792
734Q757 734 734 749T710 793Z" />
<glyph unicode="&#xcc;" glyph-name="Igrave" horiz-adv-x="369" d="M298 0H-14L-7 38Q40 60 81 67L201 633Q181 636 162 643T126 662L134 700H446L438 662Q418 651 395 644T351 633L231 67Q250 63 270 56T305 38L298 0ZM639 764L605 745L369 841V861Q372 870
390 877T432 890T478 898T512 898L639 764Z" />
<glyph unicode="&#xcd;" glyph-name="Iacute" horiz-adv-x="369" d="M298 0H-14L-7 38Q40 60 81 67L201 633Q181 636 162 643T126 662L134 700H446L438 662Q418 651 395 644T351 633L231 67Q250 63 270 56T305 38L298 0ZM330 898Q346 899 366 896T406 888T441
875T463 861V841L216 745L188 769L330 898Z" />
<glyph unicode="&#xce;" glyph-name="Icircumflex" horiz-adv-x="369" d="M298 0H-14L-7 38Q40 60 81 67L201 633Q181 636 162 643T126 662L134 700H446L438 662Q418 651 395 644T351 633L231 67Q250 63 270 56T305 38L298 0ZM160 743L132 771L304 888Q316 895
337 893Q356 893 366 888L446 774L418 744L314 800L160 743Z" />
<glyph unicode="&#xcf;" glyph-name="Idieresis" horiz-adv-x="369" d="M298 0H-14L-7 38Q40 60 81 67L201 633Q181 636 162 643T126 662L134 700H446L438 662Q418 651 395 644T351 633L231 67Q250 63 270 56T305 38L298 0ZM351 793Q351 825 374 841T432 857Q467
857 490 841T513 793Q513 765 490 750T432 734Q397 734 374 749T351 793ZM596 793Q596 825 619 841T678 857Q713 857 736 841T759 793Q759 765 736 750T678 734Q643 734 620 749T596 793Z" />
<glyph unicode="&#xd0;" glyph-name="Eth" horiz-adv-x="734" d="M-24 0L-17 38Q2 48 25 55T72 67L127 329H40L53 389H140L192 633Q169 638 150 645T116 662L124 700H240Q257 700 282 701T335 703T388 706T432 708Q516 708 574 690T669 639T722 561T739 460Q739
403 729 347T696 238T637 141T549 63T427 10T269 -9Q256 -9 234 -8T185 -5T134 -2T89 0H-24ZM409 643Q391 643 371 642T337 639L283 389H435L422 329H271L214 60Q229 58 252 57T286 56Q367 56 422 94T511 193T559 328T574 473Q574 514 566 546T539 599T488 632T409
643Z" />
<glyph unicode="&#xd1;" glyph-name="Ntilde" horiz-adv-x="755" d="M595 700H842L834 662Q811 645 787 635T740 618L606 -12H525L277 498L253 575H250L241 495L152 78Q170 73 192 62T229 38L222 0H-24L-17 38Q28 66 76 78L192 624Q175 631 156 642T125 663L132
700H344L545 284L575 198H579L594 284L664 618Q642 626 622 637T587 662L595 700ZM914 817Q882 785 854 769T790 752Q771 752 755 757T722 769T691 780T660 786Q646 786 630 781T597 761L569 808Q645 876 704 876Q722 876 738 871T770 860T800 849T831 844Q844
844 860 848T892 864L914 817Z" />
<glyph unicode="&#xd2;" glyph-name="Ograve" horiz-adv-x="751" d="M59 271Q59 363 87 443T169 583T300 677T476 712Q543 712 595 693T683 637T737 548T756 431Q756 349 731 270T655 128T528 27T348 -12Q279 -12 225 9T134 69T78 159T59 271ZM229 252Q229 152
266 103T368 53Q425 53 466 90T534 184T573 313T586 454Q586 543 556 595T455 647Q416 647 385 630T328 582T284 513T253 429T235 340T229 252ZM573 764L539 745L303 841V861Q306 870 324 877T366 890T412 898T446 898L573 764Z" />
<glyph unicode="&#xd3;" glyph-name="Oacute" horiz-adv-x="751" d="M59 271Q59 363 87 443T169 583T300 677T476 712Q543 712 595 693T683 637T737 548T756 431Q756 349 731 270T655 128T528 27T348 -12Q279 -12 225 9T134 69T78 159T59 271ZM229 252Q229 152
266 103T368 53Q425 53 466 90T534 184T573 313T586 454Q586 543 556 595T455 647Q416 647 385 630T328 582T284 513T253 429T235 340T229 252ZM530 898Q546 899 566 896T606 888T641 875T663 861V841L416 745L388 769L530 898Z" />
<glyph unicode="&#xd4;" glyph-name="Ocircumflex" horiz-adv-x="751" d="M59 271Q59 363 87 443T169 583T300 677T476 712Q543 712 595 693T683 637T737 548T756 431Q756 349 731 270T655 128T528 27T348 -12Q279 -12 225 9T134 69T78 159T59 271ZM229 252Q229
152 266 103T368 53Q425 53 466 90T534 184T573 313T586 454Q586 543 556 595T455 647Q416 647 385 630T328 582T284 513T253 429T235 340T229 252ZM352 743L324 771L496 888Q508 895 529 893Q548 893 558 888L638 774L610 744L506 800L352 743Z" />
<glyph unicode="&#xd5;" glyph-name="Otilde" horiz-adv-x="751" d="M59 271Q59 363 87 443T169 583T300 677T476 712Q543 712 595 693T683 637T737 548T756 431Q756 349 731 270T655 128T528 27T348 -12Q279 -12 225 9T134 69T78 159T59 271ZM229 252Q229 152
266 103T368 53Q425 53 466 90T534 184T573 313T586 454Q586 543 556 595T455 647Q416 647 385 630T328 582T284 513T253 429T235 340T229 252ZM919 817Q887 785 859 769T795 752Q776 752 760 757T727 769T696 780T665 786Q651 786 635 781T602 761L574 808Q650
876 709 876Q727 876 743 871T775 860T805 849T836 844Q849 844 865 848T897 864L919 817Z" />
<glyph unicode="&#xd6;" glyph-name="Odieresis" horiz-adv-x="751" d="M59 271Q59 363 87 443T169 583T300 677T476 712Q543 712 595 693T683 637T737 548T756 431Q756 349 731 270T655 128T528 27T348 -12Q279 -12 225 9T134 69T78 159T59 271ZM229 252Q229
152 266 103T368 53Q425 53 466 90T534 184T573 313T586 454Q586 543 556 595T455 647Q416 647 385 630T328 582T284 513T253 429T235 340T229 252ZM283 793Q283 825 306 841T364 857Q399 857 422 841T445 793Q445 765 422 750T364 734Q329 734 306 749T283 793ZM528
793Q528 825 551 841T610 857Q645 857 668 841T691 793Q691 765 668 750T610 734Q575 734 552 749T528 793Z" />
<glyph unicode="&#xd7;" glyph-name="multiply" horiz-adv-x="560" d="M91 213L222 344L93 473L150 529L279 401L409 531L466 475L335 344L468 211L411 154L278 287L148 157L91 213Z" />
<glyph unicode="&#xd8;" glyph-name="Oslash" horiz-adv-x="751" d="M59 271Q59 363 87 443T169 583T300 677T476 712Q524 712 564 702T636 673L674 718L724 677L687 633Q722 596 739 545T756 431Q756 349 731 270T655 128T528 27T348 -12Q297 -12 255 0T180 33L136
-18L87 25L129 74Q94 112 77 162T59 271ZM368 53Q421 53 459 82T522 160T562 268T581 389Q584 446 573 498L258 126Q292 53 368 53ZM455 647Q402 647 363 617T296 538T253 430T234 312Q231 256 242 207L557 580Q543 612 518 629T455 647Z" />
<glyph unicode="&#xd9;" glyph-name="Ugrave" horiz-adv-x="715" d="M112 700H420L412 662Q376 641 330 633L251 260Q231 162 266 118T376 74Q446 74 493 114T561 253L640 628Q617 633 595 642T559 662L567 700H815L807 662Q789 649 765 641T717 628L637 252Q610
123 539 57T334 -9Q191 -9 134 66T104 271L180 633Q160 637 139 644T104 662L112 700ZM554 764L520 745L284 841V861Q287 870 305 877T347 890T393 898T427 898L554 764Z" />
<glyph unicode="&#xda;" glyph-name="Uacute" horiz-adv-x="715" d="M112 700H420L412 662Q376 641 330 633L251 260Q231 162 266 118T376 74Q446 74 493 114T561 253L640 628Q617 633 595 642T559 662L567 700H815L807 662Q789 649 765 641T717 628L637 252Q610
123 539 57T334 -9Q191 -9 134 66T104 271L180 633Q160 637 139 644T104 662L112 700ZM605 898Q621 899 641 896T681 888T716 875T738 861V841L491 745L463 769L605 898Z" />
<glyph unicode="&#xdb;" glyph-name="Ucircumflex" horiz-adv-x="715" d="M112 700H420L412 662Q376 641 330 633L251 260Q231 162 266 118T376 74Q446 74 493 114T561 253L640 628Q617 633 595 642T559 662L567 700H815L807 662Q789 649 765 641T717 628L637
252Q610 123 539 57T334 -9Q191 -9 134 66T104 271L180 633Q160 637 139 644T104 662L112 700ZM358 743L330 771L502 888Q514 895 535 893Q554 893 564 888L644 774L616 744L512 800L358 743Z" />
<glyph unicode="&#xdc;" glyph-name="Udieresis" horiz-adv-x="715" d="M112 700H420L412 662Q376 641 330 633L251 260Q231 162 266 118T376 74Q446 74 493 114T561 253L640 628Q617 633 595 642T559 662L567 700H815L807 662Q789 649 765 641T717 628L637 252Q610
123 539 57T334 -9Q191 -9 134 66T104 271L180 633Q160 637 139 644T104 662L112 700ZM298 793Q298 825 321 841T379 857Q414 857 437 841T460 793Q460 765 437 750T379 734Q344 734 321 749T298 793ZM543 793Q543 825 566 841T625 857Q660 857 683 841T706 793Q706
765 683 750T625 734Q590 734 567 749T543 793Z" />
<glyph unicode="&#xdd;" glyph-name="Yacute" horiz-adv-x="695" d="M554 700H803L795 662Q778 652 758 645T718 633L451 293L403 67Q422 64 440 56T473 38L465 0H157L165 38Q184 47 207 55T253 67L301 292L171 633Q149 637 130 644T96 662L104 700H429L421 662Q407
654 387 646T341 633L428 364L619 633Q598 638 579 645T546 662L554 700ZM571 898Q587 899 607 896T647 888T682 875T704 861V841L457 745L429 769L571 898Z" />
<glyph unicode="&#xde;" glyph-name="Thorn" horiz-adv-x="629" d="M221 63Q247 60 272 52T315 33L309 0H-24L-18 33Q26 54 71 62L193 638Q173 641 153 649T117 667L124 700H437L430 667Q410 656 387 649T343 638L334 593Q355 595 378 596T421 598Q530 598 591
558T652 434Q652 373 628 325T560 242T456 190T324 172Q319 172 308 172T285 172T261 173T245 175L221 63ZM375 533Q355 533 343 532T320 527L258 241Q267 238 285 238T314 237Q354 237 385 251T439 290T474 350T486 426Q486 478 462 505T375 533Z" />
<glyph unicode="&#xdf;" glyph-name="germandbls" horiz-adv-x="661" d="M300 376Q300 421 316 455T360 514T421 556T493 584Q504 635 481 665T410 695Q390 695 368 689T327 668T292 624T269 550L185 43Q175 -28 144 -75T76 -150T0 -193T-62 -212L-73 -178Q-61
-172 -43 -159T-7 -121T26 -62T50 24L113 437H42V476Q62 487 84 495T127 509L134 544Q146 606 178 646T253 710T341 743T429 752Q526 752 575 717T629 622Q630 611 629 600T625 575Q594 570 562 560T503 530T459 484T442 419Q442 395 454 377T485 341T525 305T565
266T595 219T608 159Q608 121 591 90T545 36T474 1T385 -12Q334 -12 299 -3T244 21Q244 52 256 80T292 126L378 45Q394 45 409 51T437 68T456 93T463 125Q463 150 451 169T421 205T382 238T342 274T312 318T300 376Z" />
<glyph unicode="&#xe0;" glyph-name="agrave" horiz-adv-x="563" d="M215 68Q234 68 254 85T293 127T327 183T354 240L391 438Q379 446 369 449T341 453Q301 453 269 427T215 358T182 262T170 156Q170 110 181 89T215 68ZM339 159Q326 127 307 97T262 42T207 3T142
-12Q90 -12 59 26T28 139Q28 217 49 284T110 402T206 481T331 510Q357 510 375 504T415 489Q441 499 471 504T543 509L459 69H529V35Q519 27 503 19T467 5T427 -5T388 -9Q353 -9 338 6T323 37Q323 55 328 84T343 159H339ZM394 589L349 567L183 712V741Q189 747
209 752T251 761T294 764T321 763L394 589Z" />
<glyph unicode="&#xe1;" glyph-name="aacute" horiz-adv-x="563" d="M215 68Q234 68 254 85T293 127T327 183T354 240L391 438Q379 446 369 449T341 453Q301 453 269 427T215 358T182 262T170 156Q170 110 181 89T215 68ZM339 159Q326 127 307 97T262 42T207 3T142
-12Q90 -12 59 26T28 139Q28 217 49 284T110 402T206 481T331 510Q357 510 375 504T415 489Q441 499 471 504T543 509L459 69H529V35Q519 27 503 19T467 5T427 -5T388 -9Q353 -9 338 6T323 37Q323 55 328 84T343 159H339ZM406 763Q414 765 432 765T471 761T507
753T529 741V717L328 562L288 584L406 763Z" />
<glyph unicode="&#xe2;" glyph-name="acircumflex" horiz-adv-x="563" d="M215 68Q234 68 254 85T293 127T327 183T354 240L391 438Q379 446 369 449T341 453Q301 453 269 427T215 358T182 262T170 156Q170 110 181 89T215 68ZM339 159Q326 127 307 97T262 42T207
3T142 -12Q90 -12 59 26T28 139Q28 217 49 284T110 402T206 481T331 510Q357 510 375 504T415 489Q441 499 471 504T543 509L459 69H529V35Q519 27 503 19T467 5T427 -5T388 -9Q353 -9 338 6T323 37Q323 55 328 84T343 159H339ZM256 577L214 602L374 788Q377 791
384 792T400 794Q417 794 426 788L490 603L449 577L374 675L256 577Z" />
<glyph unicode="&#xe3;" glyph-name="atilde" horiz-adv-x="563" d="M215 68Q234 68 254 85T293 127T327 183T354 240L391 438Q379 446 369 449T341 453Q301 453 269 427T215 358T182 262T170 156Q170 110 181 89T215 68ZM339 159Q326 127 307 97T262 42T207 3T142
-12Q90 -12 59 26T28 139Q28 217 49 284T110 402T206 481T331 510Q357 510 375 504T415 489Q441 499 471 504T543 509L459 69H529V35Q519 27 503 19T467 5T427 -5T388 -9Q353 -9 338 6T323 37Q323 55 328 84T343 159H339ZM519 667Q489 633 457 618T402 602Q384
602 368 607T337 619T308 630T278 636Q265 636 252 632T222 616L194 658Q231 696 264 711T321 726Q339 726 354 721T384 710T412 699T442 694Q455 694 468 696T497 709L519 667Z" />
<glyph unicode="&#xe4;" glyph-name="adieresis" horiz-adv-x="563" d="M215 68Q234 68 254 85T293 127T327 183T354 240L391 438Q379 446 369 449T341 453Q301 453 269 427T215 358T182 262T170 156Q170 110 181 89T215 68ZM339 159Q326 127 307 97T262 42T207
3T142 -12Q90 -12 59 26T28 139Q28 217 49 284T110 402T206 481T331 510Q357 510 375 504T415 489Q441 499 471 504T543 509L459 69H529V35Q519 27 503 19T467 5T427 -5T388 -9Q353 -9 338 6T323 37Q323 55 328 84T343 159H339ZM175 659Q175 691 195 710T248 729Q280
729 300 710T321 659Q321 629 301 610T248 591Q215 591 195 610T175 659ZM394 659Q394 691 414 710T466 729Q499 729 519 710T540 659Q540 629 520 610T466 591Q434 591 414 610T394 659Z" />
<glyph unicode="&#xe5;" glyph-name="aring" horiz-adv-x="563" d="M215 68Q234 68 254 85T293 127T327 183T354 240L391 438Q379 446 369 449T341 453Q301 453 269 427T215 358T182 262T170 156Q170 110 181 89T215 68ZM339 159Q326 127 307 97T262 42T207 3T142
-12Q90 -12 59 26T28 139Q28 217 49 284T110 402T206 481T331 510Q357 510 375 504T415 489Q441 499 471 504T543 509L459 69H529V35Q519 27 503 19T467 5T427 -5T388 -9Q353 -9 338 6T323 37Q323 55 328 84T343 159H339ZM259 664Q259 712 295 746T396 780Q440
780 464 757T489 699Q489 676 480 655T454 618T413 593T357 584Q310 584 285 605T259 664ZM334 666Q334 651 342 643T364 634Q382 634 398 650T414 696Q414 730 386 730Q361 730 348 711T334 666Z" />
<glyph unicode="&#xe6;" glyph-name="ae" horiz-adv-x="781" d="M226 68Q244 68 260 76T289 96T313 125T329 157Q328 176 329 197T332 235Q251 245 208 217T165 135Q165 101 182 85T226 68ZM339 98Q315 51 268 20T162 -12Q95 -12 57 24T19 116Q19 206 102 248T343
280Q369 365 362 410T305 455Q278 455 251 445L194 340H150Q137 362 126 393T115 456Q159 482 218 497T336 512Q393 512 426 497T468 461Q497 484 536 498T625 512Q685 512 724 485T763 409Q763 341 696 297T477 242Q475 228 474 214T472 186Q472 129 501 99T575
68Q594 68 613 74T649 90T680 111T706 134L730 109Q719 89 698 68T649 29T587 0T516 -12Q380 -12 340 98H339ZM602 455Q569 455 538 418T484 293Q559 295 604 326T650 407Q650 427 639 441T602 455Z" />
<glyph unicode="&#xe7;" glyph-name="ccedilla" horiz-adv-x="445" d="M412 109Q400 90 383 71T342 36T292 7T233 -10L197 -68Q251 -71 272 -88T295 -139Q295 -170 275 -192T224 -228T154 -250T80 -257V-218Q97 -215 113 -210T142 -198T162 -180T170 -157Q169
-140 159 -129T117 -114L172 -10Q104 -2 66 43T27 166Q27 236 48 299T109 409T203 484T327 512Q372 512 405 503T450 480Q451 469 447 453T433 420T412 389T386 368L325 455Q298 455 271 437T221 384T185 301T171 191Q171 130 196 102T263 73Q283 73 301 79T336
95T365 114T389 134L412 109Z" />
<glyph unicode="&#xe8;" glyph-name="egrave" horiz-adv-x="472" d="M429 109Q418 89 397 68T348 29T286 0T215 -12Q126 -12 77 36T27 174Q27 243 49 304T110 411T204 485T324 512Q384 512 423 485T462 409Q462 341 395 297T176 242Q173 228 172 214T170 186Q170
129 199 99T273 68Q292 68 311 74T347 90T379 111T405 134L429 109ZM301 455Q267 455 236 418T183 293Q257 295 302 326T348 407Q348 427 338 441T301 455ZM386 589L341 567L175 712V741Q181 747 201 752T243 761T286 764T313 763L386 589Z" />
<glyph unicode="&#xe9;" glyph-name="eacute" horiz-adv-x="472" d="M429 109Q418 89 397 68T348 29T286 0T215 -12Q126 -12 77 36T27 174Q27 243 49 304T110 411T204 485T324 512Q384 512 423 485T462 409Q462 341 395 297T176 242Q173 228 172 214T170 186Q170
129 199 99T273 68Q292 68 311 74T347 90T379 111T405 134L429 109ZM301 455Q267 455 236 418T183 293Q257 295 302 326T348 407Q348 427 338 441T301 455ZM373 763Q381 765 399 765T438 761T474 753T496 741V717L295 562L255 584L373 763Z" />
<glyph unicode="&#xea;" glyph-name="ecircumflex" horiz-adv-x="472" d="M429 109Q418 89 397 68T348 29T286 0T215 -12Q126 -12 77 36T27 174Q27 243 49 304T110 411T204 485T324 512Q384 512 423 485T462 409Q462 341 395 297T176 242Q173 228 172 214T170
186Q170 129 199 99T273 68Q292 68 311 74T347 90T379 111T405 134L429 109ZM301 455Q267 455 236 418T183 293Q257 295 302 326T348 407Q348 427 338 441T301 455ZM223 577L181 602L341 788Q344 791 351 792T367 794Q384 794 393 788L457 603L416 577L341 675L223
577Z" />
<glyph unicode="&#xeb;" glyph-name="edieresis" horiz-adv-x="472" d="M429 109Q418 89 397 68T348 29T286 0T215 -12Q126 -12 77 36T27 174Q27 243 49 304T110 411T204 485T324 512Q384 512 423 485T462 409Q462 341 395 297T176 242Q173 228 172 214T170 186Q170
129 199 99T273 68Q292 68 311 74T347 90T379 111T405 134L429 109ZM301 455Q267 455 236 418T183 293Q257 295 302 326T348 407Q348 427 338 441T301 455ZM395 659Q395 691 415 710T468 729Q500 729 520 710T541 659Q541 629 521 610T468 591Q435 591 415 610T395
659ZM614 659Q614 691 634 710T686 729Q719 729 739 710T760 659Q760 629 740 610T686 591Q654 591 634 610T614 659Z" />
<glyph unicode="&#xec;" glyph-name="igrave" horiz-adv-x="304" d="M59 442V476Q74 482 99 488T152 500T207 508T256 512L274 500L184 69H254V35Q241 26 224 18T187 4T147 -5T109 -9Q71 -9 57 5T42 37Q42 57 45 76T53 118L121 428L59 442ZM519 589L474 567L308
712V741Q314 747 334 752T376 761T419 764T446 763L519 589Z" />
<glyph unicode="&#xed;" glyph-name="iacute" horiz-adv-x="304" d="M59 442V476Q74 482 99 488T152 500T207 508T256 512L274 500L184 69H254V35Q241 26 224 18T187 4T147 -5T109 -9Q71 -9 57 5T42 37Q42 57 45 76T53 118L121 428L59 442ZM521 763Q529 765 547
765T586 761T622 753T644 741V717L443 562L403 584L521 763Z" />
<glyph unicode="&#xee;" glyph-name="icircumflex" horiz-adv-x="304" d="M59 442V476Q74 482 99 488T152 500T207 508T256 512L274 500L184 69H254V35Q241 26 224 18T187 4T147 -5T109 -9Q71 -9 57 5T42 37Q42 57 45 76T53 118L121 428L59 442ZM379 577L337 602L497
788Q500 791 507 792T523 794Q540 794 549 788L613 603L572 577L497 675L379 577Z" />
<glyph unicode="&#xef;" glyph-name="idieresis" horiz-adv-x="304" d="M59 442V476Q74 482 99 488T152 500T207 508T256 512L274 500L184 69H254V35Q241 26 224 18T187 4T147 -5T109 -9Q71 -9 57 5T42 37Q42 57 45 76T53 118L121 428L59 442ZM35 659Q35 691 55
710T108 729Q140 729 160 710T181 659Q181 629 161 610T108 591Q75 591 55 610T35 659ZM254 659Q254 691 274 710T326 729Q359 729 379 710T400 659Q400 629 380 610T326 591Q294 591 274 610T254 659Z" />
<glyph unicode="&#xf0;" glyph-name="eth" horiz-adv-x="530" d="M240 614L334 654Q315 679 291 696T238 722V750H365Q382 744 401 731T441 696L536 736L559 683L476 647Q496 613 508 568T520 462Q520 362 497 276T430 125T326 25T191 -12Q154 -12 123 0T69 36T34
93T21 171Q21 243 44 304T108 410T201 480T312 506Q332 506 352 502T383 490Q383 522 378 550T362 601L264 560L240 614ZM315 449Q274 449 245 421T198 350T172 254T163 154Q163 132 166 112T175 77T194 54T224 45Q254 45 281 75T329 158T363 281T378 431Q363 441
347 445T315 449Z" />
<glyph unicode="&#xf1;" glyph-name="ntilde" horiz-adv-x="588" d="M384 285Q391 316 396 340T402 390Q402 407 395 419T368 432Q349 432 329 418T289 382T253 334T226 286L166 0H28L114 429L55 442L57 476Q71 483 93 489T141 501T194 509T247 512L267 500L236
354H241Q259 387 283 416T334 466T391 499T452 512Q494 512 518 485T542 413Q542 390 537 361T525 302L470 69H542V35Q532 27 516 19T480 5T439 -5T399 -9Q365 -9 350 4T334 34Q334 55 339 79T349 125L384 285ZM527 667Q497 633 465 618T410 602Q392 602 376 607T345
619T316 630T286 636Q273 636 260 632T230 616L202 658Q239 696 272 711T329 726Q347 726 362 721T392 710T420 699T450 694Q463 694 476 696T505 709L527 667Z" />
<glyph unicode="&#xf2;" glyph-name="ograve" horiz-adv-x="549" d="M29 192Q29 246 47 302T102 405T195 482T328 512Q418 512 469 463T520 317Q520 251 500 192T442 87T350 15T225 -12Q183 -12 147 0T85 38T44 102T29 192ZM311 455Q271 455 245 425T202 350T178
251T171 153Q171 102 190 74T244 45Q273 45 297 69T340 135T368 230T378 342Q378 397 361 426T311 455ZM390 589L345 567L179 712V741Q185 747 205 752T247 761T290 764T317 763L390 589Z" />
<glyph unicode="&#xf3;" glyph-name="oacute" horiz-adv-x="549" d="M29 192Q29 246 47 302T102 405T195 482T328 512Q418 512 469 463T520 317Q520 251 500 192T442 87T350 15T225 -12Q183 -12 147 0T85 38T44 102T29 192ZM311 455Q271 455 245 425T202 350T178
251T171 153Q171 102 190 74T244 45Q273 45 297 69T340 135T368 230T378 342Q378 397 361 426T311 455ZM387 763Q395 765 413 765T452 761T488 753T510 741V717L309 562L269 584L387 763Z" />
<glyph unicode="&#xf4;" glyph-name="ocircumflex" horiz-adv-x="549" d="M29 192Q29 246 47 302T102 405T195 482T328 512Q418 512 469 463T520 317Q520 251 500 192T442 87T350 15T225 -12Q183 -12 147 0T85 38T44 102T29 192ZM311 455Q271 455 245 425T202
350T178 251T171 153Q171 102 190 74T244 45Q273 45 297 69T340 135T368 230T378 342Q378 397 361 426T311 455ZM240 577L198 602L358 788Q361 791 368 792T384 794Q401 794 410 788L474 603L433 577L358 675L240 577Z" />
<glyph unicode="&#xf5;" glyph-name="otilde" horiz-adv-x="549" d="M29 192Q29 246 47 302T102 405T195 482T328 512Q418 512 469 463T520 317Q520 251 500 192T442 87T350 15T225 -12Q183 -12 147 0T85 38T44 102T29 192ZM311 455Q271 455 245 425T202 350T178
251T171 153Q171 102 190 74T244 45Q273 45 297 69T340 135T368 230T378 342Q378 397 361 426T311 455ZM514 667Q484 633 452 618T397 602Q379 602 363 607T332 619T303 630T273 636Q260 636 247 632T217 616L189 658Q226 696 259 711T316 726Q334 726 349 721T379
710T407 699T437 694Q450 694 463 696T492 709L514 667Z" />
<glyph unicode="&#xf6;" glyph-name="odieresis" horiz-adv-x="549" d="M29 192Q29 246 47 302T102 405T195 482T328 512Q418 512 469 463T520 317Q520 251 500 192T442 87T350 15T225 -12Q183 -12 147 0T85 38T44 102T29 192ZM311 455Q271 455 245 425T202 350T178
251T171 153Q171 102 190 74T244 45Q273 45 297 69T340 135T368 230T378 342Q378 397 361 426T311 455ZM407 659Q407 691 427 710T480 729Q512 729 532 710T553 659Q553 629 533 610T480 591Q447 591 427 610T407 659ZM626 659Q626 691 646 710T698 729Q731 729
751 710T772 659Q772 629 752 610T698 591Q666 591 646 610T626 659Z" />
<glyph unicode="&#xf7;" glyph-name="divide" horiz-adv-x="560" d="M55 386H505V306H55V386ZM195 536Q195 572 218 594T279 616Q317 616 341 594T365 536Q365 500 341 479T279 457Q241 457 218 478T195 536ZM195 155Q195 191 218 213T279 235Q317 235 341 213T365
155Q365 119 341 98T279 76Q241 76 218 97T195 155Z" />
<glyph unicode="&#xf8;" glyph-name="oslash" horiz-adv-x="549" d="M29 192Q29 246 47 302T102 405T195 482T328 512Q397 512 444 480L510 553L558 512L489 436Q520 388 520 317Q520 251 500 192T442 87T350 15T225 -12Q153 -12 106 22L33 -58L-13 -16L62 66Q29
116 29 192ZM244 45Q269 45 290 64T328 114T354 187T369 274Q371 284 372 294T374 315L180 101Q195 45 244 45ZM311 455Q276 455 252 433T213 377T189 302T178 223Q176 213 176 204T174 185L369 400Q354 455 311 455Z" />
<glyph unicode="&#xf9;" glyph-name="ugrave" horiz-adv-x="585" d="M546 69V35Q536 27 520 19T484 5T443 -5T400 -9Q364 -9 351 5T337 36Q337 54 341 86T357 160H353Q340 136 320 106T273 50T211 6T134 -12Q93 -12 68 12T42 82Q42 104 48 145T64 234T85 334T106
429L47 442V476Q63 482 87 488T137 499T190 507T239 512L261 500Q245 425 229 358T198 215Q193 191 188 162T182 104Q182 86 191 77T215 68Q240 68 264 87T309 134T345 191T368 239L420 500H555L476 69H546ZM398 589L353 567L187 712V741Q193 747 213 752T255 761T298
764T325 763L398 589Z" />
<glyph unicode="&#xfa;" glyph-name="uacute" horiz-adv-x="585" d="M546 69V35Q536 27 520 19T484 5T443 -5T400 -9Q364 -9 351 5T337 36Q337 54 341 86T357 160H353Q340 136 320 106T273 50T211 6T134 -12Q93 -12 68 12T42 82Q42 104 48 145T64 234T85 334T106
429L47 442V476Q63 482 87 488T137 499T190 507T239 512L261 500Q245 425 229 358T198 215Q193 191 188 162T182 104Q182 86 191 77T215 68Q240 68 264 87T309 134T345 191T368 239L420 500H555L476 69H546ZM405 763Q413 765 431 765T470 761T506 753T528 741V717L327
562L287 584L405 763Z" />
<glyph unicode="&#xfb;" glyph-name="ucircumflex" horiz-adv-x="585" d="M546 69V35Q536 27 520 19T484 5T443 -5T400 -9Q364 -9 351 5T337 36Q337 54 341 86T357 160H353Q340 136 320 106T273 50T211 6T134 -12Q93 -12 68 12T42 82Q42 104 48 145T64 234T85
334T106 429L47 442V476Q63 482 87 488T137 499T190 507T239 512L261 500Q245 425 229 358T198 215Q193 191 188 162T182 104Q182 86 191 77T215 68Q240 68 264 87T309 134T345 191T368 239L420 500H555L476 69H546ZM255 577L213 602L373 788Q376 791 383 792T399
794Q416 794 425 788L489 603L448 577L373 675L255 577Z" />
<glyph unicode="&#xfc;" glyph-name="udieresis" horiz-adv-x="585" d="M546 69V35Q536 27 520 19T484 5T443 -5T400 -9Q364 -9 351 5T337 36Q337 54 341 86T357 160H353Q340 136 320 106T273 50T211 6T134 -12Q93 -12 68 12T42 82Q42 104 48 145T64 234T85 334T106
429L47 442V476Q63 482 87 488T137 499T190 507T239 512L261 500Q245 425 229 358T198 215Q193 191 188 162T182 104Q182 86 191 77T215 68Q240 68 264 87T309 134T345 191T368 239L420 500H555L476 69H546ZM426 659Q426 691 446 710T499 729Q531 729 551 710T572
659Q572 629 552 610T499 591Q466 591 446 610T426 659ZM645 659Q645 691 665 710T717 729Q750 729 770 710T791 659Q791 629 771 610T717 591Q685 591 665 610T645 659Z" />
<glyph unicode="&#xfd;" glyph-name="yacute" horiz-adv-x="487" d="M72 429L8 437V471Q13 475 28 481T63 495T107 507T152 512Q179 512 194 499T214 463L291 160L296 100H298L319 159Q339 207 358 262T388 366Q388 377 385 396T377 436T369 474T363 498Q377 504
398 507T440 510Q461 510 479 507T508 498Q482 379 429 251T305 0Q247 -103 190 -156T57 -209Q36 -209 19 -204T-13 -189Q-16 -175 -11 -156T3 -119T26 -86T53 -66L128 -119Q135 -114 146 -105T168 -81T190 -46T210 0L72 429ZM376 763Q384 765 402 765T441 761T477
753T499 741V717L298 562L258 584L376 763Z" />
<glyph unicode="&#xfe;" glyph-name="thorn" horiz-adv-x="572" d="M135 -133Q152 -136 170 -144T202 -162V-200H-4L-17 -187L164 678L106 692V726Q122 733 147 739T199 751T252 759T298 762L318 750L236 362H240Q256 393 276 420T320 468T371 500T430 512Q481
512 514 472T548 360Q548 279 525 211T463 93T369 16T251 -12Q222 -12 204 -8T165 8L135 -133ZM353 432Q332 432 313 417T276 378T245 328T222 279L178 62Q191 53 203 49T240 45Q274 45 304 72T356 142T391 239T404 346Q404 388 391 410T353 432Z" />
<glyph unicode="&#xff;" glyph-name="ydieresis" horiz-adv-x="487" d="M72 429L8 437V471Q13 475 28 481T63 495T107 507T152 512Q179 512 194 499T214 463L291 160L296 100H298L319 159Q339 207 358 262T388 366Q388 377 385 396T377 436T369 474T363 498Q377
504 398 507T440 510Q461 510 479 507T508 498Q482 379 429 251T305 0Q247 -103 190 -156T57 -209Q36 -209 19 -204T-13 -189Q-16 -175 -11 -156T3 -119T26 -86T53 -66L128 -119Q135 -114 146 -105T168 -81T190 -46T210 0L72 429ZM384 659Q384 691 404 710T457
729Q489 729 509 710T530 659Q530 629 510 610T457 591Q424 591 404 610T384 659ZM603 659Q603 691 623 710T675 729Q708 729 728 710T749 659Q749 629 729 610T675 591Q643 591 623 610T603 659Z" />
<glyph unicode="&#x2013;" glyph-name="endash" horiz-adv-x="621" d="M87 327H569L549 237H67L87 327Z" />
<glyph unicode="&#x2014;" glyph-name="emdash" horiz-adv-x="881" d="M87 327H829L809 237H67L87 327Z" />
<glyph unicode="&#x2018;" glyph-name="quoteleft" horiz-adv-x="303" d="M345 794Q308 783 283 757T253 704Q261 688 279 679T315 663Q316 645 308 627T287 593T259 566T230 552Q195 554 169 574T142 637Q142 673 159 706T204 766T265 811T331 837L345 794Z" />
<glyph unicode="&#x2019;" glyph-name="quoteright" horiz-adv-x="303" d="M121 457Q158 468 183 494T213 547Q205 563 187 572T151 588Q150 606 158 624T179 658T207 685T236 699Q271 697 297 677T324 614Q324 578 307 545T262 485T201 440T135 414L121 457Z" />
<glyph unicode="&#x201a;" glyph-name="quotesinglbase" horiz-adv-x="308" d="M4 -106Q41 -95 66 -69T96 -16Q88 0 70 9T34 25Q33 43 41 61T62 95T90 122T119 136Q154 134 180 114T207 51Q207 15 190 -18T145 -78T84 -123T18 -149L4 -106Z" />
<glyph unicode="&#x201c;" glyph-name="quotedblleft" horiz-adv-x="508" d="M550 794Q513 783 488 757T458 704Q466 688 484 679T520 663Q521 645 513 627T492 593T464 566T435 552Q400 554 374 574T347 637Q347 673 364 706T409 766T470 811T536 837L550 794ZM345
794Q308 783 283 757T253 704Q261 688 279 679T315 663Q316 645 308 627T287 593T259 566T230 552Q195 554 169 574T142 637Q142 673 159 706T204 766T265 811T331 837L345 794Z" />
<glyph unicode="&#x201d;" glyph-name="quotedblright" horiz-adv-x="508" d="M326 457Q363 468 388 494T418 547Q410 563 392 572T356 588Q355 606 363 624T384 658T412 685T441 699Q476 697 502 677T529 614Q529 578 512 545T467 485T406 440T340 414L326 457ZM121
457Q158 468 183 494T213 547Q205 563 187 572T151 588Q150 606 158 624T179 658T207 685T236 699Q271 697 297 677T324 614Q324 578 307 545T262 485T201 440T135 414L121 457Z" />
<glyph unicode="&#x201e;" glyph-name="quotedblbase" horiz-adv-x="513" d="M209 -106Q246 -95 271 -69T301 -16Q293 0 275 9T239 25Q238 43 246 61T267 95T295 122T324 136Q359 134 385 114T412 51Q412 15 395 -18T350 -78T289 -123T223 -149L209 -106ZM4 -106Q41
-95 66 -69T96 -16Q88 0 70 9T34 25Q33 43 41 61T62 95T90 122T119 136Q154 134 180 114T207 51Q207 15 190 -18T145 -78T84 -123T18 -149L4 -106Z" />
<glyph unicode="&#x2022;" glyph-name="bullet" horiz-adv-x="482" d="M105 311Q105 345 117 374T150 423T199 454T259 466Q292 466 320 456T370 425T403 376T415 311Q415 275 403 246T370 197T321 167T259 156Q227 156 199 166T150 197T117 246T105 311Z" />
<glyph unicode="&#x2039;" glyph-name="guilsinglleft" horiz-adv-x="309" d="M38 259L289 482L319 445L172 255L247 77L203 44L38 259Z" />
<glyph unicode="&#x203a;" glyph-name="guilsinglright" horiz-adv-x="309" d="M55 44L26 82L176 274L104 450L148 482L309 266L55 44Z" />
</font>
</defs>
</svg>
