<?xml version="1.0" standalone="no"?>
<!DOCTYPE svg PUBLIC "-//W3C//DTD SVG 1.1//EN" "http://www.w3.org/Graphics/SVG/1.1/DTD/svg11.dtd">
<svg xmlns="http://www.w3.org/2000/svg">
<defs >
<font id="AmaticSC" horiz-adv-x="689" ><font-face
    font-family="Amatic SC"
    units-per-em="2048"
    panose-1="0 0 5 0 0 0 0 0 0 0"
    ascent="2081"
    descent="-501"
    alphabetic="0" />
<glyph unicode=" " glyph-name="space" horiz-adv-x="350" />
<glyph unicode="!" glyph-name="exclam" horiz-adv-x="520" d="M253 326L252 330V821Q252 881 255 996L257 1171Q257 1235 250 1334Q242 1448 242 1493Q242 1513 263 1530T306 1548Q332 1548 332 1522Q332 1359 311 1033Q289 715 289 543Q289 522 290 502Q291
481 291 453Q291 370 275 332L281 322H254L253 326ZM264 -17T254 -16Q245 -15 228 -4Q212 6 195 39Q195 59 216 80T257 102Q286 102 302 81T318 27Q318 -24 267 -27Q264 -17 254 -16Z" />
<glyph unicode="&quot;" glyph-name="quotedbl" horiz-adv-x="680" d="M208 1257T203 1262Q207 1287 207 1384V1401Q207 1575 229 1575Q250 1575 263 1552T277 1497Q277 1461 266 1403T239 1301T211 1257Q208 1257 203 1262ZM442 1255T440 1257Q414 1298 414 1409V1455Q414
1473 415 1496T420 1529Q426 1561 438 1570Q446 1575 455 1575Q466 1575 474 1552Q481 1530 481 1497Q481 1442 469 1349T447 1255Q442 1255 440 1257Z" />
<glyph unicode="#" glyph-name="numbersign" horiz-adv-x="820" d="M188 -57T177 -51T165 -37Q165 45 190 266T240 600Q222 600 197 596Q172 592 152 592Q91 592 91 635Q91 655 160 655H203Q230 655 244 657Q250 669 265 805T281 971L248 969L212 967Q133 967
132 1004L148 1022H191Q266 1022 285 1028Q288 1055 304 1162Q332 1346 332 1456Q332 1468 331 1477Q330 1486 330 1497Q330 1542 361 1542L375 1513Q375 1434 357 1276Q339 1119 339 1038Q369 1030 427 1030H453Q523 1030 562 1044Q624 1344 638 1526Q651 1542
668 1542Q685 1542 693 1522Q691 1441 656 1290Q619 1138 619 1055L623 1044H699L726 1016Q713 983 699 983L656 985L613 987Q582 867 582 678L593 674L611 675Q620 676 631 676Q689 676 689 637Q689 624 656 610H576Q571 554 546 325Q519 94 519 -31L496 -57Q459
-57 459 -37Q459 2 473 91Q486 173 486 219Q486 280 506 411Q525 534 525 602Q470 608 359 608Q311 608 287 600Q279 548 261 349Q244 159 230 56Q215 -57 199 -57Q188 -57 177 -51ZM455 662T521 670L542 788Q553 869 556 906Q558 944 558 963Q558 983 400 983Q354
983 332 971Q322 948 309 836T296 674L297 670L298 666Q319 662 332 662Q455 662 521 670Z" />
<glyph unicode="$" glyph-name="dollar" horiz-adv-x="521" d="M277 -18T272 -4T266 23L275 29V164L268 170Q195 170 166 166Q94 216 94 268Q94 289 113 289H117Q137 277 144 255Q151 229 164 217T213 205Q245 205 271 213Q271 285 253 504T217 881Q215 894 194
939L179 970Q175 978 158 1015T127 1092T101 1169Q80 1243 80 1300Q80 1353 100 1431Q110 1471 131 1496T178 1522Q178 1540 174 1565Q170 1590 170 1610Q170 1663 199 1663L215 1645Q213 1627 213 1599Q213 1524 246 1524Q285 1524 324 1479Q375 1428 375 1417Q375
1404 367 1394T350 1391Q337 1404 321 1430Q303 1458 284 1470T230 1487L223 1470Q223 1438 227 1390Q230 1336 230 1309Q230 1240 247 1070T277 870Q287 841 332 753Q441 530 451 403Q451 358 443 328T414 272Q394 247 376 232T311 184Q311 168 316 126Q320 93
320 68Q320 -18 285 -18Q277 -18 272 -4ZM209 1070T193 1236Q177 1394 174 1473Q156 1470 142 1403T127 1288Q127 1160 205 989Q205 984 211 981Q209 1070 193 1236ZM349 255T377 299T406 387Q406 422 384 501T330 660T273 776Q273 692 290 508Q307 324 307 240L309
236Q349 255 377 299Z" />
<glyph unicode="%" glyph-name="percent" horiz-adv-x="1106" d="M80 723T80 1180V1188Q80 1219 88 1274T112 1393Q128 1462 158 1507T226 1552H230Q330 1552 367 1477Q430 1369 430 1159L426 1153L428 1106L430 1059Q430 1013 428 981T416 902Q405 847 387 812T335
750Q301 723 252 723Q80 723 80 1180ZM363 8T363 31Q363 74 373 128T406 274L434 387Q575 1007 690 1448Q690 1448 694 1461Q696 1470 707 1506Q713 1520 716 1525Q720 1532 725 1532Q738 1532 747 1525T756 1505Q756 1498 747 1456L727 1369L715 1317L484 299L443
121L437 93Q431 60 420 29Q408 -4 383 -6Q363 8 363 31ZM291 776T321 809T364 899Q375 952 379 990T383 1071Q383 1111 375 1199Q367 1287 367 1327L363 1346Q363 1386 346 1421T299 1476T232 1497Q211 1497 195 1475T169 1414Q153 1348 145 1274L140 1231Q140
1221 136 1205Q131 1185 131 1178L133 1123L135 1065Q135 1005 154 906Q165 848 189 812T248 776Q291 776 321 809ZM784 27T754 67T707 169Q692 225 684 273T676 350V358Q676 815 848 815Q893 815 929 790T984 725Q1000 691 1010 640T1024 550Q1026 504 1026 479L1024
432L1022 385L1026 379Q1026 319 1018 267T991 158Q970 97 926 62T821 27Q784 27 754 67ZM853 94T876 104T915 132Q943 165 958 227Q970 278 972 345Q973 362 973 403V469Q973 506 971 533T962 600Q953 649 940 680T903 734Q878 758 842 758Q809 758 785 723T750
632Q731 534 731 475L729 420L727 367Q727 356 731 340Q735 323 735 313L743 266Q751 212 758 183T782 125Q800 94 826 94Q853 94 876 104Z" />
<glyph unicode="&amp;" glyph-name="ampersand" horiz-adv-x="920" d="M281 -21T219 27T124 151Q91 221 91 292Q91 342 93 376T102 447L109 488L113 509Q116 532 131 572L150 627Q154 641 177 688L204 744Q214 764 218 771L238 810L273 878Q273 932 266 1022Q259
1110 259 1165V1335Q259 1397 286 1439Q302 1464 325 1464Q357 1464 393 1450T455 1411T480 1359Q480 1339 477 1298Q474 1258 474 1237Q474 1222 476 1212Q456 1159 437 1100Q436 1097 430 1080Q421 1052 406 1017T376 954Q369 941 355 922Q338 898 330 880T321
845Q321 804 339 715T390 516T461 310Q521 157 568 143Q646 301 646 540Q646 558 641 566Q635 573 628 572H624Q606 572 597 585L599 589L595 602L601 612Q640 612 721 620T822 637Q836 635 846 627T857 606Q857 592 824 583T755 573Q742 573 731 574Q720 575 706
575H693Q693 411 675 310T605 108Q675 26 763 26Q776 26 801 29Q827 32 839 32L861 14Q861 -19 769 -19Q738 -19 703 -7T641 23Q625 32 583 63Q513 15 466 -3T351 -21Q281 -21 219 27ZM336 970T365 1037T414 1179T435 1290Q435 1413 359 1413Q345 1413 326 1384T306
1339L308 1085L312 1075Q308 1064 308 1040Q308 1024 311 995Q314 967 314 950Q336 970 365 1037ZM395 18T436 30T509 60T542 100Q533 115 501 147Q440 209 388 341T308 610Q304 632 300 669L297 693Q289 759 280 786Q211 697 174 576T136 329Q136 213 188 121Q215
73 261 46T366 18Q395 18 436 30ZM763 389Q765 389 765 387L763 389Z" />
<glyph unicode="&apos;" glyph-name="quotesingle" horiz-adv-x="480" d="M216 1257T211 1262Q215 1287 215 1384V1401Q215 1575 237 1575Q258 1575 271 1552T285 1497Q285 1461 274 1403T247 1301T219 1257Q216 1257 211 1262Z" />
<glyph unicode="(" glyph-name="parenleft" horiz-adv-x="415" d="M352 -340T344 -335T328 -318Q325 -314 319 -305T306 -276Q299 -261 299 -258Q238 -122 193 70T124 474T100 879Q100 958 127 1130T200 1457Q250 1625 299 1626L319 1610Q318 1582 307 1552T275
1480Q256 1443 248 1423Q156 1165 156 879Q156 231 311 -139Q318 -157 353 -218Q386 -280 395 -315Q380 -340 364 -340Q352 -340 344 -335Z" />
<glyph unicode=")" glyph-name="parenright" horiz-adv-x="435" d="M38 -279T29 -272T20 -254Q20 -246 35 -216L72 -145Q89 -114 104 -78Q183 130 231 373T280 817Q280 1165 188 1423Q181 1444 161 1481Q139 1521 128 1551T116 1610L136 1626Q178 1625 218 1516Q279
1347 321 994Q335 863 335 817Q335 585 272 319Q236 163 187 -8Q153 -125 116 -203Q79 -279 50 -279Q38 -279 29 -272Z" />
<glyph unicode="*" glyph-name="asterisk" horiz-adv-x="880" d="M198 745Q198 768 275 920Q353 1074 360 1118Q349 1122 338 1122H106Q97 1122 90 1121Q83 1120 73 1120Q51 1120 51 1153Q51 1163 57 1170T73 1178Q151 1178 212 1177Q273 1176 350 1176L354 1180Q329
1226 267 1358T205 1503Q205 1514 214 1520T237 1526Q251 1526 281 1455Q305 1395 332 1332Q335 1322 343 1304Q374 1227 395 1212Q406 1232 433 1316Q464 1410 491 1474Q521 1544 542 1544Q553 1544 564 1534T575 1513Q575 1501 549 1458Q526 1413 494 1314Q465
1224 444 1178L446 1176Q507 1167 569 1167Q599 1167 657 1173Q722 1178 745 1178Q760 1178 772 1166T784 1139Q784 1110 737 1110Q706 1110 621 1115Q536 1120 504 1120H479Q451 1120 440 1114Q442 1085 520 933Q598 777 598 754Q598 742 589 734T569 725Q549
725 538 742T520 794L512 831Q457 962 401 1065Q392 1053 377 1012L297 823L285 790Q266 740 254 719L227 715L198 745ZM438 1118V1120Q436 1120 436 1118H438Z" />
<glyph unicode="+" glyph-name="plus" horiz-adv-x="820" d="M392 356T377 365T362 385V449L364 501L366 555Q366 581 365 589T358 608Q352 618 339 620T297 623Q285 623 252 618Q222 612 207 612Q147 612 147 655Q147 671 151 677T170 684Q188 684 224 681Q260
678 278 678Q362 678 362 694Q362 720 357 797Q352 872 352 899Q352 924 361 934T393 944Q430 944 430 909L422 889Q422 856 426 808Q430 760 430 727Q430 699 443 689T487 678Q508 678 549 681Q589 684 610 684Q674 684 674 647Q674 614 639 614Q614 614 578 618Q536
621 514 621H504Q472 621 457 617T436 598T430 553Q430 516 439 466Q448 417 448 389Q448 374 436 365T405 356Q392 356 377 365Z" />
<glyph unicode="," glyph-name="comma" horiz-adv-x="408" d="M104 -179T97 -173T90 -156Q90 -149 93 -143Q125 -115 149 -91Q183 -57 194 -29Q200 -13 200 6Q168 13 155 34T141 96Q141 128 163 144T218 160Q308 160 308 78Q308 44 285 -3T225 -95T144 -170Q129
-179 116 -179Q104 -179 97 -173Z" />
<glyph unicode="-" glyph-name="hyphen" horiz-adv-x="545" d="M97 680T84 690T70 715Q70 728 133 742T280 765T420 774Q436 774 450 764T465 739Q465 726 403 712T255 689T113 680Q97 680 84 690Z" />
<glyph unicode="." glyph-name="period" horiz-adv-x="302" d="M127 -8T114 7T100 41Q100 61 116 78T153 96Q171 96 186 79T202 43Q202 -8 145 -8Q127 -8 114 7Z" />
<glyph unicode="/" glyph-name="slash" horiz-adv-x="680" d="M155 8T155 31Q155 74 165 128T199 273Q219 349 227 387Q368 1007 483 1448Q483 1448 487 1461Q489 1470 500 1506Q506 1520 509 1525Q513 1532 518 1532Q548 1532 548 1505Q548 1498 539 1456L519
1369L507 1317L276 299L235 121L229 93Q223 60 212 29Q200 -4 175 -6Q155 8 155 31Z" />
<glyph unicode="0" glyph-name="zero" horiz-adv-x="658" d="M334 -14T309 -4T276 12Q175 89 145 393Q131 539 126 681T120 1036Q120 1127 121 1200Q122 1273 122 1364Q122 1389 123 1406T128 1449Q131 1472 139 1485T166 1515Q194 1542 268 1542Q452 1542 492
1215Q538 878 538 492Q538 437 537 390T532 291Q528 234 520 195T498 113Q483 71 463 46T412 3Q380 -14 342 -14Q334 -14 309 -4ZM389 33T411 58T446 129Q474 227 480 322Q485 416 485 474Q485 540 473 760Q461 979 461 1041Q461 1070 460 1089Q453 1212 433 1285Q415
1349 394 1395T339 1468Q302 1498 253 1498Q204 1498 185 1474T166 1396Q166 1379 167 1364V1329Q167 1280 172 1138Q176 1025 176 946V746Q176 643 188 492Q201 330 241 184Q260 114 291 74T360 33Q389 33 411 58Z" />
<glyph unicode="1" glyph-name="one" horiz-adv-x="563" d="M106 6T99 14T91 46Q91 52 96 58T107 65H165L224 64Q247 64 257 66T271 77T275 104Q275 573 229 1284L230 1349L231 1415Q231 1449 225 1462T201 1479T137 1483L114 1481L90 1479Q55 1479 55 1501Q55
1522 97 1526Q134 1530 258 1530Q272 1530 281 1520T291 1497V1434Q291 1384 296 1241Q301 1098 301 1047Q301 1036 312 814L315 757Q328 501 328 360V334L333 222Q337 135 337 102Q337 94 336 87L334 72L343 66Q358 66 389 69Q421 72 435 72Q498 72 498 43Q498
14 453 14Q397 14 288 10Q179 6 123 6Q106 6 99 14Z" />
<glyph unicode="2" glyph-name="two" horiz-adv-x="693" d="M150 -16T135 -5T120 25L230 274Q350 537 407 768T464 1249Q464 1544 337 1544Q310 1532 293 1502T272 1440Q264 1366 237 1366Q225 1366 219 1372T211 1387Q210 1392 210 1407Q210 1443 221 1482T258
1552Q284 1585 318 1585Q374 1585 417 1556T486 1476T513 1366L509 1362Q509 1338 512 1287Q515 1236 515 1212Q515 1103 494 953T436 658T359 420L300 286L254 184Q222 115 206 72Q201 55 201 49Q201 39 212 39Q324 60 458 61Q488 61 488 29Q488 2 470 2Q425 1
324 -7Q224 -16 171 -16Q150 -16 135 -5Z" />
<glyph unicode="3" glyph-name="three" horiz-adv-x="680" d="M291 -2T251 19T210 74L226 84Q240 83 254 76T288 55Q304 42 314 37Q470 37 470 297Q470 380 469 422T460 527Q453 594 439 643T397 748Q368 803 330 844Q325 844 321 843Q316 842 310 842Q289 842
271 850V858L261 868Q263 876 283 899Q289 906 308 928T343 975T372 1031Q392 1082 392 1130Q392 1212 381 1293Q373 1352 360 1392T321 1461Q296 1491 261 1491Q230 1491 207 1474T174 1433Q152 1374 126 1374Q114 1374 103 1382T91 1403Q125 1472 165 1506T267
1540Q293 1540 318 1527T359 1491L365 1489Q447 1371 447 1102Q447 1051 410 987Q401 981 377 940Q350 897 343 889Q423 857 455 765Q469 724 477 688T495 588Q502 538 509 508Q521 454 523 438T525 367Q525 303 519 237Q515 195 508 166T487 103Q473 69 454 48T405
12Q374 -2 337 -2Q291 -2 251 19Z" />
<glyph unicode="4" glyph-name="four" horiz-adv-x="613" d="M359 -12V61L357 66Q365 101 365 139Q365 178 358 244Q351 308 351 348L353 394L355 440Q355 520 334 530Q313 530 274 524Q235 518 214 518Q194 518 187 521Q178 525 170 532Q163 537 158 541V547Q158
554 169 612L150 653Q150 672 160 703Q169 736 169 754Q169 827 179 954Q189 1081 189 1155V1481Q189 1491 185 1507Q181 1522 181 1532Q181 1559 205 1559Q220 1559 231 1552T242 1530Q242 1496 238 1448Q234 1400 234 1366Q234 1331 240 1296L236 1290Q240 1258
240 1233Q240 1148 228 975Q216 803 216 717Q216 705 223 687Q230 669 230 657Q230 645 223 630Q216 613 216 602Q216 563 236 563Q256 563 291 569T339 582Q339 657 324 1024Q322 1061 316 1104Q308 1163 308 1188Q308 1199 319 1205T347 1212L365 1190Q365 1142
371 1046Q377 949 377 901Q377 825 383 708T398 582Q412 582 435 586Q458 590 474 590Q513 590 513 567Q513 554 501 548T470 541Q461 541 456 542Q432 544 415 534T398 498Q398 429 404 298T416 152Q414 142 414 117Q414 83 423 68L416 43L423 29V0L390 -25L359
-12Z" />
<glyph unicode="5" glyph-name="five" horiz-adv-x="647" d="M255 -20T255 12Q255 35 294 35Q302 35 321 27Q338 18 347 18Q377 18 403 55T446 148Q460 201 468 249T476 328Q476 479 454 675Q441 790 408 873Q375 952 327 952H280L271 946Q269 946 268 947Q267
948 265 948Q259 948 242 939Q226 930 220 930Q201 930 190 939T175 962Q173 970 171 996Q169 1026 169 1026Q179 1082 179 1130Q179 1202 156 1351Q131 1500 130 1565L151 1585L308 1587H312Q370 1587 370 1559L347 1540H304L298 1536L216 1546L202 1542L194 1544Q194
1500 201 1434L208 1350Q220 1179 235 1006L232 1004Q232 1004 268 999Q313 994 354 986T409 967Q446 939 476 832T517 610Q527 511 527 438Q527 357 523 296Q520 251 515 220T498 148Q486 108 470 80T429 24Q403 -4 372 -20H356Q255 -20 255 12ZM194 1337Q192
1337 192 1335L194 1337Z" />
<glyph unicode="6" glyph-name="six" horiz-adv-x="642" d="M313 -29T284 -8T239 49Q225 81 215 127T203 216L199 270Q198 287 196 321T191 369Q160 590 160 807V816Q160 905 163 998Q165 1061 170 1113T186 1249Q194 1316 208 1368T244 1472Q264 1519 293 1544T357
1569Q364 1569 373 1563T382 1550Q382 1538 371 1529T337 1510Q321 1504 312 1497Q282 1472 258 1346T224 1090Q215 957 214 897Q237 913 259 913Q293 913 322 897T372 851Q396 816 413 780T441 698Q455 638 463 596T477 502Q479 484 479 477Q489 374 490 310L491
270Q491 241 492 231V170Q492 133 490 108T479 58Q470 30 455 12T414 -17Q387 -29 351 -29Q313 -29 284 -8ZM443 12T443 174Q443 271 435 405Q425 566 390 713Q372 786 343 827T275 868Q214 828 214 758V728Q214 456 265 166L269 138Q272 110 279 78Q282 63 288
54T306 32Q325 12 367 12Q443 12 443 174Z" />
<glyph unicode="7" glyph-name="seven" horiz-adv-x="600" d="M165 -4Q165 17 170 39T188 97Q194 112 202 143Q237 292 261 457T314 881Q329 1027 351 1212Q362 1289 365 1307Q386 1443 386 1516Q386 1528 315 1528Q294 1528 254 1525Q213 1522 194 1522L163 1542L181
1561Q217 1561 290 1564Q362 1567 398 1567Q412 1567 425 1556T444 1530Q431 1494 431 1438L430 1417Q430 1400 429 1395Q421 1297 378 976T293 380T237 86Q239 78 239 70Q239 37 226 6T190 -27L165 -4Z" />
<glyph unicode="8" glyph-name="eight" horiz-adv-x="596" d="M277 -78T248 -50T204 24Q175 110 175 186Q175 498 241 756Q244 769 253 791Q271 840 271 868Q271 878 262 911Q256 929 254 938L239 985L224 1030Q130 1315 130 1442Q130 1505 155 1555Q168 1581
192 1595T249 1610H286L306 1601Q318 1596 326 1592T343 1579Q352 1570 357 1559Q396 1471 396 1331Q396 1228 355 1008Q325 873 325 868Q325 857 342 817Q350 800 351 795Q486 389 486 104Q486 97 483 80Q480 64 480 55Q480 51 482 45Q447 -22 411 -50T314 -78Q277
-78 248 -50ZM349 1164T349 1335Q349 1384 344 1426T323 1514Q305 1565 275 1565L265 1564Q260 1563 253 1563Q237 1563 228 1569Q181 1531 181 1438Q181 1395 200 1283T245 1076T288 969Q349 1164 349 1335ZM376 -39T406 4T437 119Q437 313 359 598Q353 620 344
662Q333 710 324 739T304 788Q278 753 260 645T232 406T222 168Q222 127 249 59L247 53Q249 18 267 -10T314 -39Q376 -39 406 4Z" />
<glyph unicode="9" glyph-name="nine" horiz-adv-x="590" d="M333 -27Q352 26 352 156Q352 230 357 442Q362 654 362 727L360 838L358 948L344 944Q274 953 216 989T122 1079Q50 1186 50 1316Q50 1396 77 1461T154 1564T272 1602Q306 1602 348 1586T405 1550Q420
1525 420 1223Q420 1156 419 1102L417 981Q417 964 410 940Q403 916 403 899Q403 784 400 554Q397 325 397 209Q397 181 390 133Q383 85 383 57Q383 44 384 34Q385 23 385 10Q385 -47 350 -47L333 -27ZM360 1001Q370 1174 370 1440Q370 1501 348 1532T274 1563Q190
1563 147 1510T104 1366Q104 1286 134 1204T218 1063Q270 1005 331 997L360 1001Z" />
<glyph unicode=":" glyph-name="colon" horiz-adv-x="363" d="M167 975T154 990T140 1024Q140 1044 156 1061T193 1079Q211 1079 227 1062T243 1026Q243 975 185 975Q167 975 154 990ZM147 201T134 216T120 250Q120 270 136 287T173 305Q191 305 206 288T222 252Q222
201 165 201Q147 201 134 216Z" />
<glyph unicode=";" glyph-name="semicolon" horiz-adv-x="387" d="M203 975T190 990T176 1024Q176 1044 192 1061T229 1079Q247 1079 263 1062T279 1026Q279 975 221 975Q203 975 190 990ZM90 14L94 33Q126 61 150 85Q184 119 195 147Q201 164 201 182Q175 198
158 222T141 272Q141 299 165 317T219 336Q248 336 267 313T287 258Q287 218 263 158T201 50Q161 0 123 -2L90 14Z" />
<glyph unicode="&lt;" glyph-name="less" horiz-adv-x="700" d="M511 2L497 4H493Q460 53 412 164L376 242L274 455L253 499Q238 529 229 549Q223 566 185 618Q147 668 147 698Q147 723 195 837Q247 961 301 1081Q359 1211 370 1247L382 1287Q392 1326 400 1349T421
1395Q435 1420 448 1421L475 1401Q466 1340 427 1241T336 1039Q287 941 253 847T219 700Q219 684 359 398T534 53L552 39Q549 26 541 13T524 0L511 2Z" />
<glyph unicode="=" glyph-name="equal" horiz-adv-x="760" d="M145 721T145 743Q145 749 148 756Q150 762 330 762H561Q573 762 582 755T592 737Q592 731 590 727Q589 721 373 721H175Q145 721 145 743ZM538 598T143 598Q135 598 129 607T123 626Q123 637 133
637H216L536 635Q542 635 547 627T552 610Q552 594 538 594Q538 598 143 598Z" />
<glyph unicode="&gt;" glyph-name="greater" horiz-adv-x="700" d="M160 0T151 13T139 39L157 53Q200 132 336 408T473 700Q473 753 440 846T357 1039Q306 1140 266 1240T217 1401L243 1421Q256 1418 270 1396T293 1346L310 1288L321 1247Q334 1207 391 1081Q448
952 496 838Q544 724 544 698Q544 668 507 618Q469 567 462 549Q454 529 438 498L417 455L241 90L230 68L198 4L182 2L168 0Q160 0 151 13Z" />
<glyph unicode="?" glyph-name="question" horiz-adv-x="493" d="M201 236T196 260Q196 567 235 819Q244 870 268 969Q294 1078 306 1156T319 1303Q319 1354 315 1395T294 1482Q276 1533 246 1533H223Q151 1533 151 1406Q151 1378 166 1283Q141 1273 130 1273Q118
1273 115 1283Q100 1360 100 1410Q100 1473 125 1523Q138 1549 162 1563T219 1578Q306 1578 330 1533Q350 1492 361 1428T373 1305Q373 1208 355 1101T308 897Q281 804 262 659T242 357L244 242Q242 244 241 243Q227 236 219 236Q201 236 196 260ZM201 -8T188 7T174
41Q174 61 190 78T227 96Q245 96 260 79T276 43Q276 -8 219 -8Q201 -8 188 7Z" />
<glyph unicode="@" glyph-name="at" horiz-adv-x="1062" d="M315 -80T205 160Q204 185 189 216Q180 234 178 241Q164 280 148 411T121 688T110 905Q110 1188 145 1360Q162 1442 177 1490T217 1584Q243 1631 278 1657T370 1699Q424 1714 498 1714Q563 1714 621
1694T721 1640Q757 1612 790 1558T845 1451Q862 1410 880 1336T907 1211Q920 1135 926 1088L931 1055Q947 942 954 880T962 784Q962 446 810 446Q783 446 751 470Q721 492 707 497Q680 433 624 391T505 348Q468 348 436 366T382 414Q362 441 347 483T322 569Q307
643 303 752Q302 777 302 835V887Q302 981 309 1060Q313 1110 321 1147T345 1224Q360 1264 381 1288T436 1329Q467 1345 509 1345Q592 1345 643 1286Q654 1274 667 1207Q685 1117 712 885Q714 875 716 855Q729 742 736 675L747 567L770 557Q796 506 813 506Q892
506 892 796Q892 1133 778 1431Q747 1512 709 1560T618 1632T488 1655Q389 1655 328 1614Q302 1596 281 1566T246 1503Q235 1475 226 1431T214 1348Q210 1320 207 1261L205 1231L203 1195Q199 1148 195 1128Q194 1122 189 1102T178 1067Q182 1019 182 987Q182 942
174 921Q178 914 178 895Q178 856 181 806T187 727L193 664Q195 654 197 632Q203 576 207 532T216 419Q223 322 229 285T257 188Q275 139 306 88T376 2T457 -33Q567 -33 650 4T821 129Q858 166 866 168L884 149Q869 100 820 55T704 -20Q640 -48 576 -64T464 -80Q315
-80 205 160ZM552 407T586 444T643 534T666 626V780Q666 809 665 824L662 864Q659 895 657 908Q656 917 652 948Q650 967 646 991T637 1031L629 1074L621 1114L614 1156L610 1178Q608 1185 605 1200T595 1233Q587 1254 578 1263T550 1282Q531 1290 509 1290Q477
1290 453 1269T414 1214Q402 1186 395 1140T386 1054Q384 1008 384 975V712Q384 649 388 607T404 514Q416 462 445 435T520 407Q552 407 586 444Z" />
<glyph unicode="A" glyph-name="A" horiz-adv-x="723" d="M523 0T511 10T499 35V303Q499 319 448 334T329 359T223 369Q217 369 197 292Q180 225 160 138T134 20Q130 5 112 5Q96 5 83 15T70 39Q70 41 71 42V45L95 147L137 336L167 471Q198 604 245 877Q296 1170
319 1274Q336 1350 356 1419Q369 1466 386 1502Q402 1536 415 1536Q447 1536 462 1516Q473 1498 494 1311T532 940L560 600Q560 512 572 333Q583 146 583 66V57Q583 30 577 17Q570 0 538 0Q523 0 511 10ZM497 396T497 416Q497 543 483 763T453 1151Q445 1239 428
1389L424 1411Q420 1426 420 1436Q404 1390 391 1323T356 1122Q309 821 272 664Q268 641 254 594Q239 542 232 506T224 438V426Q311 397 431 397H443Q449 396 457 396Q497 396 497 416Z" />
<glyph unicode="B" glyph-name="B" horiz-adv-x="660" d="M154 -12T154 16Q154 83 159 276Q164 468 164 535Q164 697 157 962Q150 1227 150 1389Q150 1536 203 1536Q294 1536 359 1496T457 1382T490 1214Q490 1053 358 874Q432 801 474 736T536 598T555 433Q555
351 550 301T531 205Q517 160 491 128T421 65Q378 36 315 8Q298 6 275 -2Q251 -12 234 -12H230Q154 -12 154 16ZM271 885T312 924T381 1026Q407 1085 421 1149T436 1268Q436 1314 413 1360T350 1436T266 1466Q213 1466 213 1378Q213 1278 217 1133Q221 988 221
887L227 885Q271 885 312 924ZM312 68T370 110T463 222T498 371Q498 737 322 811Q298 809 268 800Q233 789 221 788Q231 502 231 70Q235 70 238 69L244 68Q312 68 370 110Z" />
<glyph unicode="C" glyph-name="C" horiz-adv-x="676" d="M376 -33T334 -12T256 43T203 115Q187 150 169 299T139 620T127 877Q127 938 126 986Q125 1033 125 1090Q125 1155 128 1202T138 1300Q145 1352 158 1389T196 1461Q219 1496 251 1517T331 1552Q376 1565
437 1565Q461 1565 489 1555T536 1527T555 1489Q555 1466 523 1466Q511 1466 476 1481Q439 1495 420 1495Q362 1495 317 1472T244 1410Q220 1375 205 1319T184 1205Q179 1145 179 1081L181 967L183 860Q183 776 196 608T228 298T267 127Q292 89 339 68T441 47Q534
47 584 106Q601 132 622 132Q641 132 641 102Q641 66 618 39T558 -4Q487 -33 414 -33Q376 -33 334 -12Z" />
<glyph unicode="D" glyph-name="D" horiz-adv-x="780" d="M212 -4T188 7T163 37Q163 50 180 78Q197 104 195 119L189 299L175 858Q174 865 171 1079V1105Q166 1342 159 1391Q157 1405 144 1441Q130 1478 130 1497Q130 1546 284 1546H294Q347 1546 394 1527T476
1475Q508 1445 535 1398T581 1301Q597 1255 610 1197T630 1089Q636 1045 640 990T645 902V837Q645 710 612 562T517 284Q479 203 421 138T310 34T238 -4Q212 -4 188 7ZM269 100Q343 140 402 215T497 378Q527 456 548 554T577 733Q583 807 583 874Q583 1473 253
1473Q210 1473 210 1450Q210 1392 219 1279Q228 1167 228 1110Q228 971 244 719Q259 460 259 330V100H269Z" />
<glyph unicode="E" glyph-name="E" horiz-adv-x="509" d="M185 -12T165 -4T145 33V71Q144 88 144 109V113L146 412L144 1257Q144 1357 140 1485Q140 1510 150 1526T177 1542H304Q317 1542 326 1542T346 1538Q367 1531 367 1503Q367 1487 354 1477T327 1465Q318
1464 293 1464L260 1466L227 1468Q212 1468 208 1464T203 1444Q203 1347 204 1270V1096V840Q204 836 208 836H210H212Q281 840 323 840Q357 840 357 810Q357 791 350 784T326 776H209Q201 776 201 766Q201 649 205 462Q209 274 209 137V61L296 62H383H401Q439 62
439 35Q439 3 420 -4Q399 -12 320 -12H233Q185 -12 165 -4Z" />
<glyph unicode="F" glyph-name="F" horiz-adv-x="524" d="M195 -4T195 49V201L189 326Q169 659 169 819Q169 860 163 1026T148 1355L140 1512V1525Q140 1540 160 1545Q177 1549 231 1549H277Q300 1548 333 1548Q349 1548 358 1534T367 1501Q367 1481 329 1481L282
1482L229 1483Q213 1483 209 1477T204 1443Q204 1421 219 1145Q234 868 234 844Q257 844 303 856Q350 868 372 868Q384 868 394 855T404 827Q404 812 386 804T347 793T277 786Q234 782 234 762Q234 652 254 417Q273 193 273 72L267 61Q273 46 273 34Q273 -4 228
-4Q195 -4 195 49Z" />
<glyph unicode="G" glyph-name="G" horiz-adv-x="787" d="M272 -33T198 188Q125 407 125 877Q125 977 130 1054Q133 1111 139 1155T157 1258Q168 1312 184 1353T226 1440Q251 1482 282 1509T357 1554Q402 1571 451 1571Q512 1571 512 1536Q512 1511 482 1511Q473
1511 453 1517Q431 1522 424 1522Q390 1522 360 1507T308 1466Q288 1443 270 1405T240 1325Q221 1261 208 1143Q199 1066 197 962L195 827Q194 805 194 715Q194 614 200 529T224 353Q242 252 270 184T346 71Q393 25 457 25Q565 25 631 127Q631 186 622 272Q618
318 606 357Q594 391 578 391Q562 391 538 387Q514 383 496 383Q449 383 449 418Q449 435 505 449T602 463Q634 463 650 439T666 377Q666 316 687 195Q707 70 707 12Q707 -20 680 -20Q631 -20 631 25L632 30L633 35Q514 -33 427 -33Q272 -33 198 188Z" />
<glyph unicode="H" glyph-name="H" horiz-adv-x="669" d="M474 -20T468 -13T462 12Q462 25 463 36Q464 46 464 59Q464 373 444 771H431H392Q374 770 353 770Q235 770 208 763Q208 644 226 393Q243 135 243 23Q243 -8 222 -8Q190 -8 190 20Q190 66 181 298T167
598Q130 1091 130 1532Q130 1553 156 1553Q168 1553 175 1546T181 1526V1374Q181 1304 190 1166Q198 1019 198 958V858Q198 805 209 805Q244 805 327 813Q409 821 444 821L446 825Q446 940 437 1172Q427 1393 427 1520Q427 1545 454 1545Q469 1545 479 1538T489
1518Q489 1153 504 638Q519 122 519 49V20Q519 4 512 -8T491 -20Q474 -20 468 -13Z" />
<glyph unicode="I" glyph-name="I" horiz-adv-x="552" d="M339 8T292 9Q244 10 168 10Q153 10 143 20T132 44Q132 70 166 70H246Q246 266 232 663L223 919L216 1114L217 1218Q218 1276 218 1354Q218 1465 212 1484H142Q120 1484 120 1513Q120 1534 137 1542Q153
1548 213 1548H271Q301 1547 349 1547Q365 1547 375 1540T386 1518Q386 1505 379 1495T361 1485Q346 1485 335 1486Q324 1487 312 1487H290Q283 1487 276 1486T266 1482Q263 1479 263 1474Q263 1287 289 830Q314 390 314 184Q314 153 313 127Q312 101 312 71H386Q432
71 432 42Q432 30 423 19T404 8Q339 8 292 9Z" />
<glyph unicode="J" glyph-name="J" horiz-adv-x="475" d="M70 -199T70 -160Q71 -149 83 -137T119 -110Q137 -99 144 -92Q234 -2 234 221Q234 337 224 524Q214 720 212 801Q212 796 202 1095L201 1119Q191 1348 191 1489L129 1487L68 1485Q56 1485 48 1494T40 1516Q40
1540 58 1547Q75 1554 135 1554L213 1553Q254 1552 322 1552Q336 1552 345 1543T355 1520Q355 1500 344 1495T299 1489H253Q253 1260 276 798Q298 355 298 305Q298 216 296 168T283 64Q273 5 254 -36T199 -121Q165 -164 113 -199Q70 -199 70 -160Z" />
<glyph unicode="K" glyph-name="K" horiz-adv-x="645" d="M574 -32T570 -19L448 403Q332 803 304 884L290 919Q289 916 284 908T267 880Q260 870 256 860Q248 848 241 836T226 811L197 763V34Q197 0 191 -13T164 -26Q143 -26 137 -13T130 38V657Q130 748 135 1050Q139
1291 139 1443Q139 1488 144 1516Q149 1540 166 1540Q196 1540 203 1525Q210 1511 210 1453Q210 1351 207 1112L203 864H205Q249 959 315 1122Q379 1282 392 1313Q503 1597 537 1597Q552 1597 562 1589T572 1567Q567 1529 539 1484Q524 1458 519 1448Q489 1382
416 1203L404 1173Q334 1003 328 993Q326 985 326 982Q326 974 330 969Q371 866 421 713T505 444Q540 322 576 195T627 12Q630 5 630 -2Q630 -16 620 -24T594 -32Q574 -32 570 -19Z" />
<glyph unicode="L" glyph-name="L" horiz-adv-x="505" d="M199 -12T190 0T180 31L181 64V113Q181 219 171 403Q161 587 161 694Q161 849 151 1122Q140 1422 140 1550Q140 1561 149 1567T170 1574Q206 1574 206 1545Q206 1175 214 977L224 610Q224 533 235 330Q246
137 247 75Q247 71 253 69Q256 68 281 68H407Q435 68 435 31Q435 15 428 3T410 -9L396 -10Q389 -11 379 -11Q336 -12 214 -12Q199 -12 190 0Z" />
<glyph unicode="M" glyph-name="M" horiz-adv-x="937" d="M730 -47T721 -34T712 10V197Q712 325 705 534Q697 772 697 870L699 985L701 1100Q701 1135 698 1198L693 1282Q690 1279 689 1268Q665 1114 618 858T546 483Q523 377 509 296Q505 270 492 254T462 238Q447
238 435 255T419 302Q412 356 364 608T269 1083T216 1317Q208 1120 208 903Q208 795 211 577Q214 360 214 252Q214 227 219 155Q224 83 224 57Q224 20 208 4Q150 4 150 111V453L152 660Q153 752 153 868Q153 949 156 1111Q159 1273 159 1354V1533Q159 1544 168
1552T189 1561Q204 1561 210 1544Q228 1486 302 1187T413 717Q429 641 473 376L505 559Q516 626 536 739Q545 780 624 1208L630 1241L650 1347L671 1462L677 1495L681 1523Q685 1544 694 1555T716 1566Q728 1566 736 1556T744 1528V1325Q744 1179 761 861Q777 561
777 399Q777 355 782 230Q787 105 787 24Q787 -21 780 -34Q773 -47 757 -47Q730 -47 721 -34Z" />
<glyph unicode="N" glyph-name="N" horiz-adv-x="778" d="M543 -23T531 -9T515 24Q513 30 507 64L501 94Q275 907 249 1016Q238 1064 165 1426Q163 1400 163 1341V600Q163 523 168 308Q173 93 173 16L159 0H112L106 16Q110 31 110 98L108 455Q105 692 105 811V1079Q105
1187 104 1273L102 1466Q102 1478 101 1488Q100 1497 100 1509Q100 1534 113 1543T155 1552Q168 1552 183 1540T202 1513Q207 1492 236 1360L246 1313Q277 1169 294 1096Q300 1069 442 539Q504 283 548 150Q561 177 561 248Q561 393 565 605Q569 816 569 961L571
1120Q572 1190 572 1278L570 1567Q577 1595 612 1595Q628 1595 628 1535Q628 1510 627 1493L625 1460V1329L623 843Q620 522 620 360Q620 321 615 199Q610 77 610 37Q610 -23 558 -23Q543 -23 531 -9Z" />
<glyph unicode="O" glyph-name="O" horiz-adv-x="755" d="M125 -43T125 942V1025Q125 1118 129 1184T145 1323Q157 1403 178 1453T237 1537Q274 1571 327 1571Q377 1571 418 1552T485 1501Q508 1473 526 1427T555 1336Q566 1278 571 1239Q620 893 620 618V612Q620
510 617 423Q614 363 610 320T594 208Q585 152 570 113T531 31Q487 -43 409 -43Q125 -43 125 942ZM446 14T473 52T515 157Q548 301 554 439Q560 570 560 653V662Q560 762 557 867Q552 979 535 1127L532 1154Q523 1228 507 1287T465 1408Q443 1461 410 1489T337
1518Q302 1518 275 1486T233 1393Q216 1328 206 1269T192 1139Q186 1018 186 931V831Q186 692 213 484Q231 348 255 251T319 86Q361 14 413 14Q446 14 473 52Z" />
<glyph unicode="P" glyph-name="P" horiz-adv-x="565" d="M156 -12T156 59Q156 121 153 242Q150 364 150 426Q150 519 149 592Q148 665 148 758Q148 999 138 1266Q130 1450 130 1536L135 1544Q138 1550 143 1555Q147 1561 153 1563Q157 1565 168 1565Q239 1565
298 1532T393 1442Q428 1387 446 1321T465 1186Q465 1094 435 998T347 824Q285 741 209 725Q209 612 218 388Q226 150 226 51Q226 18 217 3T181 -12Q156 -12 156 59ZM229 802T246 817L261 833L275 848Q408 981 408 1182Q408 1299 362 1395Q337 1446 291 1475T181
1505Q181 1388 193 1155Q205 923 205 805L209 801Q229 802 246 817Z" />
<glyph unicode="Q" glyph-name="Q" horiz-adv-x="755" d="M588 -283T565 -270Q543 -258 536 -256Q499 -240 479 -196T446 -71Q434 6 427 27Q369 27 321 47T241 101Q212 131 189 179T154 277Q143 317 137 375T128 482Q126 534 126 573V666Q125 709 125 765Q125
919 131 1044Q136 1172 158 1306Q177 1419 221 1500Q263 1577 337 1577Q384 1577 433 1550T518 1480T562 1391Q618 1072 618 594Q618 234 491 53Q493 36 501 15L511 -14Q514 -24 519 -69Q524 -122 529 -146T551 -192Q570 -217 603 -217H611Q675 -217 675 -244Q675
-283 597 -283Q588 -283 565 -270ZM478 80T512 273Q546 464 546 887V941Q546 1024 542 1124Q539 1175 534 1212T517 1312Q508 1357 492 1392T453 1460Q432 1490 401 1505T333 1520Q302 1520 276 1475Q253 1433 237 1360T209 1188Q193 1059 186 839Q184 749 184
713V590Q184 473 208 354Q223 273 246 217T309 121Q350 80 403 80Q478 80 512 273Z" />
<glyph unicode="R" glyph-name="R" horiz-adv-x="579" d="M458 -20T448 20Q443 40 423 110Q359 336 339 432Q333 459 299 631Q270 780 246 870L225 859Q207 848 198 846L202 57V27Q202 -14 165 -14Q150 -14 140 -5T130 20V51Q130 231 138 663Q145 1040 145 1274V1538Q145
1556 182 1556Q237 1556 282 1528T355 1451Q381 1403 395 1347T409 1231Q409 1135 368 1026Q358 997 339 957T306 902L526 47Q529 37 529 24Q529 5 521 -7T499 -20Q458 -20 448 20ZM214 913T252 951T307 1018Q322 1046 331 1103T341 1206Q341 1287 314 1379Q298
1429 270 1460T207 1492H202Q200 1491 197 1491V913Q214 913 252 951Z" />
<glyph unicode="S" glyph-name="S" horiz-adv-x="621" d="M198 -45T180 -43T138 -29Q114 -18 100 6Q100 31 122 31Q143 31 180 16Q215 0 235 0Q281 0 318 37T377 133Q397 188 407 242T417 340Q417 440 389 542T314 736L286 790Q237 884 207 949T154 1090Q124 1189
124 1288Q124 1356 146 1418T215 1526Q264 1573 329 1573Q344 1573 367 1564T407 1542T424 1515Q424 1499 411 1499Q398 1499 378 1510Q359 1520 344 1520Q298 1520 262 1485T209 1399Q194 1353 194 1305Q194 1224 215 1139T271 981Q304 910 343 831L362 791Q404
706 428 647T469 515Q491 424 491 330Q491 272 476 209T431 88Q400 28 348 -8T235 -45Q198 -45 180 -43Z" />
<glyph unicode="T" glyph-name="T" horiz-adv-x="654" d="M318 -12T307 3T296 40Q297 77 297 223V406Q297 490 292 733Q287 975 287 1061L288 1120Q289 1153 289 1253Q289 1474 284 1474H53Q36 1474 23 1482T10 1505Q10 1521 16 1527T49 1539Q79 1544 131 1544L336
1545L561 1546Q586 1546 595 1538T604 1511Q604 1481 565 1481H474L382 1480L364 1478H365L366 1359V1200V368L367 199L368 48V42Q368 22 367 14T359 -3Q352 -12 338 -12Q318 -12 307 3Z" />
<glyph unicode="U" glyph-name="U" horiz-adv-x="761" d="M377 -39T336 -19T268 34Q242 65 221 110T188 200Q177 239 169 289T158 374Q156 397 154 439L152 473Q142 570 127 913T111 1448V1462Q110 1469 110 1479Q110 1532 142 1532Q166 1532 175 1520T184 1483V1468Q183
1461 183 1452Q183 1212 197 888T226 422Q234 333 260 237Q276 174 296 132T347 59Q379 27 417 27Q452 27 479 43T523 85Q537 107 546 142T558 213Q560 253 560 281V514Q560 644 551 897L542 1159Q542 1230 538 1333Q533 1461 533 1507Q533 1529 544 1542T573 1555Q590
1555 601 1542T613 1507V1352Q613 1249 614 1167V983Q614 835 618 634Q621 408 621 295Q621 246 617 207T601 123Q588 73 567 40T510 -16Q472 -39 424 -39Q377 -39 336 -19Z" />
<glyph unicode="V" glyph-name="V" horiz-adv-x="666" d="M356 -18T350 -16L328 -10Q294 129 246 442L134 1174L114 1263Q70 1447 70 1512Q70 1526 79 1537T99 1548Q107 1548 113 1545Q122 1541 131 1522Q137 1509 140 1491L144 1462Q153 1414 190 1197L293 493L320
299L346 112Q355 198 360 258L383 494Q396 609 432 943L462 1231L469 1298Q472 1323 484 1401Q496 1484 498 1516Q501 1554 537 1554L549 1546H545L566 1530Q566 1468 549 1355L537 1276Q528 1211 497 947Q464 672 432 377T398 27Q381 -18 359 -18Q356 -18 350
-16ZM342 101H349L346 106L342 101Z" />
<glyph unicode="W" glyph-name="W" horiz-adv-x="944" d="M270 -27T270 19Q270 32 271 42Q272 52 272 64V74Q266 124 235 322L217 434Q210 479 178 754Q146 1032 115 1259Q84 1490 70 1513Q76 1524 88 1532T113 1540Q144 1540 155 1529T166 1493V1475Q165 1466
165 1454Q165 1437 166 1432Q222 831 299 179H303Q311 236 327 504Q345 788 349 838Q354 901 373 1018Q393 1136 397 1184L404 1277L407 1319Q409 1345 409 1346Q409 1351 410 1359T412 1372Q412 1375 415 1379T424 1386Q439 1386 447 1383T461 1372Q466 1364 468
1358T472 1341L475 1323Q496 1217 563 759T645 156L651 152L727 981Q733 1065 753 1227Q774 1406 774 1503Q774 1514 773 1523Q772 1532 772 1542Q772 1567 783 1579T825 1591Q838 1591 851 1581T864 1559Q864 1538 842 1520Q844 1514 844 1507Q844 1497 840 1481T836
1462Q815 1297 781 919Q747 556 739 496Q731 407 722 334L699 126Q698 116 695 88Q688 33 688 23Q688 -3 681 -15T651 -27Q619 -27 612 -2Q606 17 605 55L602 86Q542 485 454 1209L448 1213L447 1211L446 1209Q367 321 344 90V54Q344 -27 309 -27Q270 -27 270 19Z"
/>
<glyph unicode="X" glyph-name="X" horiz-adv-x="573" d="M92 -12T81 -4T70 12Q70 35 108 170Q168 399 203 565L224 668Q236 728 240 773Q242 807 242 821Q242 889 231 962T193 1146Q169 1245 160 1288Q156 1307 133 1382Q111 1454 109 1495Q126 1522 142 1522Q159
1522 169 1513T181 1491Q182 1484 182 1477T183 1461Q185 1433 185 1434Q197 1365 234 1189Q272 1002 285 922Q296 1004 365 1380Q366 1382 369 1411Q375 1462 386 1501Q392 1525 402 1538T426 1552Q463 1552 463 1530Q463 1513 451 1483Q440 1458 437 1448Q410
1354 353 1061Q349 1042 343 1010T332 951Q319 882 315 839Q312 814 312 791L420 238L442 134L447 109Q451 88 451 70Q451 27 418 27Q404 27 399 28T387 35Q381 41 381 53Q381 100 370 166L360 225L350 279Q294 563 277 629Q269 615 218 378T152 61Q152 61 150
48Q148 32 145 22Q143 14 136 2Q132 -5 125 -7T116 -10Q106 -12 101 -12Q92 -12 81 -4Z" />
<glyph unicode="Y" glyph-name="Y" horiz-adv-x="516" d="M251 -25T244 -10T236 25Q236 75 241 222Q246 369 246 420Q246 451 239 503Q232 555 232 586Q232 619 220 682Q207 743 207 776Q207 803 186 892Q180 914 178 924T175 938L148 1079Q127 1186 112 1253T80
1380Q50 1478 50 1513Q50 1528 62 1537T91 1546L115 1530Q119 1474 144 1336T198 1075T244 930Q247 939 264 1107Q278 1264 305 1405Q331 1540 365 1540H374Q380 1540 383 1539T391 1534Q396 1529 396 1518Q396 1504 388 1474Q381 1447 379 1434Q341 1225 325 1129Q315
1066 307 981T298 829Q298 819 301 796Q304 774 304 762L291 731V715Q291 680 299 592Q306 515 306 469Q306 176 302 55L308 49Q308 45 309 42Q310 39 310 35Q310 10 298 -7T265 -25Q251 -25 244 -10Z" />
<glyph unicode="Z" glyph-name="Z" horiz-adv-x="505" d="M81 -18T70 8Q111 80 133 175T169 407Q184 539 195 588L211 702Q270 1127 289 1268L293 1300L299 1339Q315 1440 316 1499Q300 1499 248 1494Q196 1489 178 1489Q86 1489 86 1530L101 1546Q116 1542 150
1542Q180 1542 246 1553Q306 1563 342 1563Q375 1563 375 1526Q362 1498 355 1451T343 1329Q339 1265 334 1239Q335 1243 299 974L273 775Q222 384 191 195Q188 172 166 121Q144 70 144 39Q163 39 211 44Q259 49 277 49Q363 49 363 8L344 -10Q294 -10 223 -14Q151
-18 101 -18Q81 -18 70 8Z" />
<glyph unicode="[" glyph-name="bracketleft" horiz-adv-x="532" d="M280 -88T200 -74T120 -35Q120 54 142 218Q163 386 163 471Q163 640 190 976Q216 1319 216 1481Q216 1491 207 1506Q198 1520 196 1528L237 1552Q296 1552 336 1550Q421 1546 452 1533Q472 1524
472 1511Q472 1502 462 1496T440 1489Q419 1489 382 1495Q344 1501 325 1501Q263 1501 263 1458Q263 1344 258 1187T247 931Q245 891 233 720L227 627L210 371Q197 90 184 51V2L175 -14Q180 -15 243 -18Q301 -21 345 -32Q386 -43 386 -68Q386 -88 351 -88Q280 -88
200 -74Z" />
<glyph unicode="\" glyph-name="backslash" horiz-adv-x="680" d="M479 -4T467 29Q456 60 450 93L444 121L403 299L390 356L344 549L321 644Q266 874 226 1057Q195 1195 172 1317L160 1369L140 1456Q131 1498 131 1505Q131 1517 140 1524T162 1532Q167 1532 171
1525Q179 1514 187 1483L193 1461Q195 1449 196 1448Q311 1007 452 387Q468 319 481 272Q504 180 514 127T524 31Q524 8 504 -6Q479 -4 467 29Z" />
<glyph unicode="]" glyph-name="bracketright" horiz-adv-x="512" d="M146 -88T146 -68Q146 -43 188 -32Q231 -21 290 -18Q353 -15 357 -14L349 2V51Q335 83 312 510T281 1204L275 1326Q269 1412 269 1458Q269 1481 262 1490T234 1499Q210 1499 177 1495Q144 1491
119 1491H108Q60 1491 60 1511Q60 1524 80 1533Q111 1546 197 1550Q236 1552 295 1552L336 1528Q334 1520 325 1506Q316 1491 316 1481Q316 1313 344 996Q371 672 371 510Q371 420 392 238Q412 52 412 -35Q412 -59 332 -73T181 -88Q146 -88 146 -68Z" />
<glyph unicode="^" glyph-name="asciicircum" horiz-adv-x="622" d="M482 361T471 378T450 425Q438 467 425 535Q425 535 418 570Q371 751 302 1223Q286 1172 275 1109T250 944Q237 848 232 817Q206 656 150 379L123 368Q115 371 108 377T100 389Q100 431 131
565Q135 583 159 740Q177 863 184 904T207 1002L215 1035Q230 1099 240 1151Q243 1175 244 1198Q248 1267 262 1325Q270 1358 286 1376T326 1395L349 1376Q349 1309 357 1223Q361 1168 376 1068Q385 996 398 913Q411 824 467 597L485 534Q486 531 504 464L511 439Q522
393 522 386Q522 379 513 370T496 361Q482 361 471 378ZM304 1229L306 1233L304 1237V1229Z" />
<glyph unicode="_" glyph-name="underscore" horiz-adv-x="745" d="M126 -50T113 -40T100 -15Q100 -9 382 -9H676Q692 -9 706 -19T720 -44H658Q658 -50 444 -50H142Q126 -50 113 -40Z" />
<glyph unicode="`" glyph-name="grave" horiz-adv-x="680" d="M338 1146T241 1180T135 1220Q118 1216 102 1216Q32 1216 32 1257Q32 1293 45 1302H58Q119 1302 137 1279Q139 1278 145 1276T162 1271Q189 1262 243 1241Q293 1221 327 1202Q366 1180 366 1163Q366
1157 358 1152T342 1146Q338 1146 241 1180Z" />
<glyph unicode="a" glyph-name="a" horiz-adv-x="642" d="M529 -18T520 -16T507 -4T500 27L466 295Q429 305 365 305Q342 305 290 310Q238 315 219 315Q212 315 209 313T205 306Q204 304 204 302T203 299L199 258Q194 206 176 111Q165 59 152 25Q137 -10 121 -10Q108
-10 94 1T80 25L82 31L84 37Q118 168 146 326L169 453Q176 490 183 536L195 608L217 743Q226 800 253 922Q279 1047 289 1112L297 1187L301 1220Q306 1275 311 1303Q319 1355 324 1364L338 1363Q344 1362 352 1362Q377 1362 389 1374Q403 1374 414 1365T426 1343Q426
1285 429 1237T441 1118L453 1010Q478 721 567 18V12Q567 -9 551 -18Q529 -18 520 -16ZM457 350Q442 565 379 1221Q273 694 268 674Q221 441 221 376Q221 366 300 358T436 350H457Z" />
<glyph unicode="b" glyph-name="b" horiz-adv-x="580" d="M163 -23T153 -11T142 20Q140 46 140 84Q140 149 151 301Q161 438 161 516L159 608L157 698Q157 780 163 943Q169 1107 169 1188Q169 1253 167 1307L159 1317V1329Q159 1355 168 1368T202 1382Q221 1382
266 1370T349 1343T386 1315L384 1309Q421 1251 434 1191T448 1038Q448 885 415 795H417Q412 782 386 742Q361 706 357 698Q394 670 418 614T450 507Q455 452 458 399L460 346V317Q460 121 338 27Q273 -23 181 -23Q163 -23 153 -11ZM243 739Q378 739 378 1012Q378
1052 375 1100L372 1139L368 1143Q363 1204 346 1250Q335 1279 314 1296T265 1313Q220 1313 220 1044Q220 993 221 974Q222 955 222 934Q222 895 221 864Q220 832 220 791V766L224 753L228 739H243ZM261 57T303 90T371 175T396 279L397 286V303V325Q397 372 395
407T382 490Q371 544 353 580T303 642Q269 668 226 668Q216 522 216 389V342Q216 283 222 248Q210 226 210 150Q210 118 211 97L212 57Q261 57 303 90Z" />
<glyph unicode="c" glyph-name="c" horiz-adv-x="584" d="M335 -25T300 -15Q261 -3 233 20T180 89Q138 169 129 323Q125 370 125 446V680Q125 760 126 805T134 937Q140 1031 152 1094T191 1220Q217 1285 254 1313Q273 1327 310 1342Q342 1354 361 1364H443L449
1363Q451 1362 454 1362Q463 1359 465 1359Q473 1355 474 1354Q479 1349 480 1346Q482 1338 482 1333L455 1303H369Q329 1303 298 1266T249 1170Q234 1120 224 1050T210 927Q207 879 207 838L203 827Q203 743 199 620Q195 497 195 414Q195 366 197 330T206 248Q212
203 227 169T266 100Q289 68 326 52T412 35Q442 35 463 53Q494 53 494 31Q494 16 468 -3T416 -33H348Q335 -25 300 -15Z" />
<glyph unicode="d" glyph-name="d" horiz-adv-x="713" d="M169 -10T169 45Q161 215 161 401L163 643L165 885Q165 1086 157 1270Q140 1284 140 1311Q140 1326 157 1341T189 1356Q203 1356 220 1340Q238 1322 241 1321Q255 1314 289 1309Q325 1303 337 1296Q367
1281 419 1233Q465 1188 488 1171L486 1167Q487 1156 517 1115Q544 1077 552 1057Q585 968 585 813Q585 786 584 765Q583 744 583 717V700Q582 691 582 680Q582 640 593 618Q581 553 564 371Q559 319 544 260T508 160Q484 115 438 70T329 -10H187Q169 -10 169 45ZM322
49Q334 66 348 76Q351 79 354 81T362 87L378 100Q523 230 523 592Q523 614 522 631Q521 647 521 666L511 872Q509 927 491 991T441 1118Q408 1182 357 1222T247 1262Q224 1262 224 883Q224 450 247 119L245 80L253 76L259 49H322Z" />
<glyph unicode="e" glyph-name="e" horiz-adv-x="524" d="M148 -27T145 16Q145 30 146 42Q147 54 147 68L140 76Q155 117 155 160Q155 195 150 295Q145 395 145 430Q145 546 152 738Q159 930 159 1047Q159 1097 155 1170Q151 1242 151 1292Q151 1322 164 1336T210
1350Q233 1350 243 1337Q256 1334 303 1329Q354 1323 392 1311Q430 1299 430 1280Q430 1261 392 1239Q280 1276 226 1278L216 1266Q218 1228 218 1178Q218 1114 214 1019Q210 924 210 860Q210 803 239 803L273 805Q303 807 308 807Q387 807 388 770Q388 748 377
733T347 717Q313 717 300 733L233 743H224L214 733V727Q218 680 218 565L216 420L214 274Q214 194 220 111Q223 64 241 49T308 33L345 35L384 37Q444 37 444 10Q444 -27 355 -27H186Q148 -27 145 16Z" />
<glyph unicode="f" glyph-name="f" horiz-adv-x="558" d="M150 2Q169 193 169 500Q169 627 183 913Q197 1198 197 1325Q197 1343 214 1353T253 1364Q296 1364 354 1357T455 1337T498 1305Q498 1270 425 1270Q387 1290 312 1290Q297 1290 287 1288Q280 1286 278
1283T273 1269Q271 1261 265 1247Q265 1166 255 1030Q245 893 245 815V743Q245 736 279 737Q382 737 382 705Q382 689 367 678T333 666Q322 666 299 672Q277 678 265 678Q228 678 228 578V346Q228 298 234 200Q240 103 240 53Q240 -29 191 -29L150 2Z" />
<glyph unicode="g" glyph-name="g" horiz-adv-x="694" d="M296 -14T251 8T184 95T145 302Q120 502 120 623Q120 684 130 783L141 911L143 939Q152 1076 167 1154T228 1288T367 1354Q387 1356 399 1356Q462 1356 462 1327Q462 1314 449 1305T421 1296L402 1298L382
1300Q348 1300 321 1278T275 1213Q254 1166 241 1119T219 1012Q210 943 206 895T199 787Q196 703 196 629Q196 529 202 479Q216 457 221 414T232 284Q236 213 250 163T301 80Q342 45 413 45Q441 45 463 62T498 110Q512 146 520 178T531 253Q536 332 536 409V522Q515
543 464 543L448 542Q439 541 425 541Q376 541 376 565Q376 600 425 600Q468 600 529 595Q568 590 590 582Q614 573 614 559Q614 536 603 483Q591 432 591 406Q591 342 595 249Q599 156 599 92Q493 -14 390 -14Q296 -14 251 8Z" />
<glyph unicode="h" glyph-name="h" horiz-adv-x="670" d="M516 -2T454 -2Q444 431 444 547L439 555L446 573Q446 608 439 649L407 657Q389 651 366 651Q346 651 300 662Q259 672 235 672L214 664Q214 621 211 535Q208 450 208 406L214 397Q214 340 220 226Q226
112 226 55Q226 33 218 18T192 2Q147 2 147 125L149 313L151 500Q151 687 145 700Q155 719 155 836Q155 926 148 1076Q140 1246 140 1315Q140 1330 150 1342T175 1354Q216 1354 216 1235Q216 1132 212 983Q208 832 208 735Q208 711 365 711H372Q412 711 429 726T446
778Q446 879 433 1061Q419 1255 419 1343Q419 1355 430 1364T454 1374Q455 1374 473 1369L491 1362Q491 1190 504 884Q517 576 517 406Q517 169 530 0L517 -23Q516 -2 454 -2ZM388 735V739L392 735H388Z" />
<glyph unicode="i" glyph-name="i" horiz-adv-x="485" d="M211 0T203 20Q193 20 186 19Q178 18 169 18Q125 18 113 39Q113 47 116 52T128 63L140 74H199L207 82Q207 86 211 101Q214 118 214 125Q214 210 207 349Q199 507 199 573Q199 635 204 813Q209 990 209
1051Q209 1195 199 1288Q180 1294 138 1294L114 1292L89 1290Q50 1290 50 1325Q50 1333 68 1341T99 1350Q166 1350 254 1342Q307 1338 348 1323Q384 1310 384 1288Q384 1284 379 1272L332 1268Q316 1280 273 1280L263 1274Q269 1256 269 1165Q269 1084 266 922Q263
759 263 678Q263 593 270 454Q277 314 277 229L276 203Q275 188 275 166Q275 118 281 109L279 104Q279 84 324 84Q341 84 354 85Q367 86 384 86Q445 86 445 57Q445 39 432 28T400 16Q386 16 366 20Q344 23 332 23Q318 23 294 12Q272 0 259 0Q211 0 203 20Z" />
<glyph unicode="j" glyph-name="j" horiz-adv-x="491" d="M17 -205L16 -201L15 -197Q15 -189 49 -167L77 -148L123 -118Q164 -91 170 -84Q201 -49 218 25T236 172Q236 353 227 716Q217 1062 217 1260L205 1282Q197 1286 156 1292Q118 1296 86 1308Q56 1319 56
1335Q56 1343 72 1351T99 1360Q139 1360 223 1346T374 1311T441 1274Q441 1262 431 1255T408 1247Q390 1247 352 1258Q318 1268 297 1268Q279 1268 279 1227Q279 1071 289 801Q299 531 299 377V152Q287 125 287 66Q287 24 274 -27T237 -130Q212 -184 170 -218T78
-252H64L17 -205Z" />
<glyph unicode="k" glyph-name="k" horiz-adv-x="675" d="M547 -37T480 147Q437 263 401 395T342 637T317 795L312 803L280 737Q252 680 244 659T225 599Q214 555 214 518Q214 500 209 445Q204 390 204 371V109Q204 86 211 50Q218 14 218 -8Q218 -19 208 -26T185
-33Q158 -33 149 -25T140 10V395Q140 443 150 524Q159 610 159 653Q159 724 169 851Q179 977 179 1049V1333Q191 1356 218 1356Q233 1356 245 1344T257 1317Q239 1284 239 1219Q239 1132 235 1003Q231 874 231 786Q251 794 391 1069Q530 1343 544 1343Q596 1343
599 1309Q473 1124 380 930L378 864L376 799Q376 740 409 600T488 319T566 117Q575 101 591 81Q611 54 620 34T630 -6Q630 -20 620 -28T595 -37Q547 -37 480 147Z" />
<glyph unicode="l" glyph-name="l" horiz-adv-x="509" d="M155 -27T150 20Q154 37 154 88Q154 277 160 647Q166 1016 166 1180Q166 1188 171 1253L176 1315Q176 1329 191 1329Q201 1329 220 1322Q225 1320 225 1321Q225 1276 224 1240Q223 1204 223 1159Q223 1035
224 936Q225 837 225 713L222 625Q219 564 219 541L221 454L223 367L217 350L219 352Q219 347 218 344Q217 341 217 336Q217 319 223 307L217 111V98Q217 69 219 57Q220 47 229 47Q259 47 335 44L422 41H428Q439 41 449 30T459 6Q459 -17 426 -20Q356 -18 256 -18L260
-20Q248 -20 222 -23Q199 -27 184 -27Q155 -27 150 20Z" />
<glyph unicode="m" glyph-name="m" horiz-adv-x="1162" d="M916 -106T916 25V159Q916 455 904 621Q901 660 896 697Q888 759 888 786Q888 837 892 913Q896 989 896 1040Q896 1110 888 1137Q848 1106 642 274Q639 259 638 244Q632 195 622 161Q616 140 605 128T580
115Q547 115 533 131T519 182Q519 236 467 467T354 913T271 1149Q266 1036 253 812Q239 563 233 393T226 70Q226 24 228 -12Q219 -39 185 -39Q178 -39 164 -28T150 -10Q150 199 182 636Q214 1073 214 1282Q214 1289 208 1302Q202 1314 202 1321Q202 1352 257 1352Q272
1352 282 1344T297 1321Q305 1290 306 1260Q308 1234 308 1235Q318 1178 366 1071Q410 972 425 918L431 897Q432 892 448 838Q462 787 474 742T492 662L519 608Q524 582 542 508Q560 437 568 385T578 287Q593 309 649 502T761 913T830 1196Q830 1195 835 1227Q838
1251 843 1268T855 1306Q870 1348 904 1348Q918 1348 936 1336T955 1311Q955 453 982 408L980 301L978 193Q978 66 994 -4L999 -20Q1002 -32 1002 -39Q1002 -62 989 -84T957 -106Q916 -106 916 25ZM888 1145V1149H886L883 1147L888 1145Z" />
<glyph unicode="n" glyph-name="n" horiz-adv-x="943" d="M654 -8T646 4T633 41Q629 62 624 70L626 76Q612 166 558 311Q530 387 520 418Q513 426 465 571Q281 1142 233 1188Q217 1127 217 1044L219 963L221 883L219 833L217 784Q217 751 221 707L225 641H219Q219
301 233 264V80Q241 66 241 37Q241 21 231 9T203 -4Q160 -4 160 106Q160 133 164 173Q168 212 168 240Q168 339 162 535Q155 717 155 829Q155 898 162 1011Q168 1133 168 1192V1218Q168 1319 205 1350L211 1343L231 1348Q241 1344 250 1335Q255 1328 259 1317L262
1305L264 1294Q299 1147 411 887Q520 634 557 520Q571 477 590 394Q610 304 631 240T682 125L686 131Q733 583 733 1247L731 1272L729 1298Q729 1341 758 1341Q777 1341 790 1323T803 1282V1145L792 1128Q792 1016 781 748T755 256T727 6Q716 4 692 -3V-4L691 -3Q673
-8 669 -8Q654 -8 646 4Z" />
<glyph unicode="o" glyph-name="o" horiz-adv-x="709" d="M120 -39T120 715V786Q120 1357 268 1357Q278 1357 296 1352Q339 1337 380 1330T425 1322Q465 1315 503 1243Q546 1169 567 1050T589 801L585 791L587 669L589 547Q589 504 588 460T582 359Q576 293 567
243T541 140Q523 84 500 47T441 -14Q406 -39 360 -39Q120 -39 120 715ZM391 20T422 50T471 134Q509 246 518 367Q526 472 526 563Q526 637 515 805Q503 966 503 1047L495 1063L499 1073Q499 1132 476 1182T414 1263T327 1294Q233 1294 216 1204Q208 1160 207 1116Q207
1106 207 1060T203 974T194 909Q194 885 189 813Q184 741 184 717L186 636L188 555Q188 465 205 333Q217 242 234 179T280 69Q311 20 352 20Q391 20 422 50Z" />
<glyph unicode="p" glyph-name="p" horiz-adv-x="539" d="M177 -25Q154 101 154 270Q154 319 159 461Q163 574 163 651Q150 680 150 698Q171 733 171 887Q171 1253 159 1284Q178 1335 189 1335H279Q302 1335 343 1314T413 1268Q464 1222 464 1026Q464 978 463
942T458 867Q454 829 445 806T417 753Q401 727 377 709T313 672Q276 654 228 639V395Q228 329 237 195Q245 53 245 -4Q245 -41 206 -41L177 -25ZM272 709T297 724T341 763Q369 801 386 887Q395 938 398 1024V1079Q398 1116 396 1138T387 1186Q379 1214 366 1231T329
1260Q305 1272 271 1272Q245 1272 236 1260T226 1217Q226 1178 231 1070Q236 960 236 922Q236 882 232 825Q228 768 228 729L241 709Q272 709 297 724Z" />
<glyph unicode="q" glyph-name="q" horiz-adv-x="704" d="M507 -434T466 -426T411 -401Q411 -364 407 -317T396 -237L387 -188Q381 -155 380 -148L364 -68Q306 -56 272 -40T211 8Q182 40 166 92T143 227Q120 462 120 707V716Q120 1356 323 1368Q335 1363 368 1355Q396
1348 411 1341Q503 1297 543 1205Q564 1156 576 1111T595 1010Q601 956 602 916T604 817V721Q604 656 596 549T574 318Q557 183 527 84T460 -39L446 -46Q433 -52 427 -57T421 -70Q421 -102 426 -143T438 -216Q442 -239 455 -294L470 -365Q485 -380 532 -378Q550
-378 561 -385T573 -408Q573 -434 546 -434Q507 -434 466 -426ZM350 -14T369 -8Q389 -2 399 -2Q437 -2 472 106T526 346Q542 458 542 514V872Q542 1315 317 1315Q285 1315 261 1278T221 1177Q189 1044 181 905Q173 770 173 702Q173 695 177 683Q180 670 180 664V575Q180
-14 339 -14Q350 -14 369 -8Z" />
<glyph unicode="r" glyph-name="r" horiz-adv-x="593" d="M460 -25Q436 2 408 116T355 375Q335 496 308 606Q283 709 261 709H253Q208 709 208 680Q208 569 226 231Q233 50 243 16L228 -18H198L183 -2Q150 884 150 1288Q150 1313 152 1326T165 1352Q176 1366 195
1366Q298 1366 361 1314T425 1167V1018Q425 980 401 916T345 793Q318 744 318 741Q318 734 396 414T480 78Q480 77 483 71T497 43Q513 12 513 -6Q513 -35 490 -35L460 -25ZM258 760T289 799T337 899Q353 956 361 1009T370 1098Q370 1145 366 1176T349 1241Q336
1276 307 1294T232 1313Q221 1313 215 1296T208 1260Q208 1159 212 1012Q216 865 216 764L220 760Q258 760 289 799Z" />
<glyph unicode="s" glyph-name="s" horiz-adv-x="504" d="M147 -21T128 -8T105 25L115 41Q131 39 151 34Q175 27 189 27Q235 27 269 62T321 156Q351 258 351 356Q351 432 327 510T264 659L240 702Q197 780 173 828T131 935Q105 1016 105 1098Q105 1135 114 1180T142
1271Q161 1319 194 1348T267 1378Q292 1378 318 1360T345 1321Q345 1305 318 1305Q311 1305 297 1311Q284 1317 275 1317Q244 1317 220 1293T183 1228Q158 1153 158 1090Q158 1050 168 1010L175 976Q176 967 187 935L197 899L212 862L248 799L264 772Q292 725 311
691T349 616Q369 572 379 535T397 444Q404 395 404 332Q404 229 376 148Q358 97 334 62T271 4Q231 -20 181 -20L171 -25Q147 -21 128 -8ZM334 1311Q334 1313 332 1313V1311H334Z" />
<glyph unicode="t" glyph-name="t" horiz-adv-x="609" d="M282 29L280 104L278 178L280 214L282 250Q282 277 274 299Q274 465 254 808Q233 1161 232 1298Q101 1298 62 1305Q20 1313 20 1337Q29 1360 59 1360Q107 1360 237 1351Q361 1341 415 1341L459 1342L502
1343Q539 1343 539 1317Q539 1304 526 1297T494 1290Q468 1290 407 1294Q346 1298 319 1298Q313 1298 311 1292Q309 1282 309 1253Q309 1053 333 652Q357 252 357 51Q357 37 339 25T305 12L282 29Z" />
<glyph unicode="u" glyph-name="u" horiz-adv-x="750" d="M329 -30T291 -9T229 41Q201 77 184 248T164 637L163 703Q159 977 156 1121T145 1319L158 1348Q205 1342 205 1235L211 692Q211 627 222 475Q233 323 233 258Q233 25 387 25Q482 25 507 454L510 496Q524
997 524 1329L522 1348L520 1366Q520 1389 555 1389Q579 1389 585 1376Q590 1361 590 1305Q590 1145 577 1096Q579 1090 579 1083Q579 1063 574 1001Q569 939 569 920Q569 909 570 900Q571 891 571 879Q568 841 566 739Q563 538 557 401Q550 224 508 100Q487 37
450 3T362 -31Q329 -30 291 -9Z" />
<glyph unicode="v" glyph-name="v" horiz-adv-x="729" d="M307 -6Q307 154 257 461T125 1130L108 1194L82 1288Q70 1332 70 1341Q70 1348 79 1357T96 1366Q110 1366 121 1349T142 1303Q153 1265 167 1193Q168 1188 174 1157Q195 1076 221 956L242 851Q253 785
260 754Q268 718 278 649Q278 649 294 553Q301 511 308 464T320 386L325 352Q327 332 340 247L354 147Q395 284 424 553Q453 801 506 1063Q560 1331 569 1384L596 1395Q604 1392 611 1386T619 1374Q619 1333 600 1252L588 1198L552 1036Q522 903 511 832T486 624Q484
608 484 600Q472 477 466 436T442 327Q421 243 416 219Q413 194 412 173Q407 97 395 45Q387 12 371 -6T330 -25L307 -6ZM352 133V141L350 137L352 133Z" />
<glyph unicode="w" glyph-name="w" horiz-adv-x="840" d="M579 -68T572 -61T561 -42Q555 -18 555 5L554 23Q549 81 532 177Q525 213 524 218Q512 284 508 323T490 533Q471 752 455 880Q436 1032 415 1053L404 942Q394 856 394 803Q394 719 386 635T356 411Q344
333 331 242Q331 242 326 198Q320 132 304 47Q297 10 285 -18Q275 -43 261 -43Q231 -43 214 49Q198 140 187 310Q179 454 175 495T159 616L151 671Q135 781 131 828T123 967L121 1001Q119 1065 115 1107T103 1202Q94 1259 75 1311Q84 1327 108 1327Q121 1327 130
1315T143 1281Q147 1250 149 1198V1171Q153 1114 197 765Q238 422 243 231Q250 214 254 176Q259 132 265 121H267L298 335Q302 374 311 435Q323 528 332 619L335 648Q343 730 349 864Q354 1006 362 1061Q376 1165 376 1188L413 1204Q427 1204 437 1196T448 1176Q448
1171 443 1159Q525 884 552 498L557 422Q560 360 562 332T572 264Q580 221 593 186Q618 255 635 525T652 995Q652 1044 666 1154Q679 1257 679 1313Q679 1334 671 1348Q671 1380 712 1380Q730 1380 735 1376T740 1356Q740 1302 730 1268L734 1255Q716 1174 716
1063Q716 1045 720 1040L708 999L714 985Q708 973 708 961L714 922L708 913Q708 841 692 593T667 279Q666 267 655 223Q644 177 644 156Q644 100 637 31Q633 -12 620 -40Q607 -68 589 -68Q579 -68 572 -61ZM595 176Q595 178 593 178V176H595Z" />
<glyph unicode="x" glyph-name="x" horiz-adv-x="510" d="M111 -6T111 18Q111 118 168 337Q225 556 225 659Q225 694 198 834T140 1103T96 1247L97 1255Q98 1258 98 1262Q98 1275 89 1291Q80 1308 80 1315Q80 1323 93 1329T117 1335Q133 1335 144 1311T159 1259L162
1212Q190 1137 214 1008Q239 874 256 817Q268 842 288 978T313 1180Q326 1345 340 1350L357 1353L373 1356L391 1331Q358 1282 358 1151Q358 1144 359 1139Q360 1133 360 1126L358 1124Q352 1060 318 900Q283 734 283 645Q283 612 336 372T405 92Q406 90 415 75Q430
50 430 33Q430 20 421 12T399 4Q385 4 373 10L335 165Q285 368 258 508Q235 473 213 294Q190 112 176 70Q180 63 180 45Q180 24 173 9T149 -6Q111 -6 111 18Z" />
<glyph unicode="y" glyph-name="y" horiz-adv-x="547" d="M276 -31T266 -23T253 -8Q273 43 273 350Q273 417 266 521L257 666L244 692L250 717Q239 746 214 813T163 950L141 1011Q133 1033 107 1108T67 1230Q52 1281 50 1307L78 1329Q98 1326 138 1199Q165 1114
202 991L217 943Q255 816 271 811L279 848L275 858Q289 875 315 1004Q340 1136 367 1246Q396 1360 420 1360Q430 1360 438 1354T447 1339Q447 1308 390 1119L384 1097Q368 1042 357 1001T334 910Q310 810 310 723Q320 699 320 688Q320 678 314 660Q308 641 308
629Q308 602 316 536Q324 470 324 442Q324 352 325 280Q326 208 326 117V108Q326 -31 283 -31Q276 -31 266 -23Z" />
<glyph unicode="z" glyph-name="z" horiz-adv-x="525" d="M80 -4T80 27Q80 52 101 133L119 203L150 317Q166 373 189 486Q214 608 228 663T284 848Q333 1003 358 1111T383 1303Q352 1303 287 1297Q227 1290 191 1290Q179 1290 171 1300T162 1323Q162 1341 236
1349Q305 1356 389 1356Q407 1356 415 1355T432 1345Q440 1337 440 1323Q440 1255 390 1099Q340 943 340 915Q330 863 278 688Q149 261 148 63Q165 59 207 59Q225 59 250 63Q278 66 293 66Q352 66 352 39Q352 12 305 12Q286 12 245 15Q205 18 184 18Q162 18 140
7Q116 -4 111 -4Q80 -4 80 27Z" />
<glyph unicode="{" glyph-name="braceleft" horiz-adv-x="482" d="M244 -51T209 12T173 188Q173 229 176 296Q179 362 179 403Q179 473 183 542Q187 611 187 645Q187 734 128 739Q120 742 120 760Q120 773 136 776Q161 776 174 802T187 872Q187 913 180 1060Q173
1206 173 1305Q173 1418 208 1481T304 1544Q327 1544 354 1533T382 1509Q382 1499 377 1494T365 1488Q362 1487 349 1487Q345 1487 334 1491Q323 1495 308 1495Q235 1495 235 1296V1044Q235 1017 238 964Q241 912 241 887Q241 835 230 805T187 758Q218 742 229
713T241 631Q241 599 238 528Q235 458 235 420V197Q235 -2 308 -2Q343 -2 360 -5Q372 -8 377 -13T382 -29Q382 -51 304 -51Q244 -51 209 12Z" />
<glyph unicode="|" glyph-name="bar" horiz-adv-x="311" d="M98 -88T94 -85T90 -72Q90 3 103 200Q115 380 115 471Q115 650 131 977Q147 1304 147 1487Q147 1508 150 1522Q152 1533 156 1538T168 1548Q175 1552 188 1552Q201 1552 201 1530Q201 1331 182 952Q162
554 162 371Q162 144 156 51V2L149 -68Q149 -88 115 -88Q98 -88 94 -85Z" />
<glyph unicode="}" glyph-name="braceright" horiz-adv-x="482" d="M151 -51T126 -43T100 -23Q100 0 133 0L148 -1Q156 -2 174 -2Q247 -2 247 197V449Q247 477 244 529Q241 582 241 606Q241 660 252 689T294 735Q263 751 252 779T241 862Q241 896 244 966Q247
1037 247 1073V1296Q247 1495 174 1495H143Q100 1495 100 1516Q100 1527 125 1535T178 1544Q238 1544 273 1481T309 1305Q309 1264 306 1198Q303 1131 303 1090Q303 1022 299 951Q294 863 294 848Q294 759 354 754Q362 751 362 733Q362 720 346 717Q321 717 308
690T294 621Q294 601 302 433Q309 286 309 188Q309 75 274 12T178 -51Q151 -51 126 -43Z" />
<glyph unicode="~" glyph-name="asciitilde" horiz-adv-x="800" d="M468 1022T431 1042T372 1085Q353 1104 320 1143Q309 1151 296 1151Q273 1151 252 1132T230 1094Q230 1088 235 1073Q240 1058 240 1051Q220 1025 198 1025Q179 1025 179 1055Q179 1120 212 1160T304
1200Q326 1200 350 1182T396 1138Q416 1112 438 1094T478 1075Q486 1075 494 1077L508 1073Q513 1087 536 1101Q544 1106 549 1118T555 1149Q555 1155 550 1170Q545 1180 543 1188Q549 1200 564 1200Q587 1200 599 1180T611 1130Q611 1102 596 1077T555 1037T502
1022Q468 1022 431 1042Z" />
<glyph unicode="&#xa0;" glyph-name="uni00A0" horiz-adv-x="350" />
<glyph unicode="&#xa1;" glyph-name="exclamdown" horiz-adv-x="560" d="M269 1419T248 1441T227 1483Q244 1516 260 1526Q277 1537 286 1538Q296 1539 299 1548Q350 1545 350 1495Q350 1461 334 1440T289 1419Q269 1419 248 1441ZM316 -27T295 -9T274 29Q274
74 282 188Q289 287 289 350L287 525Q284 642 284 700V1192L285 1196L286 1200H313L307 1190Q323 1152 323 1069Q323 1042 322 1021L321 979Q321 808 343 490Q364 165 364 0Q364 -27 338 -27Q316 -27 295 -9Z" />
<glyph unicode="&#xa2;" glyph-name="cent" horiz-adv-x="619" d="M367 11T361 15T354 25L350 23Q346 124 346 203V330Q324 338 325 338Q279 356 240 379Q209 396 192 412T158 455Q141 481 137 512Q110 632 110 842Q110 1154 274 1243Q274 1259 269 1306Q264 1353
264 1370Q264 1436 290 1436L303 1427Q301 1403 301 1374Q301 1310 311 1239L354 1225Q363 1222 389 1214T435 1197T469 1176Q493 1157 493 1135Q493 1128 487 1118T475 1108Q457 1108 441 1133Q437 1138 429 1150T413 1167T389 1177Q363 1185 356 1194H319L317
1198Q317 1063 348 814Q378 561 378 430Q378 422 377 415L376 401Q376 383 393 369Q450 369 487 396T567 489Q589 489 589 453Q589 427 556 397T477 347T401 326H383Q383 296 382 273Q381 250 381 221Q381 189 384 124Q387 60 387 27Q387 11 374 11Q367 11 361
15ZM331 401Q331 545 299 870Q286 1084 266 1161Q242 1157 221 1119T188 1036T178 977Q161 833 161 788V781Q161 397 323 397L331 401Z" />
<glyph unicode="&#xa3;" glyph-name="sterling" horiz-adv-x="702" d="M97 33T97 49Q97 80 175 115Q207 129 216 135Q250 160 268 232T287 379Q287 453 271 535T219 731Q184 848 175 889Q172 889 170 888Q168 887 165 887Q153 887 145 895T136 915Q136 944 162
944Q162 993 150 1090Q138 1186 138 1235Q138 1270 139 1300T143 1369Q146 1410 152 1439T172 1504Q184 1537 202 1557T251 1592Q281 1606 315 1606Q359 1606 397 1567T453 1477Q468 1431 468 1399L449 1378Q434 1378 427 1383T412 1405L402 1425Q402 1458 389
1490T352 1542T302 1562Q275 1562 251 1530T215 1447Q189 1348 189 1268Q189 1180 199 1065T222 950Q255 950 330 964Q398 977 437 977Q449 977 457 970T466 950Q466 918 441 918Q317 918 222 899Q269 794 303 642T337 375Q337 334 330 300T305 213Q285 159 281
143Q333 143 430 121Q530 98 578 98Q626 98 668 115L697 94Q697 49 601 49Q586 49 554 52Q523 55 507 55L500 51Q481 62 438 72T355 86L320 90Q266 90 229 78T128 27Q97 33 97 49Z" />
<glyph unicode="&#xa4;" glyph-name="currency" horiz-adv-x="940" d="M711 219T711 258Q672 329 668 334Q575 231 424 231Q378 231 330 257T244 326Q231 326 221 301Q205 267 190 247T156 227Q133 227 124 239T115 279Q115 283 157 329Q199 376 205 395Q190 419
181 456T171 522Q170 539 170 592Q170 777 198 940Q216 1046 244 1075Q244 1097 195 1149Q146 1199 146 1212Q146 1235 170 1235Q192 1235 210 1221T248 1177Q265 1151 277 1141Q285 1147 315 1179L372 1238Q400 1264 408 1264Q470 1264 520 1247T629 1190Q641
1191 663 1227Q692 1274 714 1301T758 1329L787 1298Q786 1283 739 1224Q693 1166 693 1143Q693 1133 727 1032Q783 855 783 774Q783 686 744 530Q743 524 733 490Q715 429 715 397Q715 370 731 343T774 284Q793 262 793 248Q793 219 766 219Q711 219 711 258ZM511
283T552 308T620 378Q675 469 694 583Q711 694 711 780Q711 827 701 897T674 1024T637 1094Q620 1094 609 1108T598 1141Q578 1169 536 1186T453 1204Q435 1204 404 1184T347 1138T320 1094L338 1075Q338 1048 331 1040T309 1032Q296 1032 291 1024Q280 1008 267
943T245 805T236 696Q236 680 240 659Q234 634 234 586Q234 521 245 481T287 412Q287 349 336 316T461 283Q511 283 552 308Z" />
<glyph unicode="&#xa5;" glyph-name="yen" horiz-adv-x="920" d="M393 16T393 41Q399 52 409 163T420 307Q420 375 428 541Q436 706 436 774Q436 786 432 797Q341 797 176 786Q158 796 141 825L149 852Q303 852 442 860Q446 888 446 954Q446 981 424 981Q394 981
350 977Q306 973 276 973Q162 973 162 1010L176 1032Q220 1032 255 1031Q290 1030 336 1030Q434 1030 446 1044V1083Q423 1096 346 1235Q239 1429 163 1554T43 1716V1747L69 1755Q83 1755 105 1734Q139 1702 201 1609Q223 1576 246 1540Q259 1520 265 1511T274
1497Q275 1480 333 1395Q353 1365 365 1344Q367 1340 370 1335T376 1323Q401 1276 429 1229Q448 1199 458 1187Q470 1172 477 1171Q499 1214 528 1311Q538 1348 587 1506Q589 1513 591 1521T597 1539Q646 1691 664 1737Q682 1783 692 1796T723 1810Q737 1810 747
1802T757 1780Q716 1684 664 1503Q612 1320 583 1245Q583 1208 551 1142Q520 1078 518 1047Q543 1034 569 1034Q598 1034 680 1039Q762 1044 790 1044Q802 1044 827 1001Q825 975 682 975H518L516 920L514 864H741Q752 864 761 865Q770 866 780 866Q802 866 812
857T823 821Q823 810 811 801T786 791H778L782 793L767 797Q754 801 745 801H518L510 797Q510 689 495 471Q479 260 479 143Q479 128 480 116Q481 104 481 90Q481 16 434 16Q393 16 393 41Z" />
<glyph unicode="&#xa6;" glyph-name="brokenbar" horiz-adv-x="313" d="M143 858T139 861T135 874Q135 933 140 1095Q145 1255 145 1315L147 1410L149 1487Q149 1508 152 1522Q154 1533 158 1538T170 1548Q177 1552 190 1552Q203 1552 203 1530Q203 1504 198 1356L192
1214Q192 1057 186 997V948L180 879Q180 867 175 863T160 858Q143 858 139 861ZM118 -47T114 -44T110 -31Q110 39 116 169Q121 314 121 369L123 475L125 561Q125 584 130 604Q136 627 166 627Q171 627 173 626T177 621Q178 618 178 604Q178 576 173 419L168 268Q168
140 162 92V43L155 -27Q155 -35 152 -40T145 -46Q143 -47 135 -47Q118 -47 114 -44Z" />
<glyph unicode="&#xa7;" glyph-name="section" horiz-adv-x="495" d="M202 -57T176 -39T149 0Q149 16 176 16Q185 16 198 10Q212 4 219 4Q250 4 274 24T311 77Q335 139 335 190Q335 261 308 321T225 466L154 572Q126 613 108 668T90 784Q90 891 135 961Q106 1028
106 1098Q106 1135 115 1180T143 1271Q162 1319 195 1348T268 1378Q293 1378 319 1360T346 1321Q346 1305 319 1305Q311 1305 298 1311Q284 1317 276 1317Q245 1317 221 1293T184 1228Q159 1153 159 1090Q159 1019 186 962T270 827Q291 797 340 731Q368 694 386
643T405 537Q405 431 358 354Q389 288 389 223Q389 186 380 141T352 50Q333 2 300 -27T227 -57Q202 -57 176 -39ZM352 454T352 520Q352 570 334 624T289 719Q271 745 226 810Q191 860 168 897Q143 837 143 760Q143 710 161 657T205 565Q237 516 267 476Q304 424
325 391Q352 454 352 520Z" />
<glyph unicode="&#xa8;" glyph-name="dieresis" horiz-adv-x="920" d="M575 1089T562 1103T549 1134Q549 1153 564 1169T599 1185Q616 1185 630 1169T644 1136Q644 1089 590 1089Q575 1089 562 1103ZM302 1081T291 1097T279 1132Q279 1150 294 1166T328 1183Q348
1183 358 1164T369 1116Q369 1100 354 1091T318 1081Q302 1081 291 1097Z" />
<glyph unicode="&#xa9;" glyph-name="copyright" horiz-adv-x="1240" d="M413 2T320 62T188 229T137 503Q134 541 128 662L126 694Q115 854 115 924Q115 997 119 1063T134 1211Q146 1304 164 1380T215 1531Q249 1612 291 1666T395 1754Q456 1788 533 1788Q612
1788 682 1758T805 1673Q914 1559 973 1396Q1035 1217 1059 1056Q1082 889 1082 756Q1082 2 582 2Q413 2 320 62ZM755 57T857 171Q906 226 938 296T994 465Q992 471 992 475Q992 494 1003 533Q1014 572 1014 588V893Q1014 939 996 1027Q976 1115 975 1124Q911 1524
689 1677Q685 1680 677 1686T662 1696Q656 1699 649 1704Q643 1708 621 1721Q611 1726 603 1729T591 1733Q575 1737 558 1737Q492 1737 436 1706T341 1621Q305 1571 276 1500T230 1354Q214 1286 204 1205T190 1059Q187 998 187 940Q187 851 198 703L201 655L205
594Q209 519 212 482T225 383Q234 320 247 282T288 193Q313 147 347 121T437 76Q488 57 556 57Q755 57 857 171ZM599 250T574 255T531 269Q518 274 488 290Q465 302 445 311Q364 414 344 544Q334 610 331 659T328 793V801Q328 884 332 960Q334 1019 338 1061T352
1158Q361 1214 373 1255T406 1342Q426 1386 451 1413T511 1459Q546 1477 588 1477Q627 1477 645 1474T687 1450T748 1380Q805 1303 805 1276Q805 1264 798 1256T779 1247Q760 1247 741 1270T706 1329Q690 1363 661 1387T597 1411Q555 1411 522 1384T469 1312Q452
1273 440 1214T422 1103L413 997Q408 930 406 918L410 909Q402 880 402 823V786Q402 692 406 638T425 514Q442 436 472 397V391Q500 359 512 349T552 324Q581 309 613 309Q651 309 684 325T736 364Q759 391 772 404T795 418Q826 418 826 373Q826 344 791 316T707
269T623 250Q599 250 574 255Z" />
<glyph unicode="&#xaa;" glyph-name="ordfeminine" horiz-adv-x="510" d="M369 771T357 775T343 796L331 889Q324 937 324 945Q305 950 268 950L246 951Q234 953 226 953Q201 956 187 956Q179 956 179 951L178 947L176 924Q172 892 163 843Q158 817 149 795Q137
788 128 782T115 775Q108 775 100 781T92 795Q92 795 93 796T94 798L95 802Q102 827 109 870Q112 883 117 910T129 962Q134 984 137 1004T142 1033Q143 1039 147 1063T160 1119Q170 1154 171 1173T173 1194Q177 1220 183 1245L193 1293Q210 1378 213 1399Q213 1401
216 1411T220 1440Q222 1485 225 1505Q230 1535 232 1539Q249 1539 253 1538H261Q275 1538 281 1544Q315 1544 315 1527Q315 1470 323 1402L326 1380L330 1342Q333 1295 343 1212T367 1033Q387 888 399 791V788Q399 776 390 771Q369 771 357 775ZM319 986Q312 1073
276 1459L235 1259L214 1155Q203 1099 196 1059T188 1001Q188 996 232 991T307 986H319Z" />
<glyph unicode="&#xab;" glyph-name="guillemotleft" horiz-adv-x="800" d="M496 -35T484 -21Q463 3 434 58Q425 74 412 101L399 127Q340 239 248 422Q191 535 159 605Q123 685 123 698Q123 711 181 855Q253 1037 305 1164Q371 1324 383 1358V1360Q423 1466 440
1466Q478 1466 481 1438Q463 1412 432 1341Q429 1334 424 1321T410 1285L391 1235Q329 1073 254 868Q198 710 186 692Q189 651 268 500T457 156Q545 2 545 -12Q545 -20 530 -27T504 -35Q496 -35 484 -21ZM661 2L647 4H643Q610 53 562 164L526 242L424 455L403 499Q388
529 379 549Q373 566 335 618Q297 668 297 698Q297 723 345 837Q397 961 451 1081Q509 1211 520 1247L532 1287Q542 1326 550 1349T571 1395Q585 1420 598 1421L625 1401Q616 1340 577 1241T486 1039Q437 941 403 847T369 700Q369 684 509 398T684 53L703 39Q701
27 692 14T674 0L661 2Z" />
<glyph unicode="&#xac;" glyph-name="logicalnot" horiz-adv-x="800" d="M558 498T546 508T534 528Q534 564 531 630Q528 696 528 727Q528 736 519 737Q507 739 477 739H444Q421 739 380 736Q340 733 317 733H155Q156 733 154 739Q147 755 147 768Q147 782 161
782L223 787Q275 791 296 791Q331 791 392 794Q452 797 487 797Q537 797 554 801Q573 798 587 789T602 766Q602 749 598 730L593 700Q593 600 595 530Q595 514 587 506T569 498Q558 498 546 508Z" />
<glyph unicode="&#xad;" glyph-name="uni00AD" horiz-adv-x="545" d="M97 721T84 731T70 756Q70 762 198 768T420 774Q436 774 450 764T465 739Q465 733 338 727T113 721Q97 721 84 731Z" />
<glyph unicode="&#xae;" glyph-name="registered" horiz-adv-x="1300" d="M596 -166T531 -148T415 -96Q369 -66 330 -19T263 83Q239 130 220 195T189 327Q179 382 173 455T165 590Q163 664 163 715Q163 790 164 850Q165 910 165 985Q165 1915 667 1915Q745 1915
826 1864T962 1735Q978 1730 988 1718T1002 1689Q1010 1649 1030 1632Q1030 1587 1085 1279Q1107 1157 1116 1075T1126 920V854Q1126 739 1121 571Q1118 479 1109 409T1080 238Q1065 155 1037 91T970 -12Q891 -94 824 -130T671 -166Q596 -166 531 -148ZM663 -106T723
-89T830 -42Q872 -14 907 30T969 124Q991 167 1008 227T1036 349Q1044 399 1049 467T1057 592Q1058 625 1058 707Q1058 1296 935 1651L950 1667Q930 1717 892 1731Q851 1774 827 1794T765 1834Q723 1855 682 1855Q604 1855 537 1826T424 1746Q380 1698 345 1629T288
1485Q268 1418 256 1336T238 1179Q233 1104 233 1042Q233 962 240 829Q247 696 247 616Q247 182 378 12Q404 -22 450 -46Q496 -73 507 -84Q543 -98 575 -98L593 -106Q663 -106 723 -89ZM511 168T497 179T483 209Q483 379 475 473Q474 494 461 569Q448 635 448 676V1075Q448
1139 436 1263Q423 1383 423 1454Q423 1506 434 1538T471 1586Q496 1602 527 1607T616 1612Q663 1612 699 1598T758 1556Q782 1528 796 1497T817 1425Q829 1350 829 1270Q829 1204 815 1153T779 1075Q756 1048 738 1032Q711 1009 700 996T688 969Q688 950 734 782Q781
612 827 452Q874 291 876 291V289L885 263L900 222Q907 204 907 199Q907 185 868 168Q848 168 828 201Q797 250 764 385Q756 418 742 484Q732 532 727 545Q714 587 687 696Q655 827 643 871Q624 940 614 940Q597 940 572 927Q544 913 526 913Q526 909 524 891L521
834Q520 821 520 797Q520 702 543 504Q565 315 565 211Q565 190 559 179Q551 168 532 168Q511 168 497 179ZM556 975T601 1005T686 1075T735 1137Q753 1193 753 1272Q753 1323 750 1367Q747 1399 743 1419T729 1468Q719 1494 706 1510T671 1537Q647 1548 622 1548Q567
1548 542 1538T508 1500T499 1415Q499 1333 505 1168Q508 1091 516 1030Q523 975 534 975Q556 975 601 1005Z" />
<glyph unicode="&#xaf;" glyph-name="overscore" horiz-adv-x="720" d="M218 1103T199 1107Q166 1114 160 1122Q155 1129 155 1136Q157 1153 286 1153H402Q437 1153 460 1153T506 1149Q530 1146 540 1139T550 1120Q548 1103 419 1103H304H264Q218 1103 199 1107Z" />
<glyph unicode="&#xb0;" glyph-name="degree" horiz-adv-x="536" d="M214 965T176 992T114 1059T90 1133Q90 1189 106 1242T157 1335Q194 1378 246 1378Q301 1378 347 1353T419 1285T446 1190Q446 965 256 965Q214 965 176 992ZM303 1004T334 1021T381 1069Q407
1121 407 1174Q407 1242 365 1286T252 1331Q217 1331 189 1297T148 1214Q135 1169 135 1122Q135 1097 152 1069T197 1023T260 1004Q303 1004 334 1021Z" />
<glyph unicode="&#xb1;" glyph-name="plusminus" horiz-adv-x="800" d="M376 356T361 365T346 385V449L348 501L350 555Q350 581 349 589T342 608Q336 618 323 620T281 623Q269 623 236 618Q206 612 191 612Q131 612 131 655Q131 671 135 677T154 684Q172 684
208 681Q242 678 262 678Q346 678 346 694Q346 720 341 797Q336 872 336 899Q336 924 345 934T377 944Q414 944 414 909L406 889Q406 856 410 808Q414 760 414 727Q414 699 427 689T471 678Q493 678 533 681Q574 684 594 684Q658 684 658 647Q658 614 623 614Q598
614 562 618Q520 621 498 621H488Q456 621 441 617T420 598T414 553Q414 516 423 466Q432 417 432 389Q432 374 420 365T389 356Q376 356 361 365ZM203 217T190 227T176 252Q176 258 305 264T527 270Q543 270 557 260T572 236Q572 230 443 224T219 217Q203 217
190 227Z" />
<glyph unicode="&#xb2;" glyph-name="uni00B2" horiz-adv-x="559" d="M156 696T148 702T140 718Q174 811 201 873Q269 1025 300 1144T331 1398Q331 1480 314 1517T260 1554Q245 1548 236 1531T224 1496Q223 1486 215 1477T196 1463T180 1463Q176 1465 171 1468T165
1475V1486Q165 1533 191 1567Q197 1575 217 1580T250 1585Q317 1585 351 1551T388 1463L386 1461L388 1419Q389 1401 389 1378Q389 1284 364 1158T303 954Q299 945 296 937T289 922Q274 887 270 879Q250 837 244 823Q221 770 218 760Q215 753 215 748Q215 742 221
742Q230 744 249 747T286 752T328 754Q344 754 344 737Q344 727 342 717T334 706Q299 706 253 701Q207 696 168 696Q156 696 148 702Z" />
<glyph unicode="&#xb3;" glyph-name="uni00B3" horiz-adv-x="517" d="M210 683T186 706T162 751L170 756Q178 756 187 752T205 740Q209 737 219 730Q265 730 285 755T306 849Q306 917 300 977Q296 1014 288 1041T265 1100Q249 1132 228 1153H223L217 1152Q207
1152 195 1157V1161L190 1167Q190 1171 202 1184Q206 1188 217 1200T237 1226T252 1257Q263 1287 263 1312Q263 1362 257 1403Q252 1435 245 1457T223 1496Q219 1501 212 1501Q207 1501 202 1500T190 1498Q173 1498 160 1489T142 1466Q134 1447 128 1438T115 1433Q110
1437 99 1446T84 1460T80 1469Q98 1504 127 1522T193 1540Q210 1540 238 1532T274 1513L278 1512Q323 1447 323 1282Q323 1251 313 1233Q308 1228 304 1217T295 1201Q291 1197 288 1191T278 1183T255 1178Q280 1169 300 1151T328 1109Q341 1069 350 1011Q354 986
358 967Q365 936 366 927T367 888Q367 857 363 816Q359 777 345 742Q339 728 322 717T290 700T270 691Q252 683 232 683Q210 683 186 706Z" />
<glyph unicode="&#xb4;" glyph-name="acute" horiz-adv-x="620" d="M208 1109T198 1117T187 1139Q187 1147 243 1192Q288 1229 365 1288Q434 1341 441 1348Q486 1348 486 1316L480 1285Q375 1238 224 1109Q208 1109 198 1117Z" />
<glyph unicode="&#xb5;" glyph-name="uni00B5" horiz-adv-x="750" d="M590 1145T577 1096Q579 1090 579 1083Q579 1063 574 1001Q569 939 569 920Q569 909 570 900Q571 891 571 879Q568 841 566 739Q563 538 557 401Q550 224 508 100Q487 37 450 3T362 -31Q329
-30 291 -9T229 41Q204 72 189 207T167 528Q157 314 157 171Q157 -56 151 -149V-198L144 -268Q144 -288 110 -288Q93 -288 89 -285T85 -272Q85 -197 98 0Q110 180 110 271Q110 450 126 777Q142 1104 142 1287Q142 1308 145 1322Q148 1336 156 1343L158 1348Q161
1348 162 1347Q162 1348 162 1348T163 1348Q170 1352 183 1352Q196 1352 196 1330V1309Q205 1282 205 1235L211 692Q211 627 222 475Q233 323 233 258Q233 25 387 25Q482 25 507 454L510 496Q524 997 524 1329L522 1348L520 1366Q520 1389 555 1389Q579 1389 585
1376Q590 1361 590 1305Q590 1145 577 1096Z" />
<glyph unicode="&#xb6;" glyph-name="paragraph" horiz-adv-x="926" d="M655 2T655 102Q655 281 664 639Q673 998 673 1176Q673 1260 666 1399Q659 1538 659 1622Q659 1641 660 1656Q661 1670 661 1688Q661 1742 641 1767T567 1792Q544 1792 544 1688Q544 1578
558 1334Q571 1106 571 979Q571 835 565 677Q558 482 551 370Q546 304 541 208T532 57Q536 50 536 45Q536 34 523 24T497 14Q458 14 458 55Q458 213 480 509Q501 812 501 963L499 1042L497 1120H325Q304 1129 252 1145Q203 1159 178 1168T124 1195Q66 1230 42 1325L39
1355Q37 1379 30 1389Q30 1464 44 1530T93 1660Q116 1702 141 1726T194 1762T264 1787Q318 1801 335 1808Q376 1825 457 1827Q498 1829 513 1831Q524 1851 562 1851Q574 1851 601 1843Q628 1835 642 1835Q674 1835 689 1839Q699 1827 730 1822Q770 1817 788 1811T806
1790Q806 1761 765 1761Q747 1761 726 1765Q726 1674 734 1453Q741 1260 741 1141Q741 995 735 702Q728 429 728 264Q728 221 735 150Q741 74 741 35Q741 21 731 12T706 2Q655 2 655 102ZM475 1171T486 1179T497 1212Q497 1294 488 1454Q479 1615 479 1696Q479
1712 480 1725Q481 1738 481 1753Q462 1772 374 1772Q300 1772 236 1726T133 1606T94 1454Q94 1288 191 1227Q238 1197 296 1184T438 1171Q475 1171 486 1179Z" />
<glyph unicode="&#xb7;" glyph-name="middot" horiz-adv-x="302" d="M127 696T114 711T100 745Q100 766 116 783T153 801Q171 801 186 784T202 748Q202 696 145 696Q127 696 114 711Z" />
<glyph unicode="&#xb8;" glyph-name="cedilla" horiz-adv-x="620" d="M286 -449T258 -434T230 -394Q230 -373 252 -373Q265 -373 285 -383Q307 -394 318 -394Q353 -394 375 -351T398 -251Q398 -184 367 -160Q358 -160 340 -163Q323 -167 312 -167Q282 -167 256
-126Q273 -86 273 -9V14L332 22Q324 -28 324 -81Q473 -92 473 -287Q473 -319 451 -357T393 -422T318 -449Q286 -449 258 -434Z" />
<glyph unicode="&#xb9;" glyph-name="uni00B9" horiz-adv-x="520" d="M130 683T125 695T120 722Q120 725 123 728T129 732H162H194Q213 732 218 735T223 754Q223 876 217 1021T197 1377Q197 1379 197 1387T198 1413V1450Q198 1469 195 1476T182 1486T146 1488Q139
1488 133 1487Q127 1486 120 1486Q111 1486 106 1496T100 1514Q100 1520 106 1523T124 1528Q154 1530 213 1530Q223 1530 239 1524T255 1512V1477L257 1369Q260 1299 260 1262Q260 1232 268 1101Q275 985 275 896V882L278 819Q280 783 280 753V748Q280 744 279
741T278 736L283 733Q297 733 309 734L335 736Q370 736 370 720Q370 710 363 699T345 688L253 686L138 683Q130 683 125 695Z" />
<glyph unicode="&#xba;" glyph-name="ordmasculine" horiz-adv-x="530" d="M173 768T137 871T100 1187V1227Q100 1390 123 1467T202 1544Q208 1544 217 1541Q236 1535 256 1531T289 1525Q313 1523 327 1513T352 1481Q376 1440 388 1374T400 1235L398 1230Q398
1192 399 1162Q400 1132 400 1094Q400 1036 396 990Q390 916 374 868Q364 836 351 816T318 782Q309 776 289 772T253 768Q173 768 137 871ZM296 807T315 865Q336 927 341 994Q345 1045 345 1103Q345 1149 339 1237Q332 1342 332 1372L328 1381L330 1386Q330 1435
303 1468T235 1502Q207 1502 192 1492T173 1459Q170 1443 168 1410Q167 1400 167 1374Q165 1315 161 1295Q161 1278 158 1242Q155 1206 155 1188Q155 1163 156 1143Q157 1123 157 1098Q157 1051 167 975Q173 928 182 895T209 834Q226 807 249 807Q296 807 315 865Z"
/>
<glyph unicode="&#xbb;" glyph-name="guillemotright" horiz-adv-x="800" d="M287 -35T272 -28T257 -12Q257 2 345 156Q610 621 615 692Q603 710 547 868Q472 1073 410 1235L391 1285L384 1304Q365 1352 348 1389Q338 1410 320 1438Q323 1466 361 1466Q378 1466
418 1360V1358Q430 1324 496 1164L621 855Q678 710 678 698Q678 685 642 605Q582 473 463 245L402 127L367 58Q340 3 318 -21Q306 -35 298 -35Q287 -35 272 -28ZM120 0T111 13T99 39L117 53Q160 132 296 408T433 700Q433 753 400 846T317 1039Q266 1140 226 1240T177
1401L203 1421Q216 1418 230 1396T253 1346L270 1288L281 1247Q294 1207 351 1081Q408 952 456 838Q504 724 504 698Q504 668 467 618Q430 567 422 549Q415 530 398 498L377 455L201 90L190 68L158 4L142 2L128 0Q120 0 111 13Z" />
<glyph unicode="&#xbc;" glyph-name="onequarter" horiz-adv-x="1269" d="M376 8T376 31Q376 74 386 128T420 273Q440 349 448 387Q589 1007 704 1448Q704 1448 708 1461Q710 1470 721 1506Q727 1520 730 1525Q734 1532 739 1532Q769 1532 769 1505Q769 1498 760
1456L740 1369L728 1317L497 299L456 121L450 93Q444 60 433 29Q421 -4 396 -6Q376 8 376 31ZM130 683T125 695T120 722Q120 725 123 728T129 732H162H194Q213 732 218 735T223 754Q223 876 217 1021T197 1377Q197 1379 197 1387T198 1413V1450Q198 1469 195 1476T182
1486T146 1488Q139 1488 133 1487Q127 1486 120 1486Q111 1486 106 1496T100 1514Q100 1520 106 1523T124 1528Q154 1530 213 1530Q223 1530 239 1524T255 1512V1477L257 1369Q260 1299 260 1262Q260 1232 268 1101Q275 985 275 896V882L278 819Q280 783 280 753V748Q280
744 279 741T278 736L283 733Q297 733 309 734L335 736Q370 736 370 720Q370 710 363 699T345 688L253 686L138 683Q130 683 125 695ZM1038 -18V23L1037 26Q1042 48 1042 66Q1042 89 1038 124Q1033 167 1033 182Q1033 197 1034 208L1036 233Q1036 277 1024 283Q1022
283 1004 282T911 280Q902 280 892 279T877 277L867 278H848Q839 278 835 279T827 283L820 289V293Q820 307 825 329L815 352Q815 364 820 379Q825 395 825 408Q825 444 831 519Q836 580 836 631V812Q836 819 834 826Q832 832 832 840Q832 848 839 851T873 855Q881
855 887 851T893 839Q893 813 891 793Q888 763 888 748Q888 729 892 709L889 706L892 674Q892 607 886 531L883 498Q878 428 878 405Q878 398 882 389Q886 378 886 372Q886 365 882 357Q878 348 878 341Q878 320 889 320Q915 321 968 324T1027 330L1028 402Q1028
482 1019 558Q1014 599 1014 602Q1009 637 1009 649Q1009 655 1016 658T1031 662L1068 650Q1068 624 1071 570Q1074 516 1074 489Q1074 449 1077 392T1085 330Q1097 330 1106 332Q1120 335 1128 335Q1139 335 1144 329T1149 304Q1149 295 1140 292T1118 290Q1105
292 1095 286T1085 266Q1085 230 1089 156T1096 73Q1095 71 1095 54Q1095 37 1099 27L1096 13L1099 5V-11L1081 -25L1038 -18Z" />
<glyph unicode="&#xbd;" glyph-name="onehalf" horiz-adv-x="1200" d="M130 683T125 695T120 722Q120 725 123 728T129 732H162H194Q213 732 218 735T223 754Q223 876 217 1021T197 1377Q197 1379 197 1387T198 1413V1450Q198 1469 195 1476T182 1486T146 1488Q139
1488 133 1487Q127 1486 120 1486Q111 1486 106 1496T100 1514Q100 1520 106 1523T124 1528Q154 1530 213 1530Q223 1530 239 1524T255 1512V1477L257 1369Q260 1299 260 1262Q260 1232 268 1101Q275 985 275 896V882L278 819Q280 783 280 753V748Q280 744 279
741T278 736L283 733Q297 733 309 734L335 736Q370 736 370 720Q370 710 363 699T345 688L253 686L138 683Q130 683 125 695ZM391 8T391 31Q391 74 401 128T435 273Q455 349 463 387Q604 1007 719 1448Q719 1448 723 1461Q725 1470 736 1506Q742 1520 745 1525Q749
1532 754 1532Q784 1532 784 1505Q784 1498 775 1456L755 1369L743 1317L512 299L471 121L465 93Q459 60 448 29Q436 -4 411 -6Q391 8 391 31ZM856 -8T848 -2T840 14Q874 107 901 169Q969 321 1000 440T1031 694Q1031 776 1014 813T960 850Q945 844 936 827T924
792Q923 782 915 773T896 759T880 759Q876 761 871 764T865 771V782Q865 829 891 863Q897 871 917 876T950 881Q1017 881 1051 847T1088 759L1086 757L1088 715Q1089 697 1089 674Q1089 580 1064 454T1003 250Q999 241 996 233T989 218Q974 183 970 175Q950 133
944 119Q921 66 918 56Q915 49 915 44Q915 38 921 38Q930 40 949 43T986 48T1028 50Q1044 50 1044 33Q1044 23 1042 13T1034 2Q999 2 953 -3Q907 -8 868 -8Q856 -8 848 -2Z" />
<glyph unicode="&#xbe;" glyph-name="threequarters" horiz-adv-x="1269" d="M210 683T186 706T162 751L170 756Q178 756 187 752T205 740Q209 737 219 730Q265 730 285 755T306 849Q306 917 300 977Q296 1014 288 1041T265 1100Q249 1132 228 1153H223L217 1152Q207
1152 195 1157V1161L190 1167Q190 1171 202 1184Q206 1188 217 1200T237 1226T252 1257Q263 1287 263 1312Q263 1362 257 1403Q252 1435 245 1457T223 1496Q219 1501 212 1501Q207 1501 202 1500T190 1498Q173 1498 160 1489T142 1466Q134 1447 128 1438T115 1433Q110
1437 99 1446T84 1460T80 1469Q98 1504 127 1522T193 1540Q210 1540 238 1532T274 1513L278 1512Q323 1447 323 1282Q323 1251 313 1233Q308 1228 304 1217T295 1201Q291 1197 288 1191T278 1183T255 1178Q280 1169 300 1151T328 1109Q341 1069 350 1011Q354 986
358 967Q365 936 366 927T367 888Q367 857 363 816Q359 777 345 742Q339 728 322 717T290 700T270 691Q252 683 232 683Q210 683 186 706ZM394 8T394 31Q394 74 404 128T438 273Q458 349 466 387Q607 1007 722 1448Q722 1448 726 1461Q728 1470 739 1506Q745 1520
748 1525Q752 1532 757 1532Q787 1532 787 1505Q787 1498 778 1456L758 1369L746 1317L515 299L474 121L468 93Q462 60 451 29Q439 -4 414 -6Q394 8 394 31ZM1038 -18V23L1037 26Q1042 48 1042 66Q1042 89 1038 124Q1033 167 1033 182Q1033 197 1034 208L1036 233Q1036
277 1024 283Q1022 283 1004 282T911 280Q902 280 892 279T877 277L867 278H848Q839 278 835 279T827 283L820 289V293Q820 307 825 329L815 352Q815 364 820 379Q825 395 825 408Q825 444 831 519Q836 580 836 631V812Q836 819 834 826Q832 832 832 840Q832 848
839 851T873 855Q881 855 887 851T893 839Q893 813 891 793Q888 763 888 748Q888 729 892 709L889 706L892 674Q892 607 886 531L883 498Q878 428 878 405Q878 398 882 389Q886 378 886 372Q886 365 882 357Q878 348 878 341Q878 320 889 320Q915 321 968 324T1027
330L1028 402Q1028 482 1019 558Q1014 599 1014 602Q1009 637 1009 649Q1009 655 1016 658T1031 662L1068 650Q1068 624 1071 570Q1074 516 1074 489Q1074 449 1077 392T1085 330Q1097 330 1106 332Q1120 335 1128 335Q1139 335 1144 329T1149 304Q1149 295 1140
292T1118 290Q1105 292 1095 286T1085 266Q1085 230 1089 156T1096 73Q1095 71 1095 54Q1095 37 1099 27L1096 13L1099 5V-11L1081 -25L1038 -18Z" />
<glyph unicode="&#xbf;" glyph-name="questiondown" horiz-adv-x="493" d="M248 1288T233 1305T217 1341Q217 1392 274 1392Q292 1392 305 1377T319 1343Q319 1323 303 1306T266 1288Q248 1288 233 1305ZM187 -194T163 -149Q143 -108 132 -44T120 79Q120 177 139
284T186 487Q213 581 232 726T251 1027L249 1142Q250 1141 253 1142Q256 1144 262 1146T274 1148Q293 1148 297 1124Q297 817 258 565Q250 521 226 416Q200 308 187 230T174 81Q174 30 178 -11T199 -97Q217 -149 247 -149H270Q342 -149 342 -22Q342 7 327 101Q350
111 363 111Q377 111 378 101Q393 25 393 -26Q393 -88 368 -138Q355 -164 331 -179T274 -194Q187 -194 163 -149Z" />
<glyph unicode="&#xc0;" glyph-name="Agrave" horiz-adv-x="723" d="M523 0T511 10T499 35V303Q499 319 448 334T329 359T223 369Q217 369 197 292Q180 225 160 138T134 20Q130 5 112 5Q96 5 83 15T70 39Q70 41 71 42V45L95 147L137 336L167 471Q198 604 245 877Q296
1170 319 1274Q336 1350 356 1419Q369 1466 386 1502Q402 1536 415 1536Q447 1536 462 1516Q473 1498 494 1311T532 940L560 600Q560 512 572 333Q583 146 583 66V57Q583 30 577 17Q570 0 538 0Q523 0 511 10ZM497 396T497 416Q497 543 483 763T453 1151Q445 1239
428 1389L424 1411Q420 1426 420 1436Q404 1390 391 1323T356 1122Q309 821 272 664Q268 641 254 594Q239 542 232 506T224 438V426Q311 397 431 397H443Q449 396 457 396Q497 396 497 416ZM532 1585T442 1636T345 1693H334Q324 1693 312 1695Q242 1707 250 1747Q256
1783 270 1789L283 1787Q343 1777 357 1751L380 1739Q401 1728 455 1695Q503 1665 531 1642Q565 1614 562 1597Q561 1591 553 1587T536 1584Q532 1585 442 1636Z" />
<glyph unicode="&#xc1;" glyph-name="Aacute" horiz-adv-x="723" d="M523 0T511 10T499 35V303Q499 319 448 334T329 359T223 369Q217 369 197 292Q180 225 160 138T134 20Q130 5 112 5Q96 5 83 15T70 39Q70 41 71 42V45L95 147L137 336L167 471Q198 604 245 877Q296
1170 319 1274Q336 1350 356 1419Q369 1466 386 1502Q402 1536 415 1536Q447 1536 462 1516Q473 1498 494 1311T532 940L560 600Q560 512 572 333Q583 146 583 66V57Q583 30 577 17Q570 0 538 0Q523 0 511 10ZM497 396T497 416Q497 543 483 763T453 1151Q445 1239
428 1389L424 1411Q420 1426 420 1436Q404 1390 391 1323T356 1122Q309 821 272 664Q268 641 254 594Q239 542 232 506T224 438V426Q311 397 431 397H443Q449 396 457 396Q497 396 497 416ZM443 1639T433 1647T422 1669Q422 1677 478 1722Q523 1759 600 1818Q669
1871 676 1878Q721 1878 721 1846L715 1815Q610 1768 459 1639Q443 1639 433 1647Z" />
<glyph unicode="&#xc2;" glyph-name="Acircumflex" horiz-adv-x="723" d="M523 0T511 10T499 35V303Q499 319 448 334T329 359T223 369Q217 369 197 292Q180 225 160 138T134 20Q130 5 112 5Q96 5 83 15T70 39Q70 41 71 42V45L95 147L137 336L167 471Q198 604
245 877Q296 1170 319 1274Q336 1350 356 1419Q369 1466 386 1502Q402 1536 415 1536Q447 1536 462 1516Q473 1498 494 1311T532 940L560 600Q560 512 572 333Q583 146 583 66V57Q583 30 577 17Q570 0 538 0Q523 0 511 10ZM497 396T497 416Q497 543 483 763T453
1151Q445 1239 428 1389L424 1411Q420 1426 420 1436Q404 1390 391 1323T356 1122Q309 821 272 664Q268 641 254 594Q239 542 232 506T224 438V426Q311 397 431 397H443Q449 396 457 396Q497 396 497 416ZM528 1598Q517 1727 469 1905Q460 1881 438 1817T401 1709Q385
1660 383 1639L348 1592L311 1618Q312 1648 347 1734T423 1892T483 1964Q512 1964 512 1921Q512 1883 521 1845T549 1756Q564 1711 573 1682L571 1669L586 1639L584 1628Q592 1610 592 1606Q592 1587 555 1581L528 1598Z" />
<glyph unicode="&#xc3;" glyph-name="Atilde" horiz-adv-x="723" d="M523 0T511 10T499 35V303Q499 319 448 334T329 359T223 369Q217 369 197 292Q180 225 160 138T134 20Q130 5 112 5Q96 5 83 15T70 39Q70 41 71 42V45L95 147L137 336L167 471Q198 604 245 877Q296
1170 319 1274Q336 1350 356 1419Q369 1466 386 1502Q402 1536 415 1536Q447 1536 462 1516Q473 1498 494 1311T532 940L560 600Q560 512 572 333Q583 146 583 66V57Q583 30 577 17Q570 0 538 0Q523 0 511 10ZM497 396T497 416Q497 543 483 763T453 1151Q445 1239
428 1389L424 1411Q420 1426 420 1436Q404 1390 391 1323T356 1122Q309 821 272 664Q268 641 254 594Q239 542 232 506T224 438V426Q311 397 431 397H443Q449 396 457 396Q497 396 497 416ZM272 1607T259 1618T246 1642Q246 1706 280 1745T365 1784Q416 1784 452
1742Q467 1712 503 1688T569 1663Q622 1663 622 1736Q622 1742 617 1757Q612 1767 610 1775Q616 1787 631 1787Q654 1787 666 1767T678 1717Q678 1689 663 1664T622 1624T569 1609Q535 1609 498 1629T439 1672Q420 1691 387 1730L373 1736Q343 1736 320 1720T297
1681Q297 1671 307 1638L285 1607Q272 1607 259 1618Z" />
<glyph unicode="&#xc4;" glyph-name="Adieresis" horiz-adv-x="723" d="M523 0T511 10T499 35V303Q499 319 448 334T329 359T223 369Q217 369 197 292Q180 225 160 138T134 20Q130 5 112 5Q96 5 83 15T70 39Q70 41 71 42V45L95 147L137 336L167 471Q198 604 245
877Q296 1170 319 1274Q336 1350 356 1419Q369 1466 386 1502Q402 1536 415 1536Q447 1536 462 1516Q473 1498 494 1311T532 940L560 600Q560 512 572 333Q583 146 583 66V57Q583 30 577 17Q570 0 538 0Q523 0 511 10ZM497 396T497 416Q497 543 483 763T453 1151Q445
1239 428 1389L424 1411Q420 1426 420 1436Q404 1390 391 1323T356 1122Q309 821 272 664Q268 641 254 594Q239 542 232 506T224 438V426Q311 397 431 397H443Q449 396 457 396Q497 396 497 416ZM580 1657T567 1671T554 1702Q554 1721 569 1737T604 1753Q621 1753
635 1737T649 1704Q649 1657 595 1657Q580 1657 567 1671ZM307 1649T296 1665T284 1700Q284 1718 299 1734T333 1751Q353 1751 363 1732T374 1684Q374 1668 359 1659T323 1649Q307 1649 296 1665Z" />
<glyph unicode="&#xc5;" glyph-name="Aring" horiz-adv-x="723" d="M523 0T511 10T499 35V303Q499 319 448 334T329 359T223 369Q217 369 197 292Q180 225 160 138T134 20Q130 5 112 5Q96 5 83 15T70 39Q70 41 71 42V45L95 147L137 336L167 471Q198 604 245 877Q296
1170 319 1274Q336 1350 356 1419Q369 1466 386 1502Q402 1536 415 1536Q447 1536 462 1516Q473 1498 494 1311T532 940L560 600Q560 512 572 333Q583 146 583 66V57Q583 30 577 17Q570 0 538 0Q523 0 511 10ZM497 396T497 416Q497 543 483 763T453 1151Q445 1239
428 1389L424 1411Q420 1426 420 1436Q404 1390 391 1323T356 1122Q309 821 272 664Q268 641 254 594Q239 542 232 506T224 438V426Q311 397 431 397H443Q449 396 457 396Q497 396 497 416ZM420 1606T397 1621T360 1662T346 1714Q346 1744 363 1773T408 1822T465
1841Q490 1841 516 1823T560 1776T577 1723Q577 1667 541 1637T446 1606Q420 1606 397 1621ZM465 1645T494 1662T524 1702Q524 1742 509 1772T465 1802Q440 1802 417 1777T393 1725Q393 1704 396 1690T409 1661Q419 1645 438 1645Q465 1645 494 1662Z" />
<glyph unicode="&#xc6;" glyph-name="AE" horiz-adv-x="835" d="M455 -12Q472 104 472 229Q472 281 467 426Q462 571 462 621L451 635Q444 634 387 629Q319 623 287 618Q243 610 240 600L138 209Q135 190 123 134T98 43Q83 2 66 2Q60 2 55 10T50 27Q51 120 132
432Q257 931 400 1393Q428 1486 449 1515Q470 1544 494 1544Q514 1544 572 1549Q630 1554 652 1554Q716 1554 716 1522L703 1497Q603 1497 501 1485Q501 1428 508 1333Q515 1238 515 1180Q515 1100 512 941Q509 782 509 702L519 690Q545 690 600 701Q650 711 681
711L709 676Q709 641 563 641H509Q509 542 513 398Q517 254 517 154Q517 131 516 112Q515 93 515 70Q515 35 533 35Q569 35 649 46Q729 57 765 57Q782 57 796 50T810 31Q810 9 749 2Q687 -6 616 -7Q542 -9 531 -14L512 -28Q496 -39 484 -41L455 -12ZM384 669T460
688L465 903Q468 1064 468 1153Q468 1296 455 1393Q444 1379 397 1215T304 874T255 664Q384 669 460 688Z" />
<glyph unicode="&#xc7;" glyph-name="Ccedilla" horiz-adv-x="676" d="M497 -28T432 -33Q430 -63 430 -81Q579 -92 579 -287Q579 -319 557 -357T499 -422T424 -449Q392 -449 364 -434T336 -394Q336 -373 358 -373Q371 -373 391 -383Q413 -394 424 -394Q459 -394
481 -351T504 -251Q504 -184 473 -160Q464 -160 446 -163Q429 -167 418 -167Q388 -167 362 -126Q376 -94 379 -29Q326 -16 276 25T203 115Q187 150 169 299T139 620T127 877Q127 938 126 986Q125 1033 125 1090Q125 1155 128 1202T138 1300Q145 1352 158 1389T196
1461Q219 1496 251 1517T331 1552Q376 1565 437 1565Q461 1565 489 1555T536 1527T555 1489Q555 1466 523 1466Q511 1466 476 1481Q439 1495 420 1495Q362 1495 317 1472T244 1410Q220 1375 205 1319T184 1205Q179 1145 179 1081L181 967L183 860Q183 776 196 608T228
298T267 127Q292 89 339 68T441 47Q534 47 584 106Q601 132 622 132Q641 132 641 102Q641 66 618 39T558 -4Q497 -28 432 -33Z" />
<glyph unicode="&#xc8;" glyph-name="Egrave" horiz-adv-x="509" d="M185 -12T165 -4T145 33V71Q144 88 144 109V113L146 412L144 1257Q144 1357 140 1485Q140 1510 150 1526T177 1542H304Q317 1542 326 1542T346 1538Q367 1531 367 1503Q367 1487 354 1477T327
1465Q318 1464 293 1464L260 1466L227 1468Q212 1468 208 1464T203 1444Q203 1347 204 1270V1096V840Q204 836 208 836H210H212Q281 840 323 840Q357 840 357 810Q357 791 350 784T326 776H209Q201 776 201 766Q201 649 205 462Q209 274 209 137V61L296 62H383H401Q439
62 439 35Q439 3 420 -4Q399 -12 320 -12H233Q185 -12 165 -4ZM325 1585T235 1636T138 1693H127Q117 1693 105 1695Q35 1707 43 1747Q49 1783 63 1789L76 1787Q136 1777 150 1751L173 1739Q194 1728 248 1695Q296 1665 324 1642Q358 1614 355 1597Q354 1591 346
1587T329 1584Q325 1585 235 1636Z" />
<glyph unicode="&#xc9;" glyph-name="Eacute" horiz-adv-x="509" d="M185 -12T165 -4T145 33V71Q144 88 144 109V113L146 412L144 1257Q144 1357 140 1485Q140 1510 150 1526T177 1542H304Q317 1542 326 1542T346 1538Q367 1531 367 1503Q367 1487 354 1477T327
1465Q318 1464 293 1464L260 1466L227 1468Q212 1468 208 1464T203 1444Q203 1347 204 1270V1096V840Q204 836 208 836H210H212Q281 840 323 840Q357 840 357 810Q357 791 350 784T326 776H209Q201 776 201 766Q201 649 205 462Q209 274 209 137V61L296 62H383H401Q439
62 439 35Q439 3 420 -4Q399 -12 320 -12H233Q185 -12 165 -4ZM236 1639T226 1647T215 1669Q215 1677 271 1722Q316 1759 393 1818Q462 1871 469 1878Q514 1878 514 1846L508 1815Q403 1768 252 1639Q236 1639 226 1647Z" />
<glyph unicode="&#xca;" glyph-name="Ecircumflex" horiz-adv-x="509" d="M185 -12T165 -4T145 33V71Q144 88 144 109V113L146 412L144 1257Q144 1357 140 1485Q140 1510 150 1526T177 1542H304Q317 1542 326 1542T346 1538Q367 1531 367 1503Q367 1487 354 1477T327
1465Q318 1464 293 1464L260 1466L227 1468Q212 1468 208 1464T203 1444Q203 1347 204 1270V1096V840Q204 836 208 836H210H212Q281 840 323 840Q357 840 357 810Q357 791 350 784T326 776H209Q201 776 201 766Q201 649 205 462Q209 274 209 137V61L296 62H383H401Q439
62 439 35Q439 3 420 -4Q399 -12 320 -12H233Q185 -12 165 -4ZM321 1598Q310 1727 262 1905Q253 1881 231 1817T194 1709Q178 1660 176 1639L141 1592L104 1618Q105 1648 140 1734T216 1892T276 1964Q305 1964 305 1921Q305 1883 314 1845T342 1756Q357 1711 366
1682L364 1669L379 1639L377 1628Q385 1610 385 1606Q385 1587 348 1581L321 1598Z" />
<glyph unicode="&#xcb;" glyph-name="Edieresis" horiz-adv-x="509" d="M185 -12T165 -4T145 33V71Q144 88 144 109V113L146 412L144 1257Q144 1357 140 1485Q140 1510 150 1526T177 1542H304Q317 1542 326 1542T346 1538Q367 1531 367 1503Q367 1487 354 1477T327
1465Q318 1464 293 1464L260 1466L227 1468Q212 1468 208 1464T203 1444Q203 1347 204 1270V1096V840Q204 836 208 836H210H212Q281 840 323 840Q357 840 357 810Q357 791 350 784T326 776H209Q201 776 201 766Q201 649 205 462Q209 274 209 137V61L296 62H383H401Q439
62 439 35Q439 3 420 -4Q399 -12 320 -12H233Q185 -12 165 -4ZM373 1657T360 1671T347 1702Q347 1721 362 1737T397 1753Q414 1753 428 1737T442 1704Q442 1657 388 1657Q373 1657 360 1671ZM100 1649T89 1665T77 1700Q77 1718 92 1734T126 1751Q146 1751 156 1732T167
1684Q167 1668 152 1659T116 1649Q100 1649 89 1665Z" />
<glyph unicode="&#xcc;" glyph-name="Igrave" horiz-adv-x="552" d="M339 8T292 9Q244 10 168 10Q153 10 143 20T132 44Q132 70 166 70H246Q246 266 232 663L223 919L216 1114L217 1218Q218 1276 218 1354Q218 1465 212 1484H142Q120 1484 120 1513Q120 1534 137
1542Q153 1548 213 1548H271Q301 1547 349 1547Q365 1547 375 1540T386 1518Q386 1505 379 1495T361 1485Q346 1485 335 1486Q324 1487 312 1487H290Q283 1487 276 1486T266 1482Q263 1479 263 1474Q263 1287 289 830Q314 390 314 184Q314 153 313 127Q312 101
312 71H386Q432 71 432 42Q432 30 423 19T404 8Q339 8 292 9ZM346 1585T256 1636T159 1693H148Q138 1693 126 1695Q56 1707 64 1747Q70 1783 84 1789L97 1787Q157 1777 171 1751L194 1739Q215 1728 269 1695Q317 1665 345 1642Q379 1614 376 1597Q375 1591 367
1587T350 1584Q346 1585 256 1636Z" />
<glyph unicode="&#xcd;" glyph-name="Iacute" horiz-adv-x="552" d="M339 8T292 9Q244 10 168 10Q153 10 143 20T132 44Q132 70 166 70H246Q246 266 232 663L223 919L216 1114L217 1218Q218 1276 218 1354Q218 1465 212 1484H142Q120 1484 120 1513Q120 1534 137
1542Q153 1548 213 1548H271Q301 1547 349 1547Q365 1547 375 1540T386 1518Q386 1505 379 1495T361 1485Q346 1485 335 1486Q324 1487 312 1487H290Q283 1487 276 1486T266 1482Q263 1479 263 1474Q263 1287 289 830Q314 390 314 184Q314 153 313 127Q312 101
312 71H386Q432 71 432 42Q432 30 423 19T404 8Q339 8 292 9ZM257 1639T247 1647T236 1669Q236 1677 292 1722Q337 1759 414 1818Q483 1871 490 1878Q535 1878 535 1846L529 1815Q424 1768 273 1639Q257 1639 247 1647Z" />
<glyph unicode="&#xce;" glyph-name="Icircumflex" horiz-adv-x="552" d="M339 8T292 9Q244 10 168 10Q153 10 143 20T132 44Q132 70 166 70H246Q246 266 232 663L223 919L216 1114L217 1218Q218 1276 218 1354Q218 1465 212 1484H142Q120 1484 120 1513Q120 1534
137 1542Q153 1548 213 1548H271Q301 1547 349 1547Q365 1547 375 1540T386 1518Q386 1505 379 1495T361 1485Q346 1485 335 1486Q324 1487 312 1487H290Q283 1487 276 1486T266 1482Q263 1479 263 1474Q263 1287 289 830Q314 390 314 184Q314 153 313 127Q312
101 312 71H386Q432 71 432 42Q432 30 423 19T404 8Q339 8 292 9ZM342 1598Q331 1727 283 1905Q274 1881 252 1817T215 1709Q199 1660 197 1639L162 1592L125 1618Q126 1648 161 1734T237 1892T297 1964Q326 1964 326 1921Q326 1883 335 1845T363 1756Q378 1711
387 1682L385 1669L400 1639L398 1628Q406 1610 406 1606Q406 1587 369 1581L342 1598Z" />
<glyph unicode="&#xcf;" glyph-name="Idieresis" horiz-adv-x="552" d="M339 8T292 9Q244 10 168 10Q153 10 143 20T132 44Q132 70 166 70H246Q246 266 232 663L223 919L216 1114L217 1218Q218 1276 218 1354Q218 1465 212 1484H142Q120 1484 120 1513Q120 1534
137 1542Q153 1548 213 1548H271Q301 1547 349 1547Q365 1547 375 1540T386 1518Q386 1505 379 1495T361 1485Q346 1485 335 1486Q324 1487 312 1487H290Q283 1487 276 1486T266 1482Q263 1479 263 1474Q263 1287 289 830Q314 390 314 184Q314 153 313 127Q312
101 312 71H386Q432 71 432 42Q432 30 423 19T404 8Q339 8 292 9ZM394 1657T381 1671T368 1702Q368 1721 383 1737T418 1753Q435 1753 449 1737T463 1704Q463 1657 409 1657Q394 1657 381 1671ZM121 1649T110 1665T98 1700Q98 1718 113 1734T147 1751Q167 1751
177 1732T188 1684Q188 1668 173 1659T137 1649Q121 1649 110 1665Z" />
<glyph unicode="&#xd0;" glyph-name="Eth" horiz-adv-x="880" d="M299 -87T278 -80Q263 -76 256 -70T241 -49H239Q239 223 221 602Q210 733 204 754Q182 754 141 748Q102 741 79 741Q62 741 57 749T51 776Q51 813 178 813H196L204 817L205 822L206 827Q206 883
192 1011Q178 1139 178 1196Q178 1250 170 1380Q161 1502 161 1563Q161 1572 173 1589T194 1606Q256 1606 322 1571T445 1476Q548 1367 616 1241V1237Q712 966 712 649Q712 512 662 365T517 93Q418 -36 301 -88Q299 -87 278 -80ZM329 11T343 21Q352 27 369 46L382
59Q450 126 509 223T603 425T638 616Q638 736 636 789T625 925Q615 1012 595 1087Q561 1254 468 1375T235 1538L231 1534Q231 1441 238 1274T256 973T280 821Q305 821 351 833Q400 844 421 844Q437 844 449 829T464 795L444 770Q343 770 276 756Q276 720 281 591T290
451L288 449Q288 384 299 228Q309 87 309 6Q329 11 343 21Z" />
<glyph unicode="&#xd1;" glyph-name="Ntilde" horiz-adv-x="778" d="M543 -23T531 -9T515 24Q513 30 507 64L501 94Q275 907 249 1016Q238 1064 165 1426Q163 1400 163 1341V600Q163 523 168 308Q173 93 173 16L159 0H112L106 16Q110 31 110 98L108 455Q105 692
105 811V1079Q105 1187 104 1273L102 1466Q102 1478 101 1488Q100 1497 100 1509Q100 1534 113 1543T155 1552Q168 1552 183 1540T202 1513Q207 1492 236 1360L246 1313Q277 1169 294 1096Q300 1069 442 539Q504 283 548 150Q561 177 561 248Q561 393 565 605Q569
816 569 961L571 1120Q572 1190 572 1278L570 1567Q577 1595 612 1595Q628 1595 628 1535Q628 1510 627 1493L625 1460V1329L623 843Q620 522 620 360Q620 321 615 199Q610 77 610 37Q610 -23 558 -23Q543 -23 531 -9ZM199 1607T186 1618T173 1642Q173 1706 207
1745T292 1784Q343 1784 379 1742Q394 1712 430 1688T496 1663Q549 1663 549 1736Q549 1742 544 1757Q539 1767 537 1775Q543 1787 558 1787Q581 1787 593 1767T605 1717Q605 1689 590 1664T549 1624T496 1609Q462 1609 425 1629T366 1672Q347 1691 314 1730L300
1736Q270 1736 247 1720T224 1681Q224 1671 234 1638L212 1607Q199 1607 186 1618Z" />
<glyph unicode="&#xd2;" glyph-name="Ograve" horiz-adv-x="755" d="M125 -43T125 942V1025Q125 1118 129 1184T145 1323Q157 1403 178 1453T237 1537Q274 1571 327 1571Q377 1571 418 1552T485 1501Q508 1473 526 1427T555 1336Q566 1278 571 1239Q620 893 620
618V612Q620 510 617 423Q614 363 610 320T594 208Q585 152 570 113T531 31Q487 -43 409 -43Q125 -43 125 942ZM446 14T473 52T515 157Q548 301 554 439Q560 570 560 653V662Q560 762 557 867Q552 979 535 1127L532 1154Q523 1228 507 1287T465 1408Q443 1461 410
1489T337 1518Q302 1518 275 1486T233 1393Q216 1328 206 1269T192 1139Q186 1018 186 931V831Q186 692 213 484Q231 348 255 251T319 86Q361 14 413 14Q446 14 473 52ZM398 1615T308 1666T211 1723H200Q190 1723 178 1725Q108 1737 116 1777Q122 1813 136 1819L149
1817Q209 1807 223 1781L246 1769Q267 1758 321 1725Q369 1695 397 1672Q431 1644 428 1627Q427 1621 419 1617T402 1614Q398 1615 308 1666Z" />
<glyph unicode="&#xd3;" glyph-name="Oacute" horiz-adv-x="755" d="M125 -43T125 942V1025Q125 1118 129 1184T145 1323Q157 1403 178 1453T237 1537Q274 1571 327 1571Q377 1571 418 1552T485 1501Q508 1473 526 1427T555 1336Q566 1278 571 1239Q620 893 620
618V612Q620 510 617 423Q614 363 610 320T594 208Q585 152 570 113T531 31Q487 -43 409 -43Q125 -43 125 942ZM446 14T473 52T515 157Q548 301 554 439Q560 570 560 653V662Q560 762 557 867Q552 979 535 1127L532 1154Q523 1228 507 1287T465 1408Q443 1461 410
1489T337 1518Q302 1518 275 1486T233 1393Q216 1328 206 1269T192 1139Q186 1018 186 931V831Q186 692 213 484Q231 348 255 251T319 86Q361 14 413 14Q446 14 473 52ZM309 1669T299 1677T288 1699Q288 1707 344 1752Q389 1789 466 1848Q535 1901 542 1908Q587
1908 587 1876L581 1845Q476 1798 325 1669Q309 1669 299 1677Z" />
<glyph unicode="&#xd4;" glyph-name="Ocircumflex" horiz-adv-x="755" d="M125 -43T125 942V1025Q125 1118 129 1184T145 1323Q157 1403 178 1453T237 1537Q274 1571 327 1571Q377 1571 418 1552T485 1501Q508 1473 526 1427T555 1336Q566 1278 571 1239Q620 893
620 618V612Q620 510 617 423Q614 363 610 320T594 208Q585 152 570 113T531 31Q487 -43 409 -43Q125 -43 125 942ZM446 14T473 52T515 157Q548 301 554 439Q560 570 560 653V662Q560 762 557 867Q552 979 535 1127L532 1154Q523 1228 507 1287T465 1408Q443 1461
410 1489T337 1518Q302 1518 275 1486T233 1393Q216 1328 206 1269T192 1139Q186 1018 186 931V831Q186 692 213 484Q231 348 255 251T319 86Q361 14 413 14Q446 14 473 52ZM394 1628Q383 1757 335 1935Q326 1911 304 1847T267 1739Q251 1690 249 1669L214 1622L177
1648Q178 1678 213 1764T289 1922T349 1994Q378 1994 378 1951Q378 1913 387 1875T415 1786Q430 1741 439 1712L437 1699L452 1669L450 1658Q458 1640 458 1636Q458 1617 421 1611L394 1628Z" />
<glyph unicode="&#xd5;" glyph-name="Otilde" horiz-adv-x="755" d="M125 -43T125 942V1025Q125 1118 129 1184T145 1323Q157 1403 178 1453T237 1537Q274 1571 327 1571Q377 1571 418 1552T485 1501Q508 1473 526 1427T555 1336Q566 1278 571 1239Q620 893 620
618V612Q620 510 617 423Q614 363 610 320T594 208Q585 152 570 113T531 31Q487 -43 409 -43Q125 -43 125 942ZM446 14T473 52T515 157Q548 301 554 439Q560 570 560 653V662Q560 762 557 867Q552 979 535 1127L532 1154Q523 1228 507 1287T465 1408Q443 1461 410
1489T337 1518Q302 1518 275 1486T233 1393Q216 1328 206 1269T192 1139Q186 1018 186 931V831Q186 692 213 484Q231 348 255 251T319 86Q361 14 413 14Q446 14 473 52ZM138 1637T125 1648T112 1672Q112 1736 146 1775T231 1814Q282 1814 318 1772Q333 1742 369
1718T435 1693Q488 1693 488 1766Q488 1772 483 1787Q478 1797 476 1805Q482 1817 497 1817Q520 1817 532 1797T544 1747Q544 1719 529 1694T488 1654T435 1639Q401 1639 364 1659T305 1702Q286 1721 253 1760L239 1766Q209 1766 186 1750T163 1711Q163 1701 173
1668L151 1637Q138 1637 125 1648Z" />
<glyph unicode="&#xd6;" glyph-name="Odieresis" horiz-adv-x="755" d="M125 -43T125 942V1025Q125 1118 129 1184T145 1323Q157 1403 178 1453T237 1537Q274 1571 327 1571Q377 1571 418 1552T485 1501Q508 1473 526 1427T555 1336Q566 1278 571 1239Q620 893
620 618V612Q620 510 617 423Q614 363 610 320T594 208Q585 152 570 113T531 31Q487 -43 409 -43Q125 -43 125 942ZM446 14T473 52T515 157Q548 301 554 439Q560 570 560 653V662Q560 762 557 867Q552 979 535 1127L532 1154Q523 1228 507 1287T465 1408Q443 1461
410 1489T337 1518Q302 1518 275 1486T233 1393Q216 1328 206 1269T192 1139Q186 1018 186 931V831Q186 692 213 484Q231 348 255 251T319 86Q361 14 413 14Q446 14 473 52ZM446 1687T433 1701T420 1732Q420 1751 435 1767T470 1783Q487 1783 501 1767T515 1734Q515
1687 461 1687Q446 1687 433 1701ZM173 1679T162 1695T150 1730Q150 1748 165 1764T199 1781Q219 1781 229 1762T240 1714Q240 1698 225 1689T189 1679Q173 1679 162 1695Z" />
<glyph unicode="&#xd7;" glyph-name="multiply" horiz-adv-x="740" d="M534 424T528 430L483 473Q470 485 443 516Q425 537 396 566Q377 584 364 584Q348 584 329 566T292 521Q274 494 253 476T213 457Q201 457 187 467T172 487Q172 496 189 513Q197 521 231 551Q257
573 267 583T293 615Q309 637 309 647Q289 667 246 703Q205 736 170 771Q139 801 139 817Q139 828 153 843T180 858Q195 858 205 848L215 827Q342 700 368 700Q389 700 420 736L436 754Q472 797 497 820T542 844Q552 844 562 834T573 813Q573 799 551 775T485 712L464
693Q428 660 428 643Q428 626 452 602T511 554Q546 531 570 509T594 471Q594 453 579 439T542 424Q534 424 528 430Z" />
<glyph unicode="&#xd8;" glyph-name="Oslash" horiz-adv-x="652" d="M127 -240Q128 -214 132 -190T147 -114L157 -66Q172 9 187 111Q187 123 179 150Q169 176 168 184Q125 449 125 952V1081Q125 1569 275 1569Q286 1569 306 1558Q326 1546 334 1546L342 1550L353
1540Q371 1595 387 1689L406 1798H443L441 1739L398 1491Q398 1467 428 1432L426 1427Q431 1406 447 1383Q450 1377 453 1373T457 1366Q480 1309 480 1229L476 1227Q476 1167 491 1039Q506 912 506 850V838L510 831Q510 752 514 637Q517 508 517 444Q517 373 514
313Q511 271 506 240T491 160Q483 121 469 92T431 34Q389 -20 314 -20Q243 -20 213 20H211Q200 -53 158 -264L127 -240ZM216 280T230 371Q244 472 275 777L282 848L305 1089L318 1227Q322 1264 328 1299Q334 1343 338 1383T342 1456Q342 1480 323 1496T277 1513L269
1511L254 1505Q244 1501 244 1501L232 1505Q168 1466 168 852V839Q168 747 187 705Q187 634 199 490Q211 346 211 274Q216 280 230 371ZM463 23T463 399Q463 1244 390 1389Q360 1206 328 817Q293 412 254 215Q240 136 240 119Q240 68 260 46T330 23Q463 23 463
399Z" />
<glyph unicode="&#xd9;" glyph-name="Ugrave" horiz-adv-x="761" d="M377 -39T336 -19T268 34Q242 65 221 110T188 200Q177 239 169 289T158 374Q156 397 154 439L152 473Q142 570 127 913T111 1448V1462Q110 1469 110 1479Q110 1532 142 1532Q166 1532 175 1520T184
1483V1468Q183 1461 183 1452Q183 1212 197 888T226 422Q234 333 260 237Q276 174 296 132T347 59Q379 27 417 27Q452 27 479 43T523 85Q537 107 546 142T558 213Q560 253 560 281V514Q560 644 551 897L542 1159Q542 1230 538 1333Q533 1461 533 1507Q533 1529
544 1542T573 1555Q590 1555 601 1542T613 1507V1352Q613 1249 614 1167V983Q614 835 618 634Q621 408 621 295Q621 246 617 207T601 123Q588 73 567 40T510 -16Q472 -39 424 -39Q377 -39 336 -19ZM391 1585T301 1636T204 1693H193Q183 1693 171 1695Q101 1707
109 1747Q115 1783 129 1789L142 1787Q202 1777 216 1751L239 1739Q260 1728 314 1695Q362 1665 390 1642Q424 1614 421 1597Q420 1591 412 1587T395 1584Q391 1585 301 1636Z" />
<glyph unicode="&#xda;" glyph-name="Uacute" horiz-adv-x="761" d="M377 -39T336 -19T268 34Q242 65 221 110T188 200Q177 239 169 289T158 374Q156 397 154 439L152 473Q142 570 127 913T111 1448V1462Q110 1469 110 1479Q110 1532 142 1532Q166 1532 175 1520T184
1483V1468Q183 1461 183 1452Q183 1212 197 888T226 422Q234 333 260 237Q276 174 296 132T347 59Q379 27 417 27Q452 27 479 43T523 85Q537 107 546 142T558 213Q560 253 560 281V514Q560 644 551 897L542 1159Q542 1230 538 1333Q533 1461 533 1507Q533 1529
544 1542T573 1555Q590 1555 601 1542T613 1507V1352Q613 1249 614 1167V983Q614 835 618 634Q621 408 621 295Q621 246 617 207T601 123Q588 73 567 40T510 -16Q472 -39 424 -39Q377 -39 336 -19ZM302 1639T292 1647T281 1669Q281 1677 337 1722Q382 1759 459
1818Q528 1871 535 1878Q580 1878 580 1846L574 1815Q469 1768 318 1639Q302 1639 292 1647Z" />
<glyph unicode="&#xdb;" glyph-name="Ucircumflex" horiz-adv-x="761" d="M377 -39T336 -19T268 34Q242 65 221 110T188 200Q177 239 169 289T158 374Q156 397 154 439L152 473Q142 570 127 913T111 1448V1462Q110 1469 110 1479Q110 1532 142 1532Q166 1532 175
1520T184 1483V1468Q183 1461 183 1452Q183 1212 197 888T226 422Q234 333 260 237Q276 174 296 132T347 59Q379 27 417 27Q452 27 479 43T523 85Q537 107 546 142T558 213Q560 253 560 281V514Q560 644 551 897L542 1159Q542 1230 538 1333Q533 1461 533 1507Q533
1529 544 1542T573 1555Q590 1555 601 1542T613 1507V1352Q613 1249 614 1167V983Q614 835 618 634Q621 408 621 295Q621 246 617 207T601 123Q588 73 567 40T510 -16Q472 -39 424 -39Q377 -39 336 -19ZM387 1598Q376 1727 328 1905Q319 1881 297 1817T260 1709Q244
1660 242 1639L207 1592L170 1618Q171 1648 206 1734T282 1892T342 1964Q371 1964 371 1921Q371 1883 380 1845T408 1756Q423 1711 432 1682L430 1669L445 1639L443 1628Q451 1610 451 1606Q451 1587 414 1581L387 1598Z" />
<glyph unicode="&#xdc;" glyph-name="Udieresis" horiz-adv-x="761" d="M377 -39T336 -19T268 34Q242 65 221 110T188 200Q177 239 169 289T158 374Q156 397 154 439L152 473Q142 570 127 913T111 1448V1462Q110 1469 110 1479Q110 1532 142 1532Q166 1532 175
1520T184 1483V1468Q183 1461 183 1452Q183 1212 197 888T226 422Q234 333 260 237Q276 174 296 132T347 59Q379 27 417 27Q452 27 479 43T523 85Q537 107 546 142T558 213Q560 253 560 281V514Q560 644 551 897L542 1159Q542 1230 538 1333Q533 1461 533 1507Q533
1529 544 1542T573 1555Q590 1555 601 1542T613 1507V1352Q613 1249 614 1167V983Q614 835 618 634Q621 408 621 295Q621 246 617 207T601 123Q588 73 567 40T510 -16Q472 -39 424 -39Q377 -39 336 -19ZM439 1657T426 1671T413 1702Q413 1721 428 1737T463 1753Q480
1753 494 1737T508 1704Q508 1657 454 1657Q439 1657 426 1671ZM166 1649T155 1665T143 1700Q143 1718 158 1734T192 1751Q212 1751 222 1732T233 1684Q233 1668 218 1659T182 1649Q166 1649 155 1665Z" />
<glyph unicode="&#xdd;" glyph-name="Yacute" horiz-adv-x="516" d="M251 -25T244 -10T236 25Q236 75 241 222Q246 369 246 420Q246 451 239 503Q232 555 232 586Q232 619 220 682Q207 743 207 776Q207 803 186 892Q180 914 178 924T175 938L148 1079Q127 1186
112 1253T80 1380Q50 1478 50 1513Q50 1528 62 1537T91 1546L115 1530Q119 1474 144 1336T198 1075T244 930Q247 939 264 1107Q278 1264 305 1405Q331 1540 365 1540H374Q380 1540 383 1539T391 1534Q396 1529 396 1518Q396 1504 388 1474Q381 1447 379 1434Q341
1225 325 1129Q315 1066 307 981T298 829Q298 819 301 796Q304 774 304 762L291 731V715Q291 680 299 592Q306 515 306 469Q306 176 302 55L308 49Q308 45 309 42Q310 39 310 35Q310 10 298 -7T265 -25Q251 -25 244 -10ZM199 1639T189 1647T178 1669Q178 1677 234
1722Q279 1759 356 1818Q425 1871 432 1878Q477 1878 477 1846L471 1815Q366 1768 215 1639Q199 1639 189 1647Z" />
<glyph unicode="&#xde;" glyph-name="Thorn" horiz-adv-x="652" d="M177 -12T177 59Q177 143 178 188Q179 233 179 317Q179 349 177 443Q175 537 175 569Q175 699 164 936L157 1100Q149 1213 149 1219Q142 1307 142 1366Q140 1380 140 1395L142 1451Q143 1482
143 1515V1525L142 1530Q142 1542 157 1546Q166 1546 186 1541Q191 1539 191 1540Q194 1491 196 1404Q197 1322 200 1268V1266Q276 1265 338 1243T440 1182Q478 1146 504 1096T542 994Q552 945 552 887Q552 820 532 740T477 591T399 488Q390 480 372 473Q360 468
346 459Q328 447 236 427Q236 314 242 239Q247 156 247 51Q247 18 238 3T202 -12Q177 -12 177 59ZM262 504T305 519T362 549Q495 682 495 883Q495 1207 208 1207V1154Q210 1021 222 824Q235 595 236 502Q262 504 305 519Z" />
<glyph unicode="&#xdf;" glyph-name="germandbls" horiz-adv-x="720" d="M184 -12T184 16Q184 83 189 276Q194 468 194 535Q194 676 187 901Q180 1126 180 1266Q180 1536 335 1536Q386 1536 423 1495T479 1382T499 1214Q499 1104 466 1010T368 854Q463 806 514
706T565 473V426Q565 348 560 301T539 200Q507 89 386 27Q375 23 368 23Q352 23 339 32T325 53Q325 70 350 88Q391 108 432 140T479 197Q507 249 507 360V371Q507 498 472 620Q453 687 415 737T327 811Q314 817 304 831T294 858Q294 869 299 876Q304 883 311 885L325
889Q352 897 380 949T427 1069T446 1190Q446 1311 414 1389Q382 1466 337 1466Q243 1466 243 1255Q243 1180 247 1071Q251 962 251 887V809Q251 711 256 429Q261 147 261 49Q261 -12 223 -12H221Q184 -12 184 16Z" />
<glyph unicode="&#xe0;" glyph-name="agrave" horiz-adv-x="642" d="M529 -18T520 -16T507 -4T500 27L466 295Q429 305 365 305Q342 305 290 310Q238 315 219 315Q212 315 209 313T205 306Q204 304 204 302T203 299L199 258Q194 206 176 111Q165 59 152 25Q137
-10 121 -10Q108 -10 94 1T80 25L82 31L84 37Q118 168 146 326L169 453Q176 490 183 536L195 608L217 743Q226 800 253 922Q279 1047 289 1112L297 1187L301 1220Q306 1275 311 1303Q319 1355 324 1364L338 1363Q344 1362 352 1362Q377 1362 389 1374Q403 1374
414 1365T426 1343Q426 1285 429 1237T441 1118L453 1010Q478 721 567 18V12Q567 -9 551 -18Q529 -18 520 -16ZM457 350Q442 565 379 1221Q273 694 268 674Q221 441 221 376Q221 366 300 358T436 350H457ZM460 1438T363 1472T257 1512Q240 1508 224 1508Q154 1508
154 1549Q154 1585 167 1594H180Q241 1594 259 1571Q261 1570 267 1568T284 1563Q311 1554 365 1533Q415 1513 449 1494Q488 1472 488 1455Q488 1449 480 1444T464 1438Q460 1438 363 1472Z" />
<glyph unicode="&#xe1;" glyph-name="aacute" horiz-adv-x="642" d="M529 -18T520 -16T507 -4T500 27L466 295Q429 305 365 305Q342 305 290 310Q238 315 219 315Q212 315 209 313T205 306Q204 304 204 302T203 299L199 258Q194 206 176 111Q165 59 152 25Q137
-10 121 -10Q108 -10 94 1T80 25L82 31L84 37Q118 168 146 326L169 453Q176 490 183 536L195 608L217 743Q226 800 253 922Q279 1047 289 1112L297 1187L301 1220Q306 1275 311 1303Q319 1355 324 1364L338 1363Q344 1362 352 1362Q377 1362 389 1374Q403 1374
414 1365T426 1343Q426 1285 429 1237T441 1118L453 1010Q478 721 567 18V12Q567 -9 551 -18Q529 -18 520 -16ZM457 350Q442 565 379 1221Q273 694 268 674Q221 441 221 376Q221 366 300 358T436 350H457ZM365 1419T355 1427T344 1449Q344 1457 400 1502Q445 1539
522 1598Q591 1651 598 1658Q643 1658 643 1626L637 1595Q532 1548 381 1419Q365 1419 355 1427Z" />
<glyph unicode="&#xe2;" glyph-name="acircumflex" horiz-adv-x="642" d="M529 -18T520 -16T507 -4T500 27L466 295Q429 305 365 305Q342 305 290 310Q238 315 219 315Q212 315 209 313T205 306Q204 304 204 302T203 299L199 258Q194 206 176 111Q165 59 152 25Q137
-10 121 -10Q108 -10 94 1T80 25L82 31L84 37Q118 168 146 326L169 453Q176 490 183 536L195 608L217 743Q226 800 253 922Q279 1047 289 1112L297 1187L301 1220Q306 1275 311 1303Q319 1355 324 1364L338 1363Q344 1362 352 1362Q377 1362 389 1374Q403 1374
414 1365T426 1343Q426 1285 429 1237T441 1118L453 1010Q478 721 567 18V12Q567 -9 551 -18Q529 -18 520 -16ZM457 350Q442 565 379 1221Q273 694 268 674Q221 441 221 376Q221 366 300 358T436 350H457ZM457 1398Q446 1527 398 1705Q389 1681 367 1617T330 1509Q314
1460 312 1439L277 1392L240 1418Q241 1448 276 1534T352 1692T412 1764Q441 1764 441 1721Q441 1683 450 1645T478 1556Q493 1511 502 1482L500 1469L515 1439L513 1428Q521 1410 521 1406Q521 1387 484 1381L457 1398Z" />
<glyph unicode="&#xe3;" glyph-name="atilde" horiz-adv-x="642" d="M529 -18T520 -16T507 -4T500 27L466 295Q429 305 365 305Q342 305 290 310Q238 315 219 315Q212 315 209 313T205 306Q204 304 204 302T203 299L199 258Q194 206 176 111Q165 59 152 25Q137
-10 121 -10Q108 -10 94 1T80 25L82 31L84 37Q118 168 146 326L169 453Q176 490 183 536L195 608L217 743Q226 800 253 922Q279 1047 289 1112L297 1187L301 1220Q306 1275 311 1303Q319 1355 324 1364L338 1363Q344 1362 352 1362Q377 1362 389 1374Q403 1374
414 1365T426 1343Q426 1285 429 1237T441 1118L453 1010Q478 721 567 18V12Q567 -9 551 -18Q529 -18 520 -16ZM457 350Q442 565 379 1221Q273 694 268 674Q221 441 221 376Q221 366 300 358T436 350H457ZM191 1418T178 1429T165 1453Q165 1517 199 1556T284 1595Q335
1595 371 1553Q386 1523 422 1499T488 1474Q541 1474 541 1547Q541 1553 536 1568Q531 1578 529 1586Q535 1598 550 1598Q573 1598 585 1578T597 1528Q597 1500 582 1475T541 1435T488 1420Q454 1420 417 1440T358 1483Q339 1502 306 1541L292 1547Q262 1547 239
1531T216 1492Q216 1482 226 1449L204 1418Q191 1418 178 1429Z" />
<glyph unicode="&#xe4;" glyph-name="adieresis" horiz-adv-x="642" d="M529 -18T520 -16T507 -4T500 27L466 295Q429 305 365 305Q342 305 290 310Q238 315 219 315Q212 315 209 313T205 306Q204 304 204 302T203 299L199 258Q194 206 176 111Q165 59 152 25Q137
-10 121 -10Q108 -10 94 1T80 25L82 31L84 37Q118 168 146 326L169 453Q176 490 183 536L195 608L217 743Q226 800 253 922Q279 1047 289 1112L297 1187L301 1220Q306 1275 311 1303Q319 1355 324 1364L338 1363Q344 1362 352 1362Q377 1362 389 1374Q403 1374
414 1365T426 1343Q426 1285 429 1237T441 1118L453 1010Q478 721 567 18V12Q567 -9 551 -18Q529 -18 520 -16ZM457 350Q442 565 379 1221Q273 694 268 674Q221 441 221 376Q221 366 300 358T436 350H457ZM499 1515T486 1529T473 1560Q473 1579 488 1595T523 1611Q540
1611 554 1595T568 1562Q568 1515 514 1515Q499 1515 486 1529ZM226 1507T215 1523T203 1558Q203 1576 218 1592T252 1609Q272 1609 282 1590T293 1542Q293 1526 278 1517T242 1507Q226 1507 215 1523Z" />
<glyph unicode="&#xe5;" glyph-name="aring" horiz-adv-x="642" d="M529 -18T520 -16T507 -4T500 27L466 295Q429 305 365 305Q342 305 290 310Q238 315 219 315Q212 315 209 313T205 306Q204 304 204 302T203 299L199 258Q194 206 176 111Q165 59 152 25Q137
-10 121 -10Q108 -10 94 1T80 25L82 31L84 37Q118 168 146 326L169 453Q176 490 183 536L195 608L217 743Q226 800 253 922Q279 1047 289 1112L297 1187L301 1220Q306 1275 311 1303Q319 1355 324 1364L338 1363Q344 1362 352 1362Q377 1362 389 1374Q403 1374
414 1365T426 1343Q426 1285 429 1237T441 1118L453 1010Q478 721 567 18V12Q567 -9 551 -18Q529 -18 520 -16ZM457 350Q442 565 379 1221Q273 694 268 674Q221 441 221 376Q221 366 300 358T436 350H457ZM339 1400T316 1415T279 1456T265 1508Q265 1538 282 1567T327
1616T384 1635Q409 1635 435 1617T479 1570T496 1517Q496 1461 460 1431T365 1400Q339 1400 316 1415ZM384 1439T413 1456T443 1496Q443 1536 428 1566T384 1596Q359 1596 336 1571T312 1519Q312 1498 315 1484T328 1455Q338 1439 357 1439Q384 1439 413 1456Z"
/>
<glyph unicode="&#xe6;" glyph-name="ae" horiz-adv-x="825" d="M455 14Q472 113 472 229Q472 278 467 416Q462 553 462 600L451 614Q440 612 388 609Q320 603 288 598Q243 591 240 580L138 209Q135 190 123 134T98 43Q83 2 66 2Q60 2 55 10T50 27Q51 120 132
432Q238 769 400 1196L404 1208L405 1213L406 1217Q444 1348 494 1348Q537 1348 572 1349Q607 1350 652 1350Q716 1350 716 1317L703 1292H601Q530 1292 501 1288Q501 1239 504 1132Q507 1026 507 975Q507 892 508 829Q509 765 509 682L519 670Q576 690 681 690L709
655Q709 621 564 621H509Q509 525 513 388Q517 251 517 154Q517 131 516 112Q515 93 515 70Q515 35 533 35Q569 35 649 46Q729 57 765 57Q782 57 796 50T810 31Q810 9 749 2Q687 -6 616 -7Q542 -9 531 -14Q523 -12 515 -12L501 -13Q494 -14 484 -14L455 14ZM347
643T460 668V948Q460 985 461 1016Q462 1047 462 1085V1163Q462 1203 460 1237Q449 1225 401 1091T305 813T255 643Q347 643 460 668Z" />
<glyph unicode="&#xe7;" glyph-name="ccedilla" horiz-adv-x="584" d="M339 -28T317 -20Q314 -50 314 -81Q463 -92 463 -287Q463 -319 441 -357T383 -422T308 -449Q276 -449 248 -434T220 -394Q220 -373 242 -373Q255 -373 275 -383Q297 -394 308 -394Q343 -394
365 -351T388 -251Q388 -184 357 -160Q348 -160 330 -163Q313 -167 302 -167Q272 -167 246 -126Q263 -86 263 -9V0Q213 26 180 89Q138 169 129 323Q125 370 125 446V680Q125 760 126 805T134 937Q140 1031 152 1094T191 1220Q217 1285 254 1313Q273 1327 310 1342Q342
1354 361 1364H443L449 1363Q451 1362 454 1362Q463 1359 465 1359Q473 1355 474 1354Q479 1349 480 1346Q482 1338 482 1333L455 1303H369Q329 1303 298 1266T249 1170Q234 1120 224 1050T210 927Q207 879 207 838L203 827Q203 743 199 620Q195 497 195 414Q195
366 197 330T206 248Q212 203 227 169T266 100Q289 68 326 52T412 35Q442 35 463 53Q494 53 494 31Q494 16 468 -3T416 -33H348Q339 -28 317 -20Z" />
<glyph unicode="&#xe8;" glyph-name="egrave" horiz-adv-x="524" d="M148 -27T145 16Q145 30 146 42Q147 54 147 68L140 76Q155 117 155 160Q155 195 150 295Q145 395 145 430Q145 546 152 738Q159 930 159 1047Q159 1097 155 1170Q151 1242 151 1292Q151 1322
164 1336T210 1350Q233 1350 243 1337Q256 1334 303 1329Q354 1323 392 1311Q430 1299 430 1280Q430 1261 392 1239Q280 1276 226 1278L216 1266Q218 1228 218 1178Q218 1114 214 1019Q210 924 210 860Q210 803 239 803L273 805Q303 807 308 807Q387 807 388 770Q388
748 377 733T347 717Q313 717 300 733L233 743H224L214 733V727Q218 680 218 565L216 420L214 274Q214 194 220 111Q223 64 241 49T308 33L345 35L384 37Q444 37 444 10Q444 -27 355 -27H186Q148 -27 145 16ZM366 1418T269 1452T163 1492Q146 1488 130 1488Q60
1488 60 1529Q60 1565 73 1574H86Q147 1574 165 1551Q167 1550 173 1548T190 1543Q217 1534 271 1513Q321 1493 355 1474Q394 1452 394 1435Q394 1429 386 1424T370 1418Q366 1418 269 1452Z" />
<glyph unicode="&#xe9;" glyph-name="eacute" horiz-adv-x="524" d="M148 -27T145 16Q145 30 146 42Q147 54 147 68L140 76Q155 117 155 160Q155 195 150 295Q145 395 145 430Q145 546 152 738Q159 930 159 1047Q159 1097 155 1170Q151 1242 151 1292Q151 1322
164 1336T210 1350Q233 1350 243 1337Q256 1334 303 1329Q354 1323 392 1311Q430 1299 430 1280Q430 1261 392 1239Q280 1276 226 1278L216 1266Q218 1228 218 1178Q218 1114 214 1019Q210 924 210 860Q210 803 239 803L273 805Q303 807 308 807Q387 807 388 770Q388
748 377 733T347 717Q313 717 300 733L233 743H224L214 733V727Q218 680 218 565L216 420L214 274Q214 194 220 111Q223 64 241 49T308 33L345 35L384 37Q444 37 444 10Q444 -27 355 -27H186Q148 -27 145 16ZM271 1399T261 1407T250 1429Q250 1437 306 1482Q351
1519 428 1578Q497 1631 504 1638Q549 1638 549 1606L543 1575Q438 1528 287 1399Q271 1399 261 1407Z" />
<glyph unicode="&#xea;" glyph-name="ecircumflex" horiz-adv-x="524" d="M148 -27T145 16Q145 30 146 42Q147 54 147 68L140 76Q155 117 155 160Q155 195 150 295Q145 395 145 430Q145 546 152 738Q159 930 159 1047Q159 1097 155 1170Q151 1242 151 1292Q151
1322 164 1336T210 1350Q233 1350 243 1337Q256 1334 303 1329Q354 1323 392 1311Q430 1299 430 1280Q430 1261 392 1239Q280 1276 226 1278L216 1266Q218 1228 218 1178Q218 1114 214 1019Q210 924 210 860Q210 803 239 803L273 805Q303 807 308 807Q387 807 388
770Q388 748 377 733T347 717Q313 717 300 733L233 743H224L214 733V727Q218 680 218 565L216 420L214 274Q214 194 220 111Q223 64 241 49T308 33L345 35L384 37Q444 37 444 10Q444 -27 355 -27H186Q148 -27 145 16ZM363 1378Q352 1507 304 1685Q295 1661 273
1597T236 1489Q220 1440 218 1419L183 1372L146 1398Q147 1428 182 1514T258 1672T318 1744Q347 1744 347 1701Q347 1663 356 1625T384 1536Q399 1491 408 1462L406 1449L421 1419L419 1408Q427 1390 427 1386Q427 1367 390 1361L363 1378Z" />
<glyph unicode="&#xeb;" glyph-name="edieresis" horiz-adv-x="524" d="M148 -27T145 16Q145 30 146 42Q147 54 147 68L140 76Q155 117 155 160Q155 195 150 295Q145 395 145 430Q145 546 152 738Q159 930 159 1047Q159 1097 155 1170Q151 1242 151 1292Q151 1322
164 1336T210 1350Q233 1350 243 1337Q256 1334 303 1329Q354 1323 392 1311Q430 1299 430 1280Q430 1261 392 1239Q280 1276 226 1278L216 1266Q218 1228 218 1178Q218 1114 214 1019Q210 924 210 860Q210 803 239 803L273 805Q303 807 308 807Q387 807 388 770Q388
748 377 733T347 717Q313 717 300 733L233 743H224L214 733V727Q218 680 218 565L216 420L214 274Q214 194 220 111Q223 64 241 49T308 33L345 35L384 37Q444 37 444 10Q444 -27 355 -27H186Q148 -27 145 16ZM405 1495T392 1509T379 1540Q379 1559 394 1575T429
1591Q446 1591 460 1575T474 1542Q474 1495 420 1495Q405 1495 392 1509ZM132 1487T121 1503T109 1538Q109 1556 124 1572T158 1589Q178 1589 188 1570T199 1522Q199 1506 184 1497T148 1487Q132 1487 121 1503Z" />
<glyph unicode="&#xec;" glyph-name="igrave" horiz-adv-x="485" d="M211 0T203 20Q193 20 186 19Q178 18 169 18Q125 18 113 39Q113 47 116 52T128 63L140 74H199L207 82Q207 86 211 101Q214 118 214 125Q214 210 207 349Q199 507 199 573Q199 635 204 813Q209
990 209 1051Q209 1195 199 1288Q180 1294 138 1294L114 1292L89 1290Q50 1290 50 1325Q50 1333 68 1341T99 1350Q166 1350 254 1342Q307 1338 348 1323Q384 1310 384 1288Q384 1284 379 1272L332 1268Q316 1280 273 1280L263 1274Q269 1256 269 1165Q269 1084
266 922Q263 759 263 678Q263 593 270 454Q277 314 277 229L276 203Q275 188 275 166Q275 118 281 109L279 104Q279 84 324 84Q341 84 354 85Q367 86 384 86Q445 86 445 57Q445 39 432 28T400 16Q386 16 366 20Q344 23 332 23Q318 23 294 12Q272 0 259 0Q211 0
203 20ZM332 1418T235 1452T129 1492Q112 1488 96 1488Q26 1488 26 1529Q26 1565 39 1574H52Q113 1574 131 1551Q133 1550 139 1548T156 1543Q183 1534 237 1513Q287 1493 321 1474Q360 1452 360 1435Q360 1429 352 1424T336 1418Q332 1418 235 1452Z" />
<glyph unicode="&#xed;" glyph-name="iacute" horiz-adv-x="485" d="M211 0T203 20Q193 20 186 19Q178 18 169 18Q125 18 113 39Q113 47 116 52T128 63L140 74H199L207 82Q207 86 211 101Q214 118 214 125Q214 210 207 349Q199 507 199 573Q199 635 204 813Q209
990 209 1051Q209 1195 199 1288Q180 1294 138 1294L114 1292L89 1290Q50 1290 50 1325Q50 1333 68 1341T99 1350Q166 1350 254 1342Q307 1338 348 1323Q384 1310 384 1288Q384 1284 379 1272L332 1268Q316 1280 273 1280L263 1274Q269 1256 269 1165Q269 1084
266 922Q263 759 263 678Q263 593 270 454Q277 314 277 229L276 203Q275 188 275 166Q275 118 281 109L279 104Q279 84 324 84Q341 84 354 85Q367 86 384 86Q445 86 445 57Q445 39 432 28T400 16Q386 16 366 20Q344 23 332 23Q318 23 294 12Q272 0 259 0Q211 0
203 20ZM237 1399T227 1407T216 1429Q216 1437 272 1482Q317 1519 394 1578Q463 1631 470 1638Q515 1638 515 1606L509 1575Q404 1528 253 1399Q237 1399 227 1407Z" />
<glyph unicode="&#xee;" glyph-name="icircumflex" horiz-adv-x="485" d="M211 0T203 20Q193 20 186 19Q178 18 169 18Q125 18 113 39Q113 47 116 52T128 63L140 74H199L207 82Q207 86 211 101Q214 118 214 125Q214 210 207 349Q199 507 199 573Q199 635 204 813Q209
990 209 1051Q209 1195 199 1288Q180 1294 138 1294L114 1292L89 1290Q50 1290 50 1325Q50 1333 68 1341T99 1350Q166 1350 254 1342Q307 1338 348 1323Q384 1310 384 1288Q384 1284 379 1272L332 1268Q316 1280 273 1280L263 1274Q269 1256 269 1165Q269 1084
266 922Q263 759 263 678Q263 593 270 454Q277 314 277 229L276 203Q275 188 275 166Q275 118 281 109L279 104Q279 84 324 84Q341 84 354 85Q367 86 384 86Q445 86 445 57Q445 39 432 28T400 16Q386 16 366 20Q344 23 332 23Q318 23 294 12Q272 0 259 0Q211 0
203 20ZM329 1378Q318 1507 270 1685Q261 1661 239 1597T202 1489Q186 1440 184 1419L149 1372L112 1398Q113 1428 148 1514T224 1672T284 1744Q313 1744 313 1701Q313 1663 322 1625T350 1536Q365 1491 374 1462L372 1449L387 1419L385 1408Q393 1390 393 1386Q393
1367 356 1361L329 1378Z" />
<glyph unicode="&#xef;" glyph-name="idieresis" horiz-adv-x="485" d="M211 0T203 20Q193 20 186 19Q178 18 169 18Q125 18 113 39Q113 47 116 52T128 63L140 74H199L207 82Q207 86 211 101Q214 118 214 125Q214 210 207 349Q199 507 199 573Q199 635 204 813Q209
990 209 1051Q209 1195 199 1288Q180 1294 138 1294L114 1292L89 1290Q50 1290 50 1325Q50 1333 68 1341T99 1350Q166 1350 254 1342Q307 1338 348 1323Q384 1310 384 1288Q384 1284 379 1272L332 1268Q316 1280 273 1280L263 1274Q269 1256 269 1165Q269 1084
266 922Q263 759 263 678Q263 593 270 454Q277 314 277 229L276 203Q275 188 275 166Q275 118 281 109L279 104Q279 84 324 84Q341 84 354 85Q367 86 384 86Q445 86 445 57Q445 39 432 28T400 16Q386 16 366 20Q344 23 332 23Q318 23 294 12Q272 0 259 0Q211 0
203 20ZM371 1495T358 1509T345 1540Q345 1559 360 1575T395 1591Q412 1591 426 1575T440 1542Q440 1495 386 1495Q371 1495 358 1509ZM98 1487T87 1503T75 1538Q75 1556 90 1572T124 1589Q144 1589 154 1570T165 1522Q165 1506 150 1497T114 1487Q98 1487 87 1503Z"
/>
<glyph unicode="&#xf0;" glyph-name="eth" horiz-adv-x="680" d="M285 -29T259 -18T216 12Q202 29 193 56T182 111Q179 137 179 170Q179 262 183 355Q185 419 190 471T207 602Q215 667 230 718T270 819Q291 865 322 889T392 913Q414 913 437 897Q430 1123 404
1288Q290 1276 257 1276Q246 1276 246 1284Q246 1313 269 1313Q331 1313 400 1323Q376 1466 339 1497Q330 1504 314 1510Q292 1519 281 1528T269 1550Q269 1556 277 1562T293 1569Q399 1569 451 1329Q499 1333 533 1333Q545 1333 545 1323L543 1313Q543 1306 455
1296Q490 1103 490 815V807Q490 599 480 369Q476 343 469 216Q466 173 457 127T433 49Q417 14 388 -7T320 -29Q285 -29 259 -18ZM346 12T365 32Q378 46 383 54T392 79Q398 108 401 138Q402 160 404 166Q437 433 437 727V844Q416 860 375 868Q342 868 316 827T275
713Q241 552 235 405Q228 243 228 174Q228 12 304 12Q346 12 365 32Z" />
<glyph unicode="&#xf1;" glyph-name="ntilde" horiz-adv-x="943" d="M654 -8T646 4T633 41Q629 62 624 70L626 76Q612 166 558 311Q530 387 520 418Q513 426 465 571Q281 1142 233 1188Q217 1127 217 1044L219 963L221 883L219 833L217 784Q217 751 221 707L225
641H219Q219 301 233 264V80Q241 66 241 37Q241 21 231 9T203 -4Q160 -4 160 106Q160 133 164 173Q168 212 168 240Q168 339 162 535Q155 717 155 829Q155 898 162 1011Q168 1133 168 1192V1218Q168 1319 205 1350L211 1343L231 1348Q241 1344 250 1335Q255 1328
259 1317L262 1305L264 1294Q299 1147 411 887Q520 634 557 520Q571 477 590 394Q610 304 631 240T682 125L686 131Q733 583 733 1247L731 1272L729 1298Q729 1341 758 1341Q777 1341 790 1323T803 1282V1145L792 1128Q792 1016 781 748T755 256T727 6Q716 4 692
-3V-4L691 -3Q673 -8 669 -8Q654 -8 646 4ZM282 1398T269 1409T256 1433Q256 1497 290 1536T375 1575Q426 1575 462 1533Q477 1503 513 1479T579 1454Q632 1454 632 1527Q632 1533 627 1548Q622 1558 620 1566Q626 1578 641 1578Q664 1578 676 1558T688 1508Q688
1480 673 1455T632 1415T579 1400Q545 1400 508 1420T449 1463Q430 1482 397 1521L383 1527Q353 1527 330 1511T307 1472Q307 1462 317 1429L295 1398Q282 1398 269 1409Z" />
<glyph unicode="&#xf2;" glyph-name="ograve" horiz-adv-x="709" d="M120 -39T120 715V786Q120 1357 268 1357Q278 1357 296 1352Q339 1337 380 1330T425 1322Q465 1315 503 1243Q546 1169 567 1050T589 801L585 791L587 669L589 547Q589 504 588 460T582 359Q576
293 567 243T541 140Q523 84 500 47T441 -14Q406 -39 360 -39Q120 -39 120 715ZM391 20T422 50T471 134Q509 246 518 367Q526 472 526 563Q526 637 515 805Q503 966 503 1047L495 1063L499 1073Q499 1132 476 1182T414 1263T327 1294Q233 1294 216 1204Q208 1160
207 1116Q207 1106 207 1060T203 974T194 909Q194 885 189 813Q184 741 184 717L186 636L188 555Q188 465 205 333Q217 242 234 179T280 69Q311 20 352 20Q391 20 422 50ZM434 1418T337 1452T231 1492Q214 1488 198 1488Q128 1488 128 1529Q128 1565 141 1574H154Q215
1574 233 1551Q235 1550 241 1548T258 1543Q285 1534 339 1513Q389 1493 423 1474Q462 1452 462 1435Q462 1429 454 1424T438 1418Q434 1418 337 1452Z" />
<glyph unicode="&#xf3;" glyph-name="oacute" horiz-adv-x="709" d="M120 -39T120 715V786Q120 1357 268 1357Q278 1357 296 1352Q339 1337 380 1330T425 1322Q465 1315 503 1243Q546 1169 567 1050T589 801L585 791L587 669L589 547Q589 504 588 460T582 359Q576
293 567 243T541 140Q523 84 500 47T441 -14Q406 -39 360 -39Q120 -39 120 715ZM391 20T422 50T471 134Q509 246 518 367Q526 472 526 563Q526 637 515 805Q503 966 503 1047L495 1063L499 1073Q499 1132 476 1182T414 1263T327 1294Q233 1294 216 1204Q208 1160
207 1116Q207 1106 207 1060T203 974T194 909Q194 885 189 813Q184 741 184 717L186 636L188 555Q188 465 205 333Q217 242 234 179T280 69Q311 20 352 20Q391 20 422 50ZM339 1399T329 1407T318 1429Q318 1437 374 1482Q419 1519 496 1578Q565 1631 572 1638Q617
1638 617 1606L611 1575Q506 1528 355 1399Q339 1399 329 1407Z" />
<glyph unicode="&#xf4;" glyph-name="ocircumflex" horiz-adv-x="709" d="M120 -39T120 715V786Q120 1357 268 1357Q278 1357 296 1352Q339 1337 380 1330T425 1322Q465 1315 503 1243Q546 1169 567 1050T589 801L585 791L587 669L589 547Q589 504 588 460T582
359Q576 293 567 243T541 140Q523 84 500 47T441 -14Q406 -39 360 -39Q120 -39 120 715ZM391 20T422 50T471 134Q509 246 518 367Q526 472 526 563Q526 637 515 805Q503 966 503 1047L495 1063L499 1073Q499 1132 476 1182T414 1263T327 1294Q233 1294 216 1204Q208
1160 207 1116Q207 1106 207 1060T203 974T194 909Q194 885 189 813Q184 741 184 717L186 636L188 555Q188 465 205 333Q217 242 234 179T280 69Q311 20 352 20Q391 20 422 50ZM431 1378Q420 1507 372 1685Q363 1661 341 1597T304 1489Q288 1440 286 1419L251 1372L214
1398Q215 1428 250 1514T326 1672T386 1744Q415 1744 415 1701Q415 1663 424 1625T452 1536Q467 1491 476 1462L474 1449L489 1419L487 1408Q495 1390 495 1386Q495 1367 458 1361L431 1378Z" />
<glyph unicode="&#xf5;" glyph-name="otilde" horiz-adv-x="709" d="M120 -39T120 715V786Q120 1357 268 1357Q278 1357 296 1352Q339 1337 380 1330T425 1322Q465 1315 503 1243Q546 1169 567 1050T589 801L585 791L587 669L589 547Q589 504 588 460T582 359Q576
293 567 243T541 140Q523 84 500 47T441 -14Q406 -39 360 -39Q120 -39 120 715ZM391 20T422 50T471 134Q509 246 518 367Q526 472 526 563Q526 637 515 805Q503 966 503 1047L495 1063L499 1073Q499 1132 476 1182T414 1263T327 1294Q233 1294 216 1204Q208 1160
207 1116Q207 1106 207 1060T203 974T194 909Q194 885 189 813Q184 741 184 717L186 636L188 555Q188 465 205 333Q217 242 234 179T280 69Q311 20 352 20Q391 20 422 50ZM165 1398T152 1409T139 1433Q139 1497 173 1536T258 1575Q309 1575 345 1533Q360 1503 396
1479T462 1454Q515 1454 515 1527Q515 1533 510 1548Q505 1558 503 1566Q509 1578 524 1578Q547 1578 559 1558T571 1508Q571 1480 556 1455T515 1415T462 1400Q428 1400 391 1420T332 1463Q313 1482 280 1521L266 1527Q236 1527 213 1511T190 1472Q190 1462 200
1429L178 1398Q165 1398 152 1409Z" />
<glyph unicode="&#xf6;" glyph-name="odieresis" horiz-adv-x="709" d="M120 -39T120 715V786Q120 1357 268 1357Q278 1357 296 1352Q339 1337 380 1330T425 1322Q465 1315 503 1243Q546 1169 567 1050T589 801L585 791L587 669L589 547Q589 504 588 460T582 359Q576
293 567 243T541 140Q523 84 500 47T441 -14Q406 -39 360 -39Q120 -39 120 715ZM391 20T422 50T471 134Q509 246 518 367Q526 472 526 563Q526 637 515 805Q503 966 503 1047L495 1063L499 1073Q499 1132 476 1182T414 1263T327 1294Q233 1294 216 1204Q208 1160
207 1116Q207 1106 207 1060T203 974T194 909Q194 885 189 813Q184 741 184 717L186 636L188 555Q188 465 205 333Q217 242 234 179T280 69Q311 20 352 20Q391 20 422 50ZM473 1495T460 1509T447 1540Q447 1559 462 1575T497 1591Q514 1591 528 1575T542 1542Q542
1495 488 1495Q473 1495 460 1509ZM200 1487T189 1503T177 1538Q177 1556 192 1572T226 1589Q246 1589 256 1570T267 1522Q267 1506 252 1497T216 1487Q200 1487 189 1503Z" />
<glyph unicode="&#xf7;" glyph-name="divide" horiz-adv-x="720" d="M380 928T364 943T348 977Q348 994 364 1008T397 1022Q444 1022 444 969Q444 954 430 941T399 928Q380 928 364 943ZM180 721T168 731T155 756Q155 762 356 762H546Q554 762 561 755T569 741Q569
725 530 725Q465 721 417 721H198Q180 721 168 731ZM383 467T367 482T350 516Q350 536 369 546T417 557Q433 557 442 542T452 506Q452 490 436 479T401 467Q383 467 367 482Z" />
<glyph unicode="&#xf8;" glyph-name="oslash" horiz-adv-x="599" d="M126 -248T126 -219Q133 -152 151 -57Q170 39 176 104Q176 119 169 141Q164 157 161 172Q120 420 120 870V993Q120 1382 257 1382Q268 1382 287 1375Q312 1361 313 1360L319 1364L333 1350L352
1455L356 1478Q371 1563 378 1591H411V1573Q411 1566 391 1443Q370 1323 370 1311Q370 1305 373 1297T380 1282L389 1268L397 1255L395 1251Q396 1241 409 1220Q422 1199 423 1196Q446 1145 446 1071L442 1069Q442 1017 455 925Q468 831 468 780V770L473 764Q473
704 476 587Q479 470 479 410Q479 334 474 271Q470 222 464 188T443 113Q429 72 410 47T360 4Q330 -14 292 -14Q227 -14 202 23H200L198 8Q168 -248 145 -248Q126 -248 126 -219ZM216 349T273 860Q291 1036 296 1069Q301 1104 306 1135Q319 1229 319 1280Q319 1301
301 1316T260 1331Q258 1331 229 1321L219 1323Q161 1292 161 782V768Q161 686 176 647Q176 582 188 451Q200 321 200 254Q216 349 273 860ZM430 25T430 369Q430 547 427 676T408 973Q392 1159 362 1217Q325 996 267 416Q247 233 239 201Q225 145 225 111Q225 65
244 45T309 25Q430 25 430 369Z" />
<glyph unicode="&#xf9;" glyph-name="ugrave" horiz-adv-x="750" d="M329 -30T291 -9T229 41Q201 77 184 248T164 637L163 703Q159 977 156 1121T145 1319L158 1348Q205 1342 205 1235L211 692Q211 627 222 475Q233 323 233 258Q233 25 387 25Q482 25 507 454L510
496Q524 997 524 1329L522 1348L520 1366Q520 1389 555 1389Q579 1389 585 1376Q590 1361 590 1305Q590 1145 577 1096Q579 1090 579 1083Q579 1063 574 1001Q569 939 569 920Q569 909 570 900Q571 891 571 879Q568 841 566 739Q563 538 557 401Q550 224 508 100Q487
37 450 3T362 -31Q329 -30 291 -9ZM404 1418T307 1452T201 1492Q184 1488 168 1488Q98 1488 98 1529Q98 1565 111 1574H124Q185 1574 203 1551Q205 1550 211 1548T228 1543Q255 1534 309 1513Q359 1493 393 1474Q432 1452 432 1435Q432 1429 424 1424T408 1418Q404
1418 307 1452Z" />
<glyph unicode="&#xfa;" glyph-name="uacute" horiz-adv-x="750" d="M329 -30T291 -9T229 41Q201 77 184 248T164 637L163 703Q159 977 156 1121T145 1319L158 1348Q205 1342 205 1235L211 692Q211 627 222 475Q233 323 233 258Q233 25 387 25Q482 25 507 454L510
496Q524 997 524 1329L522 1348L520 1366Q520 1389 555 1389Q579 1389 585 1376Q590 1361 590 1305Q590 1145 577 1096Q579 1090 579 1083Q579 1063 574 1001Q569 939 569 920Q569 909 570 900Q571 891 571 879Q568 841 566 739Q563 538 557 401Q550 224 508 100Q487
37 450 3T362 -31Q329 -30 291 -9ZM309 1399T299 1407T288 1429Q288 1437 344 1482Q389 1519 466 1578Q535 1631 542 1638Q587 1638 587 1606L581 1575Q476 1528 325 1399Q309 1399 299 1407Z" />
<glyph unicode="&#xfb;" glyph-name="ucircumflex" horiz-adv-x="750" d="M329 -30T291 -9T229 41Q201 77 184 248T164 637L163 703Q159 977 156 1121T145 1319L158 1348Q205 1342 205 1235L211 692Q211 627 222 475Q233 323 233 258Q233 25 387 25Q482 25 507
454L510 496Q524 997 524 1329L522 1348L520 1366Q520 1389 555 1389Q579 1389 585 1376Q590 1361 590 1305Q590 1145 577 1096Q579 1090 579 1083Q579 1063 574 1001Q569 939 569 920Q569 909 570 900Q571 891 571 879Q568 841 566 739Q563 538 557 401Q550 224
508 100Q487 37 450 3T362 -31Q329 -30 291 -9ZM401 1378Q390 1507 342 1685Q333 1661 311 1597T274 1489Q258 1440 256 1419L221 1372L184 1398Q185 1428 220 1514T296 1672T356 1744Q385 1744 385 1701Q385 1663 394 1625T422 1536Q437 1491 446 1462L444 1449L459
1419L457 1408Q465 1390 465 1386Q465 1367 428 1361L401 1378Z" />
<glyph unicode="&#xfc;" glyph-name="udieresis" horiz-adv-x="750" d="M329 -30T291 -9T229 41Q201 77 184 248T164 637L163 703Q159 977 156 1121T145 1319L158 1348Q205 1342 205 1235L211 692Q211 627 222 475Q233 323 233 258Q233 25 387 25Q482 25 507 454L510
496Q524 997 524 1329L522 1348L520 1366Q520 1389 555 1389Q579 1389 585 1376Q590 1361 590 1305Q590 1145 577 1096Q579 1090 579 1083Q579 1063 574 1001Q569 939 569 920Q569 909 570 900Q571 891 571 879Q568 841 566 739Q563 538 557 401Q550 224 508 100Q487
37 450 3T362 -31Q329 -30 291 -9ZM443 1495T430 1509T417 1540Q417 1559 432 1575T467 1591Q484 1591 498 1575T512 1542Q512 1495 458 1495Q443 1495 430 1509ZM170 1487T159 1503T147 1538Q147 1556 162 1572T196 1589Q216 1589 226 1570T237 1522Q237 1506
222 1497T186 1487Q170 1487 159 1503Z" />
<glyph unicode="&#xfd;" glyph-name="yacute" horiz-adv-x="547" d="M276 -31T266 -23T253 -8Q273 43 273 350Q273 417 266 521L257 666L244 692L250 717Q239 746 214 813T163 950L141 1011Q133 1033 107 1108T67 1230Q52 1281 50 1307L78 1329Q98 1326 138 1199Q165
1114 202 991L217 943Q255 816 271 811L279 848L275 858Q289 875 315 1004Q340 1136 367 1246Q396 1360 420 1360Q430 1360 438 1354T447 1339Q447 1308 390 1119L384 1097Q368 1042 357 1001T334 910Q310 810 310 723Q320 699 320 688Q320 678 314 660Q308 641
308 629Q308 602 316 536Q324 470 324 442Q324 352 325 280Q326 208 326 117V108Q326 -31 283 -31Q276 -31 266 -23ZM228 1399T218 1407T207 1429Q207 1437 263 1482Q308 1519 385 1578Q454 1631 461 1638Q506 1638 506 1606L500 1575Q395 1528 244 1399Q228 1399
218 1407Z" />
<glyph unicode="&#xfe;" glyph-name="thorn" horiz-adv-x="660" d="M542 721T476 628T286 486Q285 428 294 275Q302 133 302 74Q302 40 291 25T255 10Q243 10 235 23T227 58Q227 229 216 620Q205 1011 205 1178L203 1487Q203 1509 210 1518T233 1527Q259 1527
273 1491T287 1380Q287 1347 284 1294Q282 1271 281 1254T280 1230V1214Q358 1210 422 1153T517 1005Q542 929 542 845Q542 721 476 628ZM383 595T430 666T478 828Q478 902 472 941T446 1015Q426 1051 401 1075T311 1150H277L279 850L281 532Q383 595 430 666Z"
/>
<glyph unicode="&#xff;" glyph-name="ydieresis" horiz-adv-x="547" d="M276 -31T266 -23T253 -8Q273 43 273 350Q273 417 266 521L257 666L244 692L250 717Q239 746 214 813T163 950L141 1011Q133 1033 107 1108T67 1230Q52 1281 50 1307L78 1329Q98 1326 138
1199Q165 1114 202 991L217 943Q255 816 271 811L279 848L275 858Q289 875 315 1004Q340 1136 367 1246Q396 1360 420 1360Q430 1360 438 1354T447 1339Q447 1308 390 1119L384 1097Q368 1042 357 1001T334 910Q310 810 310 723Q320 699 320 688Q320 678 314 660Q308
641 308 629Q308 602 316 536Q324 470 324 442Q324 352 325 280Q326 208 326 117V108Q326 -31 283 -31Q276 -31 266 -23ZM362 1495T349 1509T336 1540Q336 1559 351 1575T386 1591Q403 1591 417 1575T431 1542Q431 1495 377 1495Q362 1495 349 1509ZM89 1487T78
1503T66 1538Q66 1556 81 1572T115 1589Q135 1589 145 1570T156 1522Q156 1506 141 1497T105 1487Q89 1487 78 1503Z" />
<glyph unicode="&#x2013;" glyph-name="endash" horiz-adv-x="771" d="M95 721T83 731T70 756Q70 762 353 762H646Q662 762 676 752T691 727H629Q629 721 414 721H113Q95 721 83 731Z" />
<glyph unicode="&#x2014;" glyph-name="emdash" horiz-adv-x="1048" d="M95 721T83 731T70 756Q70 762 640 762H932Q948 762 963 752T978 727H916Q916 721 701 721H113Q95 721 83 731Z" />
<glyph unicode="&#x2018;" glyph-name="quoteleft" horiz-adv-x="387" d="M121 1217T100 1276L104 1282Q100 1289 100 1307Q100 1342 126 1400T190 1505Q230 1553 264 1554L297 1538L293 1520Q283 1512 267 1496T237 1467Q201 1431 192 1405Q186 1389 186 1370Q212
1354 229 1330T246 1280Q246 1253 222 1235T168 1217Q121 1217 100 1276Z" />
<glyph unicode="&#x2019;" glyph-name="quoteright" horiz-adv-x="382" d="M90 1233L94 1251Q104 1259 121 1275T151 1304Q187 1343 195 1366Q201 1383 201 1401Q175 1417 158 1441T141 1491Q141 1518 165 1536T219 1554Q266 1554 287 1495L283 1489Q287 1482
287 1464Q287 1429 261 1371T197 1266Q157 1218 123 1217L90 1233Z" />
<glyph unicode="&#x201a;" glyph-name="quotesinglbase" horiz-adv-x="357" d="M70 -162L74 -143Q106 -115 130 -91Q164 -57 175 -29Q181 -13 181 6Q156 21 139 45T122 96Q122 123 146 141T199 160Q245 160 267 100L263 94Q267 87 267 70Q267 35 241 -23T177 -128Q137
-177 103 -178L70 -162Z" />
<glyph unicode="&#x201c;" glyph-name="quotedblleft" horiz-adv-x="600" d="M111 1217T90 1276L94 1282Q90 1289 90 1307Q90 1342 116 1400T180 1505Q220 1553 254 1554L287 1538L283 1520Q273 1512 257 1496T227 1467Q191 1431 182 1405Q176 1389 176 1370Q202
1354 219 1330T236 1280Q236 1253 212 1235T158 1217Q111 1217 90 1276ZM324 1217T303 1276L307 1282Q303 1289 303 1307Q303 1342 329 1400T393 1505Q433 1553 467 1554L500 1538L496 1520Q486 1512 470 1496T440 1467Q404 1431 395 1405Q389 1389 389 1370Q415
1354 432 1330T449 1280Q449 1253 425 1235T371 1217Q324 1217 303 1276Z" />
<glyph unicode="&#x201d;" glyph-name="quotedblright" horiz-adv-x="633" d="M90 1233L94 1251Q104 1259 121 1275T151 1304Q187 1343 195 1366Q201 1383 201 1401Q175 1417 158 1441T141 1491Q141 1518 165 1536T219 1554Q266 1554 287 1495L283 1489Q287 1482
287 1464Q287 1429 261 1371T197 1266Q157 1218 123 1217L90 1233ZM336 1233L340 1251Q350 1259 367 1275T397 1304Q433 1343 441 1366Q447 1383 447 1401Q421 1417 404 1441T387 1491Q387 1518 411 1536T465 1554Q512 1554 533 1495L529 1489Q533 1482 533 1464Q533
1429 507 1371T443 1266Q403 1218 369 1217L336 1233Z" />
<glyph unicode="&#x201e;" glyph-name="quotedblbase" horiz-adv-x="616" d="M90 -158Q101 -134 130 -108Q167 -76 186 -50T205 6Q180 21 163 45T146 96Q146 123 170 141T223 160Q252 160 271 137T291 82Q291 39 266 -20T200 -126Q157 -174 115 -174L90 -158ZM320
-162L324 -143L350 -119Q369 -103 380 -91T404 -63Q430 -32 430 6Q405 21 388 45T371 96Q371 123 395 141T449 160Q478 160 497 137T516 82Q516 42 492 -18T430 -126Q390 -176 352 -178L320 -162Z" />
<glyph unicode="&#x2022;" glyph-name="bullet" horiz-adv-x="512" d="M211 571T183 590T137 637T120 690Q120 730 134 769T176 833T237 858Q308 858 350 825T392 741Q392 688 366 636Q350 606 319 589T245 571Q211 571 183 590Z" />
<glyph unicode="&#x2039;" glyph-name="guilsinglleft" horiz-adv-x="700" d="M511 2L497 4H493Q460 53 412 164L376 242L274 455L253 499Q238 529 229 549Q223 566 185 618Q147 668 147 698Q147 723 195 837Q247 961 301 1081Q359 1211 370 1247L382 1287Q392
1326 400 1349T421 1395Q435 1420 448 1421L475 1401Q466 1340 427 1241T336 1039Q287 941 253 847T219 700Q219 684 359 398T534 53L552 39Q549 26 541 13T524 0L511 2Z" />
<glyph unicode="&#x203a;" glyph-name="guilsinglright" horiz-adv-x="700" d="M160 0T151 13T139 39L157 53Q200 132 336 408T473 700Q473 753 440 846T357 1039Q306 1140 266 1240T217 1401L243 1421Q256 1418 270 1396T293 1346L310 1288L321 1247Q334 1207
391 1081Q448 952 496 838Q544 724 544 698Q544 668 507 618Q469 567 462 549Q454 529 438 498L417 455L241 90L230 68L198 4L182 2L168 0Q160 0 151 13Z" />
</font>
</defs>
</svg>
