<?xml version="1.0" standalone="no"?>
<!DOCTYPE svg PUBLIC "-//W3C//DTD SVG 1.1//EN" "http://www.w3.org/Graphics/SVG/1.1/DTD/svg11.dtd">
<svg xmlns="http://www.w3.org/2000/svg">
<defs >
<font id="ArchitectsDaughter" horiz-adv-x="536" ><font-face
    font-family="Architects Daughter"
    units-per-em="1024"
    panose-1="0 0 0 0 0 0 0 0 0 0"
    ascent="1010"
    descent="-413"
    alphabetic="0" />
<glyph unicode=" " glyph-name="space" horiz-adv-x="410" />
<glyph unicode="!" glyph-name="exclam" horiz-adv-x="138" d="M63 67Q105 67 114 59T124 42Q113 2 76 -6Q70 -7 63 -7T46 -3T30 11Q19 36 63 67ZM110 901Q104 875 104 577T89 233H22Q22 336 30 491Q44 792 44 897L110 901Z" />
<glyph unicode="&quot;" glyph-name="quotedbl" horiz-adv-x="242" d="M146 594L147 622L146 663Q146 746 182 763L199 747V548L215 514Q212 511 200 505T182 498Q146 498 146 594ZM54 585L55 614L54 656Q54 739 90 756L106 740V541L123 507Q119 503 107 497T90
490Q54 490 54 585Z" />
<glyph unicode="#" glyph-name="numbersign" horiz-adv-x="653" d="M86 339Q86 368 128 368Q146 368 164 364T186 359V448Q172 448 141 453T94 460T70 465Q56 473 56 481T70 498Q77 499 93 502T128 508Q177 514 186 514V630Q186 644 199 646T220 649Q228 649 240
647T253 630V521L353 531V664H403L436 531H612Q612 477 539 477Q510 477 477 482T436 488V386Q496 386 552 394T669 402V382Q669 351 508 339Q482 337 462 336T436 332Q434 300 433 277T424 239Q409 210 353 210V309Q331 311 311 311T273 306T251 289T252 262T261
234T258 210T220 198H212Q205 198 203 199Q198 297 142 318Q120 326 103 327T86 339ZM361 479T355 480T340 482T317 481T288 477Q253 472 253 465V359Q314 359 332 366Q370 381 370 432Q370 466 366 472Z" />
<glyph unicode="$" glyph-name="dollar" horiz-adv-x="570" d="M343 199L361 34V23Q361 8 322 0Q301 -4 269 -4L255 194Q262 174 184 174L156 175Q152 177 150 191Q145 215 142 221Q151 239 237 246Q255 248 261 249V382H237Q82 382 28 428Q11 443 11 466Q9 476
9 495T29 542T85 594Q151 636 228 648V880H277L310 681H510V639L328 614L327 423H554Q555 414 555 394T545 347T514 300T468 266T418 242T373 222T343 199ZM478 373Q468 389 432 389Q407 389 379 382T337 369L343 282Q478 321 478 373ZM159 430L202 431Q216 431
228 431T248 431T261 432L244 581Q244 582 237 583T217 585T182 575T138 549Q91 512 91 472Q91 430 159 430Z" />
<glyph unicode="%" glyph-name="percent" horiz-adv-x="531" d="M321 72T312 87T303 128T315 175Q335 208 375 208Q401 208 424 196Q471 171 475 125Q475 75 454 59T393 42Q362 42 342 57ZM428 142Q406 165 379 165Q348 165 342 136Q342 132 342 123T354 94Q372
79 390 77Q426 73 434 106Q434 111 434 119T428 142ZM49 451T40 466T31 507T43 554Q63 587 103 587Q129 587 152 575Q199 550 203 504Q203 454 182 438T121 421Q90 421 70 436ZM156 521Q134 544 107 544Q76 544 70 514Q70 511 70 502T82 473Q100 458 117 456T146
462Q162 474 162 490T156 521ZM77 3Q62 3 62 30V39Q62 72 231 338Q332 497 371 548T415 600Q420 603 423 603T427 593T412 547T372 467T318 369T255 263T189 159Q116 48 77 3Z" />
<glyph unicode="&amp;" glyph-name="ampersand" horiz-adv-x="686" d="M622 76Q622 48 578 48Q549 48 503 75Q486 85 469 93T430 102Q399 86 362 66Q234 -2 137 -2L105 0Q104 0 100 0T78 4Q34 15 12 35Q5 42 5 48T7 59L189 349Q145 425 134 456Q118 505 118 571Q126
673 186 740Q233 791 280 791Q316 791 335 756Q348 734 348 694Q348 577 238 366Q241 326 332 250Q376 213 407 195T446 177Q503 209 524 230T555 264T577 292Q607 331 649 370Q659 370 671 361T682 349T673 331T644 290Q590 224 487 149Q622 82 622 76ZM80 62Q80
44 97 44Q100 44 123 44T182 50T251 67Q308 86 387 133L221 299Q197 275 165 227Q80 103 80 62ZM205 415Q251 441 277 534Q297 605 297 677L298 703Q298 721 290 726T260 731T219 713T188 667Q166 618 166 546T205 415Z" />
<glyph unicode="&apos;" glyph-name="quotesingle" horiz-adv-x="166" d="M104 619Q128 619 128 584Q128 543 94 476Q84 456 75 442L27 438L83 614Q95 619 104 619Z" />
<glyph unicode="(" glyph-name="parenleft" horiz-adv-x="305" d="M199 34Q199 14 169 14T116 35T77 90T49 164T30 244Q15 318 15 353T23 436T46 540T82 653T130 758Q189 864 249 864Q260 864 268 862T282 847Q188 714 158 649T113 526T98 408T114 302T148 211T183
123T199 34Z" />
<glyph unicode=")" glyph-name="parenright" horiz-adv-x="360" d="M28 763L26 779Q26 802 38 808T70 815Q153 815 218 722Q296 607 323 422Q330 373 330 346T324 285T305 214T275 138T234 69Q184 0 128 0Q124 0 118 6T111 16Q128 58 154 94T204 167T245 243T262
347T244 472T193 581T119 673T28 763Z" />
<glyph unicode="*" glyph-name="asterisk" horiz-adv-x="520" d="M82 190Q153 319 159 371Q159 393 123 416Q108 425 92 434Q39 465 39 506Q39 516 42 528Q79 527 102 514T144 488Q183 460 205 460Q215 460 225 462L307 678Q315 699 363 699Q363 662 353 609T337
526T332 466Q363 466 408 477T476 494T526 500Q526 468 511 451T473 423T424 406T375 389Q322 366 322 314Q322 284 334 249Q358 183 358 160T344 129T307 113Q287 123 279 143T266 187T253 231T225 262Q207 247 192 225T159 181T121 145T75 130Q71 130 65 136T58
146Q67 164 82 190Z" />
<glyph unicode="+" glyph-name="plus" horiz-adv-x="537" d="M210 482Q210 501 245 501Q262 501 267 495T275 473T281 439T286 399T291 359T294 333H514Q514 294 420 288Q394 287 370 286Q305 285 294 282Q292 268 292 255T294 220T301 168Q311 105 311 84T310
50Q290 34 266 34Q247 34 244 50Q242 71 240 98T234 156Q224 231 210 266Q183 266 146 255Q71 233 41 233T10 258Q10 285 110 290Q170 294 190 300T210 316V482Z" />
<glyph unicode="," glyph-name="comma" horiz-adv-x="182" d="M48 86Q54 99 62 101T79 103T96 101Q110 97 116 84Q116 82 116 79T112 66T100 41T81 9T61 -23T47 -46T35 -61Q11 -85 -10 -85Q-16 -85 -22 -83L48 86Z" />
<glyph unicode="-" glyph-name="hyphen" horiz-adv-x="318" d="M80 216Q30 216 30 242Q30 255 41 260T81 269T153 281T245 294Q265 294 279 287Q299 277 299 263Q299 258 295 250T272 236L80 216Z" />
<glyph unicode="." glyph-name="period" horiz-adv-x="144" d="M46 -1Q23 1 23 19Q23 41 48 60Q58 67 63 67T72 66Q93 66 100 58T108 35T102 14T87 4Q72 -1 46 -1Z" />
<glyph unicode="/" glyph-name="slash" horiz-adv-x="466" d="M39 0Q21 0 21 32V42Q36 86 416 656Q435 685 438 689Q443 686 443 675T431 629T388 528T312 384T219 230Q108 58 39 0Z" />
<glyph unicode="0" glyph-name="zero" horiz-adv-x="646" d="M116 44Q80 67 59 101T38 176T50 271T80 373T125 464T186 542Q261 615 356 615Q484 615 552 521Q615 436 615 310Q615 161 520 78Q427 -2 273 -2Q184 -2 116 44ZM97 183Q97 48 289 48Q427 48 496 119T566
321Q566 325 566 329Q566 444 509 505T353 566Q342 566 334 566T318 566Q265 566 213 494Q164 428 129 325Q97 231 97 183Z" />
<glyph unicode="1" glyph-name="one" horiz-adv-x="131" d="M28 16Q28 35 29 75T32 167T36 274T39 381T42 472T44 532Q42 554 52 560T74 566T96 564T110 548L94 34Q92 16 66 9T28 16Z" />
<glyph unicode="2" glyph-name="two" horiz-adv-x="586" d="M538 167Q571 167 571 142T549 106T500 89T448 84T418 82T389 74T335 59T268 40Q155 10 88 10Q54 10 43 20T38 50Q113 116 194 220Q315 375 315 462Q315 479 310 494Q299 525 253 534Q209 534 181 516T129
476T79 436T16 418Q17 451 43 482Q95 546 190 574Q224 585 244 585T274 584Q313 580 341 556T374 482Q374 341 242 169Q206 122 171 82Q182 81 205 81T270 92T357 120T448 152T538 167Z" />
<glyph unicode="3" glyph-name="three" horiz-adv-x="521" d="M482 507Q482 447 386 366Q362 347 345 332Q468 330 492 274Q497 261 497 247T490 210T458 154T400 92Q329 30 250 6Q223 -2 207 -2T180 -2T159 5T148 25Q223 44 280 79T370 152Q409 199 409 230T390
272T341 283Q265 283 134 221L99 266Q402 406 402 467Q402 493 345 501Q286 501 211 481T94 452T10 443Q10 490 33 498Q75 508 122 520Q276 559 368 559T482 507Z" />
<glyph unicode="4" glyph-name="four" horiz-adv-x="697" d="M397 -15Q376 -15 373 -3L377 195H304L184 196H112Q99 196 86 200T73 221Q126 289 176 358Q335 575 394 575Q460 575 460 343Q460 313 459 279L680 282Q680 256 674 244T662 231L477 216Q463 177 460
128Q455 48 455 -6L397 -15ZM377 482Q355 452 324 424T262 367T208 309T178 249Q185 249 209 249T278 254T377 266V482Z" />
<glyph unicode="5" glyph-name="five" horiz-adv-x="725" d="M27 289L34 358Q41 416 50 498L62 598Q66 611 74 613T98 615T120 608T127 589T125 564T122 537Q192 537 261 552T400 585T538 618T677 633Q687 633 695 631T709 614Q705 602 695 594T662 578T598 562T495
540T342 507T128 460V332Q160 335 201 342Q277 355 317 355T383 354T444 340Q517 312 526 225Q526 162 492 119T405 49Q307 0 177 0Q149 0 137 6T125 32Q125 52 141 70T177 88V70Q295 70 347 86T429 132T460 206T442 270T398 300Q358 316 307 316T230 308T179 290Q112
265 77 265H61Q27 265 27 289Z" />
<glyph unicode="6" glyph-name="six" horiz-adv-x="642" d="M22 282Q22 287 22 309T35 375T71 459T126 538T195 604Q275 665 355 665Q369 665 378 660T387 645T387 630Q267 608 186 506Q105 405 105 282Q105 242 124 199T160 136T197 115Q213 128 233 149T279
194T335 243T398 288Q472 332 547 334Q581 334 601 304Q620 275 620 240Q605 119 506 52Q425 -4 320 -4Q255 -4 200 18Q88 62 43 168Q22 218 22 282ZM554 233Q554 267 522 267T452 243T376 187Q328 147 262 76Q280 73 301 73T360 78T442 103T519 155T554 233Z"
/>
<glyph unicode="7" glyph-name="seven" horiz-adv-x="630" d="M310 0L307 58Q307 64 307 69Q307 161 370 290Q397 343 422 391T456 478Q402 478 349 475Q155 464 110 464T28 466Q17 471 14 476T10 490Q10 499 13 504T28 514Q47 513 82 513T177 520T305 537T442
557T578 566Q594 566 602 558T610 543T610 532Q436 339 396 157Q388 118 388 83T394 16L310 0Z" />
<glyph unicode="8" glyph-name="eight" horiz-adv-x="664" d="M551 580T569 561T587 497T537 398Q595 375 611 356T632 317T638 266Q638 198 603 148T513 64T395 15T283 -1T193 5T111 29Q22 69 22 149Q22 174 38 198T72 245T107 286T123 320T118 344T105 363Q87
386 87 414T103 470T145 519T206 556T275 582Q343 600 405 600Q490 600 520 590ZM103 160Q103 93 171 66Q218 48 284 48T400 62T488 104Q573 165 573 268Q549 349 422 349Q334 349 247 310Q164 272 126 219Q106 191 103 160ZM505 534Q462 553 398 553Q259 553 196
484Q174 460 170 426Q170 396 189 381T238 365Q243 364 253 364T288 368T344 382T408 403T468 430Q528 462 538 489Q538 506 530 520T505 534Z" />
<glyph unicode="9" glyph-name="nine" horiz-adv-x="583" d="M247 0Q234 2 225 15T215 46Q311 103 352 146T416 233T442 331Q432 332 415 332T368 328T302 317Q222 304 199 304T154 305T101 319T44 358Q30 377 30 392Q30 466 131 538Q213 597 294 613Q314 617
331 617T365 612Q482 576 515 475Q527 438 527 412T525 355T506 272T461 171T397 86Q321 4 247 0ZM124 386Q170 366 238 366Q337 366 438 407Q442 424 442 437T440 466T426 502Q398 545 342 549Q195 549 143 464Q124 432 124 386Z" />
<glyph unicode=":" glyph-name="colon" horiz-adv-x="171" d="M77 126Q77 141 90 155T121 169T147 158T156 135T147 112T129 101T115 101T93 106T77 126ZM45 318Q31 322 31 333Q31 348 46 358T70 369Q101 365 109 354T118 335Q118 314 92 308Q88 306 78 306T45 318Z" />
<glyph unicode=";" glyph-name="semicolon" horiz-adv-x="127" d="M68 117Q96 117 96 85T93 17T77 -56Q49 -137 -22 -166Q61 117 68 117ZM32 310Q26 314 27 327T39 350T62 359T85 350T96 328Q97 298 78 298Q47 298 32 310Z" />
<glyph unicode="&lt;" glyph-name="less" horiz-adv-x="487" d="M84 229Q116 254 159 288T246 356Q354 441 401 467Q414 467 420 445Q423 436 423 427T419 412L184 233Q199 225 227 213T289 183Q370 143 431 103Q430 102 427 95T420 80Q411 59 409 59Q379 78 323
97T233 130T170 158Q102 192 84 229Z" />
<glyph unicode="=" glyph-name="equal" horiz-adv-x="504" d="M94 139Q70 139 70 174Q70 177 76 183T87 190Q164 203 229 210Q354 225 425 239Q459 239 459 203Q459 196 458 189Q401 189 358 181T274 164Q169 139 94 139ZM114 270L96 269Q66 269 64 287L84 323Q87
326 166 335Q330 352 362 358T401 364T414 360T422 345Q422 320 405 309L114 270Z" />
<glyph unicode="&gt;" glyph-name="greater" horiz-adv-x="483" d="M118 48Q73 65 68 84Q68 88 68 91Q68 122 139 164Q244 225 276 249T314 297L50 396L100 445Q149 410 190 396T270 374T347 354T426 311Q400 280 361 249T278 184T192 117T118 48Z" />
<glyph unicode="?" glyph-name="question" horiz-adv-x="518" d="M278 -2Q242 -2 242 33T278 68Q285 70 293 70T311 60T320 33T311 7T294 -4T278 -2ZM280 273Q123 273 123 323Q123 331 127 341Q261 415 302 441Q432 523 432 576Q432 623 327 648Q284 648 219 637T120
620T52 614Q41 614 28 629T10 659Q136 700 251 700Q334 700 389 680Q498 642 498 569Q498 502 386 420Q326 376 228 332L343 299V276Q319 273 280 273Z" />
<glyph unicode="@" glyph-name="at" horiz-adv-x="1068" d="M592 342Q485 251 408 251Q372 251 352 272Q329 295 329 323T343 381Q373 448 470 482Q518 498 584 498Q588 498 594 498T612 499T637 493T658 473T669 444T680 414Q695 381 729 381Q810 381 810 439Q801
519 711 576Q630 628 534 635Q450 635 373 605T238 520T144 390T109 226Q141 131 256 86Q321 61 432 48Q516 55 592 64T738 95Q887 140 991 249Q998 252 1005 252T1026 247T1042 225Q1040 144 892 82Q774 32 604 8Q516 -5 470 -5T411 -1Q273 -1 170 36Q84 66 46
129Q27 162 27 207Q27 304 67 390T175 542T330 644T513 682Q649 682 746 624Q796 593 828 545T860 438T830 352Q784 308 711 308T592 342ZM574 420Q570 440 540 440Q506 440 470 423Q403 391 384 354Q378 343 378 335T382 318Q388 310 399 310T427 312T476 328Q554
364 574 420Z" />
<glyph unicode="A" glyph-name="A" horiz-adv-x="656" d="M549 366H577Q594 366 609 363T625 341Q632 301 578 302Q563 303 551 304T530 305T523 299Q533 270 544 234T570 162Q606 73 638 34Q621 13 599 -1T575 -15T572 -14L431 283L158 216L148 174Q119 59 83
14Q77 4 58 12Q26 24 26 32Q26 34 47 90T89 203T134 324T179 444T217 546T241 612T250 648T258 675Q268 698 308 698Q351 674 374 636T414 553T447 464T490 382Q499 368 517 367T549 366ZM299 582Q291 521 263 457T218 358T189 292Q257 292 356 332Q381 343 404
352Q357 553 299 582Z" />
<glyph unicode="B" glyph-name="B" horiz-adv-x="728" d="M65 664Q139 680 205 680T322 675T426 656Q536 625 562 572Q569 561 569 546Q569 502 492 451Q441 417 346 382Q579 369 662 314Q708 285 708 246Q708 192 632 134Q549 72 420 31Q301 -7 199 -7Q121 -7
65 16Q63 80 60 148Q52 299 52 402T59 618Q48 618 39 620T30 640Q30 664 65 664ZM155 66Q316 75 419 104T567 168T613 235Q613 277 553 302Q488 328 381 328T131 299L155 66ZM248 615H223Q141 615 131 598L121 397Q211 397 340 440Q424 469 463 504Q483 522 483
541T469 572T432 593T382 605T328 612Q288 615 248 615Z" />
<glyph unicode="C" glyph-name="C" horiz-adv-x="725" d="M522 555Q457 619 378 619Q303 619 234 562Q147 490 114 376Q102 335 102 308T104 266Q104 167 171 114Q234 65 332 65Q466 76 589 168Q623 194 661 218Q675 218 689 214T704 191Q605 105 537 67Q411 -1
309 -1Q302 -1 296 -1Q185 -1 106 68Q22 141 22 250Q22 332 51 407T132 539T254 631T406 665Q475 665 496 646Q522 623 522 555Z" />
<glyph unicode="D" glyph-name="D" horiz-adv-x="664" d="M105 614Q179 640 301 640Q524 640 606 530Q638 488 638 423Q639 414 639 405Q639 305 522 202Q415 105 258 46Q154 6 86 6Q58 6 38 14V638H52Q75 638 89 631T105 614ZM571 415Q562 504 472 547Q405 579
304 579L286 578Q191 576 122 548V71Q192 71 297 122Q479 212 547 331Q571 373 571 415Z" />
<glyph unicode="E" glyph-name="E" horiz-adv-x="606" d="M353 635Q453 635 486 622V573Q459 569 412 569T312 567Q164 564 110 552Q93 472 94 443T96 398Q100 359 100 306Q168 306 255 318T391 335T490 341V286L107 238L113 74Q212 74 315 83T472 97T586 102Q586
82 574 64Q550 32 531 45Q355 26 217 15T30 0L34 638Q60 630 130 630L353 635Z" />
<glyph unicode="F" glyph-name="F" horiz-adv-x="709" d="M94 166Q38 174 38 192Q38 205 57 222T95 257Q95 317 77 391T51 507T43 582T53 625T84 634T110 629T118 615T120 598T124 581Q129 562 155 562Q222 563 289 573T422 595Q554 617 607 617T692 614Q693 595
696 581T699 558Q699 541 666 546Q143 527 143 468Q143 403 152 357T165 298T176 286Q233 286 291 296T408 317T526 339T642 349Q643 349 643 342T642 325Q639 301 642 301Q599 277 486 262Q437 255 386 249T292 236Q193 222 177 199L166 3Q155 -8 141 -8L104 -5Q99
-5 94 -5V166Z" />
<glyph unicode="G" glyph-name="G" horiz-adv-x="709" d="M496 -49V134Q401 69 364 48Q278 1 213 1Q135 1 79 58Q22 117 22 193Q27 273 56 355Q116 529 255 610Q324 651 414 651Q416 651 418 651L445 652Q491 652 487 616Q407 612 337 579T216 491T135 361T105
210T145 99T248 65Q302 65 398 112Q459 142 489 180Q504 198 504 218V366Q474 366 365 343T238 317Q233 320 226 323T218 334Q216 349 262 380Q273 386 394 403T548 426T603 434Q613 432 628 434T656 436Q688 435 686 401L603 367Q584 306 584 137L586 -12Q586
-32 586 -49Q556 -64 528 -64T496 -49Z" />
<glyph unicode="H" glyph-name="H" horiz-adv-x="620" d="M155 282Q152 248 152 186T171 34L92 -6L56 266Q21 271 21 290Q21 304 37 323T62 354T71 382T76 438T81 523T86 608T89 664Q111 686 121 691Q146 704 155 681L149 366Q396 366 446 398V714Q452 731 502
731Q513 731 520 730Q520 711 521 673T524 585T528 482T532 378Q535 276 537 228Q544 108 586 34Q541 16 487 16Q441 130 438 315Q372 317 348 317T294 314Q232 310 155 282Z" />
<glyph unicode="I" glyph-name="I" horiz-adv-x="155" d="M105 16Q105 -1 81 -1Q63 -1 38 16Q26 43 26 145T28 313T32 436Q38 558 38 565Q67 582 86 582T105 565V16Z" />
<glyph unicode="J" glyph-name="J" horiz-adv-x="542" d="M429 327L426 516Q426 561 428 595T443 630H510Q510 614 513 568T517 476T518 396T517 311T507 195Q486 50 427 16Q382 -9 284 4Q185 18 110 62Q22 113 9 182Q9 205 24 222Q51 254 73 254Q74 197 104 160Q174
76 329 76Q355 76 380 79Q429 105 429 327Z" />
<glyph unicode="K" glyph-name="K" horiz-adv-x="620" d="M43 15Q43 19 45 27T50 68T54 147T57 249T60 363T64 476T70 578Q79 678 94 697Q102 720 148 720Q148 720 162 720Q162 682 154 560T144 415Q209 448 269 486T382 557T478 611T542 633Q577 633 577 606Q577
585 545 560T465 507T361 451T256 397T176 347T144 307Q162 296 203 278T296 236T403 186T505 132Q609 73 609 34Q609 21 592 16Q585 14 578 14H568Q520 14 478 37T389 92T281 158T136 216V16Q134 12 118 7Q95 0 69 0T43 15Z" />
<glyph unicode="L" glyph-name="L" horiz-adv-x="709" d="M80 437L78 686L158 683L149 97L676 82Q692 77 692 65T677 40Q648 14 611 14Q602 14 592 16L55 21Q80 114 80 437Z" />
<glyph unicode="M" glyph-name="M" horiz-adv-x="847" d="M123 167L127 94Q127 88 127 72T115 44T87 31T61 32Q28 32 28 61Q28 85 50 254T78 473T88 555T95 605T101 637T113 663Q128 682 171 682Q243 646 319 478Q373 358 391 326T426 282L626 630Q647 645 658
645Q690 645 707 616T735 546T755 454T770 350T783 243Q797 118 804 86T812 41T803 15T778 2T746 14T727 45T720 94T711 161T701 240T691 320T682 387T676 432Q676 452 675 469T667 490T646 481T605 426Q549 339 443 133Q429 108 406 122Q379 137 360 199L176 590Q152
542 132 272Q129 239 128 216Q123 191 123 167Z" />
<glyph unicode="N" glyph-name="N" horiz-adv-x="642" d="M608 353Q608 49 583 -3L510 3Q455 98 325 270Q274 338 224 405T131 538Q111 449 111 182Q111 80 107 10Q88 -8 66 -8T34 -4T25 11T27 44T33 120T40 232Q48 386 48 497T46 681Q68 701 80 710T107 710T145
669T212 575Q359 366 501 183L520 681Q531 701 542 708T571 716Q606 716 606 652L605 615L608 353Z" />
<glyph unicode="O" glyph-name="O" horiz-adv-x="686" d="M46 168Q22 222 22 295T45 424T110 522Q197 607 328 607Q465 607 554 544Q654 472 654 338Q654 172 578 93T339 14Q114 14 46 168ZM104 315Q104 79 342 79Q459 79 532 149Q605 218 605 330Q605 435 518
490Q444 538 331 538Q241 538 172 473Q104 408 104 315Z" />
<glyph unicode="P" glyph-name="P" horiz-adv-x="653" d="M83 -2L38 0V233Q43 308 46 366T57 466T83 536T137 582Q202 614 376 614Q451 614 503 600T580 572Q637 544 637 494T609 404T535 334T432 285T318 254Q216 234 122 234L118 10Q118 -2 83 -2ZM121 347Q121
297 164 297Q170 297 185 297T237 300T317 310T401 330T478 360Q555 402 555 467Q540 532 436 550Q405 556 381 556T323 554T245 538T171 503T138 452Q137 440 133 424Q121 373 121 347Z" />
<glyph unicode="Q" glyph-name="Q" horiz-adv-x="730" d="M27 244Q27 308 49 380T114 509T220 599T365 633Q377 634 389 634Q519 634 593 556Q660 485 660 369Q660 255 592 158Q591 153 591 143T605 121T641 101T678 82T693 64T692 50Q681 42 662 38T637 34T619
43T598 60Q571 81 551 84Q513 48 434 22Q234 -41 108 65Q27 134 27 244ZM333 65Q393 65 418 70Q472 81 493 116L310 282Q309 283 309 285V290Q309 308 323 312T357 317T402 301T450 264T495 219T542 182Q593 260 594 352Q595 380 595 415Q590 451 578 480Q554 541
457 560Q410 570 368 570T318 570Q256 570 204 512Q163 465 134 382Q109 315 109 258Q109 154 168 110T333 65Z" />
<glyph unicode="R" glyph-name="R" horiz-adv-x="730" d="M118 594Q173 647 317 647Q407 647 468 629T559 591T590 547Q590 492 462 438Q443 429 363 402T254 364Q193 341 173 328Q173 323 177 320T196 308T241 284T324 239Q482 153 649 55Q657 49 670 39T683
16T675 -2T656 -9T633 -12H613Q593 -12 530 31T420 106T325 168Q212 241 146 263V34Q146 14 112 14H101Q80 14 70 35Q56 67 56 153L59 354Q59 502 46 614Q70 655 105 611Q113 601 118 594ZM456 582L391 583Q165 583 131 531Q121 517 121 496T123 458Q128 417 146
399Q149 398 156 398T184 402T239 416T313 442T388 473Q501 524 501 556Q501 574 456 582Z" />
<glyph unicode="S" glyph-name="S" horiz-adv-x="658" d="M15 106T30 120T54 140T66 149Q71 58 189 58Q282 58 406 116Q494 156 524 198Q534 211 534 219T531 233L116 326Q98 330 81 343Q50 365 50 383Q50 452 148 508Q256 569 437 600Q478 607 498 608Q504 606
516 605T542 600Q573 593 568 574Q568 540 438 520Q270 495 229 478T169 443T149 400Q149 395 172 389T227 375T310 352Q434 318 614 266Q624 244 624 225Q624 172 562 123Q492 68 368 30Q265 -1 204 -1Q153 -1 107 17T38 52T15 87Z" />
<glyph unicode="T" glyph-name="T" horiz-adv-x="638" d="M490 491L401 493Q366 493 320 486Q318 447 312 385Q291 165 291 100T293 7L199 0L230 494L17 506Q9 506 5 519T0 543T9 567T30 580Q103 577 177 570Q314 558 410 558L472 560Q545 562 617 576Q633 573
637 526Q638 516 638 510Q572 491 490 491Z" />
<glyph unicode="U" glyph-name="U" horiz-adv-x="575" d="M526 16Q526 -2 495 -2Q480 -2 468 2T452 10L462 138Q370 59 328 39Q262 6 193 6Q180 6 166 7Q20 23 20 194Q20 272 60 459Q73 517 77 565Q80 566 90 566Q90 566 102 566Q107 567 111 567Q143 567 143
519Q143 486 130 437Q90 276 90 214Q90 149 124 112Q146 88 193 83Q199 83 205 83Q368 83 419 240Q449 332 454 462Q457 522 459 581Q470 611 489 611Q508 611 531 594Q534 536 534 480L524 98Q524 57 526 16Z" />
<glyph unicode="V" glyph-name="V" horiz-adv-x="642" d="M261 16Q234 88 161 230T64 420Q11 529 11 548Q11 561 62 581Q97 516 127 452T188 330Q259 191 304 138Q320 154 376 274L458 447Q524 587 543 630Q578 672 602 672Q626 672 626 630L342 7Q325 -4 299 -4T261 16Z" />
<glyph unicode="W" glyph-name="W" horiz-adv-x="963" d="M763 166Q813 328 879 758Q942 758 945 719Q946 707 946 702T943 668T932 585T913 462T888 316Q854 137 818 14Q782 -11 762 6Q753 15 746 30T730 66Q717 83 682 156T626 272T584 352Q538 435 507 449Q471
393 379 142Q363 98 350 61T328 0L266 3L16 581Q14 586 14 591T17 601T30 610Q47 616 64 616T88 610T100 593T108 571T119 540T144 484T180 406T218 325T254 250Q290 175 299 166Q415 452 442 505T476 571Q487 588 493 588Q536 588 638 396Q666 345 690 298Q749
184 763 166Z" />
<glyph unicode="X" glyph-name="X" horiz-adv-x="614" d="M298 225Q272 204 250 168T204 98T154 39T98 14T55 22T43 44T44 66L234 291Q182 355 147 400T88 474T53 519T35 543T27 555Q27 575 54 583Q77 590 94 581L286 349L525 631L583 584L343 299Q377 253 420
221T502 160T565 102T591 34Q588 11 570 3Q566 1 556 1T526 16L298 225Z" />
<glyph unicode="Y" glyph-name="Y" horiz-adv-x="547" d="M278 -18Q262 -18 244 -8Q209 13 216 29Q228 50 247 113L274 203Q288 246 302 298L35 570Q28 579 28 586T36 597Q49 603 67 603T105 597T154 567Q211 519 341 364Q400 536 426 585T467 649T495 665T517
664T530 650Q499 584 471 501T412 328Q333 92 278 -18Z" />
<glyph unicode="Z" glyph-name="Z" horiz-adv-x="803" d="M770 16Q523 -3 316 -3Q28 -3 28 34Q28 42 38 50L470 532Q430 534 405 534T347 534T265 529Q118 517 62 514Q47 514 44 523T38 565Q261 589 547 599Q561 599 574 595T587 574Q559 496 394 320Q200 114
169 73Q224 62 298 62T448 66T606 78T762 90L770 16Z" />
<glyph unicode="[" glyph-name="bracketleft" horiz-adv-x="435" d="M31 779Q64 784 103 793T184 811Q287 834 334 834Q334 821 336 807T328 787Q310 782 276 776T206 760Q118 740 93 722Q92 690 92 644T98 525T114 364T133 188T142 7L397 42Q397 37 399 26T404
3T406 -20T401 -31L65 -84L31 779Z" />
<glyph unicode="\" glyph-name="backslash" horiz-adv-x="514" d="M442 -2Q200 270 28 540Q0 585 0 587Q0 588 10 573Q10 592 24 596T54 600Q112 543 163 469T265 318T372 169T494 42Q494 22 477 10T442 -2Z" />
<glyph unicode="]" glyph-name="bracketright" horiz-adv-x="554" d="M419 658Q419 348 459 -69Q450 -70 421 -72T354 -78T271 -85T188 -91Q111 -97 83 -97Q80 -97 80 -42Q130 -39 176 -39L196 -40Q305 -40 346 8Q370 35 370 102T367 253T356 422Q343 595 321
749Q310 750 291 750T242 744T176 729Q79 704 31 704Q28 704 20 709Q0 723 0 739T9 766Q9 768 135 786T296 808T358 817L388 819Q418 818 423 800Q419 734 419 658Z" />
<glyph unicode="^" glyph-name="asciicircum" horiz-adv-x="314" d="M41 510T30 515T18 539T28 576T58 614Q100 658 162 687Q213 654 230 640Q258 615 294 559Q300 547 300 537T296 520Q285 504 260 519Q223 546 217 552T198 571T155 614Q94 572 72 536Q65 524
59 510Q41 510 30 515Z" />
<glyph unicode="_" glyph-name="underscore" horiz-adv-x="703" d="M33 0L32 18V38Q121 74 315 85Q534 97 625 117Q639 117 651 113T664 94Q664 73 647 50Q306 41 33 0Z" />
<glyph unicode="`" glyph-name="grave" horiz-adv-x="176" d="M47 588Q47 616 62 616Q71 616 84 602L151 537L134 494Q68 539 56 559Q52 567 50 575T47 588Z" />
<glyph unicode="a" glyph-name="a" horiz-adv-x="521" d="M420 166Q345 48 220 20Q191 14 168 14T129 14T94 19T59 32Q22 53 22 91Q18 109 18 131T28 191T64 271T129 350Q208 426 300 448Q327 454 349 454T390 451Q448 451 468 372Q481 322 483 233T488 95T501
6H442Q438 33 436 54T432 93Q427 135 420 166ZM416 321Q416 379 359 379Q352 380 345 380Q272 380 191 310Q153 278 126 238Q86 181 86 136Q86 77 154 66Q244 68 326 148Q361 183 384 224Q416 279 416 321Z" />
<glyph unicode="b" glyph-name="b" horiz-adv-x="575" d="M33 580L30 709Q30 725 41 734T68 743T97 735T107 711L114 279Q177 363 284 420Q373 468 440 468Q499 468 531 430Q555 400 555 351T537 265T488 195T419 132T340 80Q264 36 190 7Q184 9 170 8T136 7Q82
7 41 20Q31 115 31 309L33 580ZM117 89Q117 78 137 78T188 86T260 113T346 164Q446 235 497 331Q484 388 419 388Q360 388 286 344Q181 281 136 188Q117 151 117 113Q117 103 117 97T117 89Z" />
<glyph unicode="c" glyph-name="c" horiz-adv-x="648" d="M472 122T511 136T585 150T621 128Q621 123 619 113T592 88T532 60T454 36T372 17Q289 0 254 0T179 8T103 34Q22 76 22 158Q22 164 22 182T37 233T82 300T152 362Q236 422 328 440Q360 447 381 447T417
447T446 445T472 437Q498 424 498 386Q498 362 464 339Q455 333 448 328Q443 351 435 367T400 383Q282 358 197 308Q101 251 101 188Q101 181 102 173Q102 109 151 82Q188 62 246 62T348 75T431 105Z" />
<glyph unicode="d" glyph-name="d" horiz-adv-x="525" d="M500 707T495 616T485 437T480 251T494 42Q494 19 486 9T457 -1Q410 -1 410 77V110Q268 4 170 4Q131 4 91 23T14 100Q9 124 9 149T18 209T57 283T129 350Q221 412 328 412Q374 412 416 398Q416 416 418
461T424 556Q430 686 432 709T437 749T448 778Q463 803 500 803Q500 707 495 616ZM82 157Q82 78 139 78Q148 78 159 80Q200 80 260 104Q374 149 399 182V315Q399 350 342 350Q335 351 324 351T288 346T234 328T175 296Q114 255 91 200Q82 179 82 157Z" />
<glyph unicode="e" glyph-name="e" horiz-adv-x="554" d="M231 70Q319 70 496 150Q507 150 514 143T521 125Q481 57 368 19T157 6Q46 35 22 131Q20 150 20 182T36 266T93 366T187 440T302 467Q360 467 432 427Q466 408 486 384T506 335Q506 328 505 321Q503 260
446 244Q421 237 388 237L244 243Q172 243 134 212Q112 195 103 161Q128 70 231 70ZM387 395T363 402T323 409T271 399T207 375Q138 343 138 308Q218 301 258 301Q369 301 408 320Q432 330 432 345Q432 363 410 379Z" />
<glyph unicode="f" glyph-name="f" horiz-adv-x="608" d="M601 334Q606 334 606 307T608 270L265 228L283 6L202 10Q202 100 182 216L52 166Q39 166 30 181Q14 207 14 228L166 282Q146 454 146 561T164 729T216 809T290 830T369 813T447 770T510 712T536 648Q536
624 531 614Q491 670 434 714Q366 766 306 766Q249 766 230 685Q221 643 221 567T225 427T249 299Q311 299 388 310Q536 333 601 334Z" />
<glyph unicode="g" glyph-name="g" horiz-adv-x="528" d="M316 -428L302 -427Q272 -427 238 -431H200Q140 -431 106 -408Q88 -396 88 -372L318 -361Q424 -358 424 -247Q424 -243 424 -234T424 -192L429 130Q429 147 428 158Q266 7 116 7Q103 7 90 8Q23 8 23 67Q25
113 50 168T114 275T204 368Q281 431 353 431Q437 431 491 342Q507 104 507 4T504 -160T491 -277T463 -361T423 -406Q385 -428 316 -428ZM376 358Q364 362 343 362T287 344T222 298T164 234Q98 148 98 97Q98 81 107 73Q114 69 124 69T155 72T209 90T281 128T348
179Q418 243 418 304Q418 341 376 358Z" />
<glyph unicode="h" glyph-name="h" horiz-adv-x="507" d="M497 14Q488 -3 451 -3T413 24Q413 142 408 186Q399 283 370 290Q298 304 253 304T178 277T133 186T110 7H33Q35 64 35 113T33 229T28 377Q23 469 23 532T31 649Q41 668 60 668Q83 668 96 652T110 622L105
457Q105 364 114 318Q204 378 300 378Q331 378 366 373Q441 334 464 290Q475 267 478 241T482 182Q488 68 497 14Z" />
<glyph unicode="i" glyph-name="i" horiz-adv-x="155" d="M117 470Q130 283 139 37Q133 6 91 6Q80 6 69 10T54 23V470H117ZM24 606Q24 641 65 641Q92 641 109 629Q112 618 112 608T104 587Q96 577 80 577T48 584T24 606Z" />
<glyph unicode="j" glyph-name="j" horiz-adv-x="182" d="M173 -200Q173 -367 85 -367Q76 -367 63 -367T23 -363T-31 -350Q-96 -328 -114 -286Q-114 -283 -109 -272Q-100 -252 -100 -249Q-67 -274 -29 -296T52 -318Q81 -318 98 -276Q114 -240 114 -204Q114 -107
100 48Q80 281 80 344T82 448Q79 472 104 484Q123 493 146 493Q137 431 137 395T137 321T143 208T156 60Q173 -101 173 -200ZM110 707Q126 696 126 672Q126 648 108 643Q107 643 101 643T79 656Q79 688 94 702Q100 707 110 707Z" />
<glyph unicode="k" glyph-name="k" horiz-adv-x="629" d="M126 182L131 95Q131 15 93 -2Q85 -5 74 -5T48 0L49 374Q49 455 40 536T30 699Q30 731 64 731H72Q79 731 81 730Q96 668 101 580Q112 385 121 318Q138 327 197 369T292 436T360 484Q435 533 454 533Q470
533 479 514Q429 451 318 374Q273 343 229 313T147 249Q214 231 274 212T390 176Q519 138 612 133Q612 106 607 98Q598 84 570 82H562Q501 99 400 120Q201 161 126 182Z" />
<glyph unicode="l" glyph-name="l" horiz-adv-x="161" d="M43 442T41 484T39 547T22 648Q31 660 39 671T64 682Q99 682 118 387Q128 216 128 45Q128 -1 64 -1L56 0Q56 52 53 133T49 274T45 388Z" />
<glyph unicode="m" glyph-name="m" horiz-adv-x="797" d="M110 16Q69 -1 56 -1T37 2T26 16Q26 49 28 99T33 206T35 321T29 427Q29 459 72 459Q82 459 87 423T95 367T100 338Q126 385 203 412Q244 425 280 425T343 417T390 386T410 326Q436 375 527 414Q610 451
676 451Q771 451 769 379L790 7Q790 2 761 0Q705 -4 705 10Q704 30 704 50L709 211Q709 324 687 390Q621 385 586 369T523 328T475 262Q428 170 428 18Q422 -3 389 -3Q367 -3 353 4T342 18Q361 124 361 183Q361 230 352 272T328 370Q184 370 134 255Q112 204 110
160T107 84T110 16Z" />
<glyph unicode="n" glyph-name="n" horiz-adv-x="512" d="M417 219Q417 338 404 394Q412 409 380 409Q346 409 292 392T204 358Q123 319 114 282V10H47Q34 44 34 201Q34 341 39 407T48 482Q74 499 90 499Q115 499 115 440Q115 417 113 396T110 366Q272 485 361
485Q462 485 476 322Q482 265 482 164L481 85Q481 41 483 0Q473 -6 467 -6Q464 -5 454 -3T428 0Q418 40 417 81T416 158L417 219Z" />
<glyph unicode="o" glyph-name="o" horiz-adv-x="576" d="M52 190Q52 308 154 380Q235 437 349 449Q355 449 377 449T436 436Q518 408 548 337Q560 309 560 290T559 262Q559 137 464 65Q376 -1 244 -1Q149 -1 101 43T52 190ZM121 166Q121 104 154 82Q179 66 238
66T342 75T422 106Q497 154 497 255Q497 315 465 353Q430 394 373 394Q334 387 295 379T220 348Q144 299 121 166Z" />
<glyph unicode="p" glyph-name="p" horiz-adv-x="570" d="M123 401Q259 448 358 448Q484 448 526 382Q545 351 545 315Q545 265 514 212T430 116Q309 17 136 -7Q136 -18 136 -42T137 -97T138 -161T140 -226Q143 -303 144 -314T146 -332Q146 -357 130 -369T88 -382Q83
-382 78 -382L62 422Q71 435 86 434T110 426T123 401ZM415 366Q382 383 345 383T270 376Q186 360 146 305Q128 279 128 241Q128 237 128 233V60Q334 106 420 188Q470 235 470 285Q470 338 415 366Z" />
<glyph unicode="q" glyph-name="q" horiz-adv-x="526" d="M485 -354L458 -355H435L420 82Q381 45 302 20Q230 -3 173 -3Q127 -3 97 10T52 38T37 71T36 98Q36 156 64 211T144 310T258 377T380 400H394Q423 400 447 379T487 332Q487 158 488 -11T500 -354H485ZM400
286Q400 333 380 333Q279 333 198 274Q112 209 112 112Q112 64 166 62Q181 62 205 62T265 68T328 92Q394 129 394 204L400 286Z" />
<glyph unicode="r" glyph-name="r" horiz-adv-x="565" d="M518 365Q476 395 410 395Q348 395 295 372Q195 330 158 264Q142 234 142 200Q142 194 142 167T152 93T162 -2Q141 -3 128 -7T106 -11T91 -3T76 28Q75 34 72 62T65 130T55 217T44 311Q33 411 27 458Q27
482 62 482Q83 482 95 465T114 425T123 380T128 349Q260 467 456 467Q478 467 502 466Q508 467 517 467T535 455Q546 441 546 421Q546 371 518 365Z" />
<glyph unicode="s" glyph-name="s" horiz-adv-x="514" d="M369 258Q479 258 479 202Q479 160 418 104Q327 21 173 -29Q166 -29 158 -15T145 6T138 16Q253 54 327 108Q377 144 377 167T318 190T145 162Q93 164 55 199Q22 230 22 261T40 319T88 369T158 411Q256
458 361 458Q392 458 421 452Q445 452 449 431T453 362Q394 389 320 389Q228 389 168 352Q106 316 104 258Q104 230 145 230L218 238Q312 258 369 258Z" />
<glyph unicode="t" glyph-name="t" horiz-adv-x="414" d="M178 96L180 256Q180 294 173 321H18L16 390H166V648Q169 657 178 666Q192 680 201 680T218 678T233 664Q249 598 249 465Q249 432 252 400Q284 404 316 404Q316 404 368 404Q387 404 403 406L400 334L254
338L259 -7Q241 -15 228 -15Q178 -15 178 96Z" />
<glyph unicode="u" glyph-name="u" horiz-adv-x="520" d="M22 133Q22 149 20 177T15 240T13 309T19 373Q32 438 73 438Q101 430 110 418T120 389T111 345Q78 258 78 188Q78 165 81 139Q97 72 191 72Q240 72 284 89Q368 120 398 162Q407 208 407 242T405 304T399
363T394 435Q407 441 419 441T445 428T468 379T481 295T484 194T485 94T489 10Q477 -1 466 -1Q426 -1 407 79Q394 68 363 52Q297 16 207 4Q190 2 169 2T117 10T57 47T22 133Z" />
<glyph unicode="v" glyph-name="v" horiz-adv-x="531" d="M36 387Q34 392 34 398T39 416T53 435T74 443T93 428L261 116Q269 128 286 160T326 234T373 319T419 401Q467 486 476 486Q497 486 506 471T516 447T516 436Q460 314 413 211T350 78T322 29Q301 -2 281
-2T235 29T176 114Q118 210 36 387Z" />
<glyph unicode="w" glyph-name="w" horiz-adv-x="828" d="M407 276Q385 203 371 141T342 38Q320 -21 292 -21Q277 -21 258 -7Q212 42 128 210Q46 374 46 415Q46 433 57 437T82 438Q116 428 130 407Q137 397 147 372L172 310Q214 205 255 118Q277 152 297 206L328
292Q368 405 400 407Q425 423 550 230Q603 148 616 132Q625 132 637 192T659 293T683 371Q716 455 759 455Q773 455 778 446T784 430T784 421Q772 387 759 344T732 255T703 165T674 84Q641 6 619 0Q602 -8 564 39Q547 61 528 91T488 153Q437 233 407 276Z" />
<glyph unicode="x" glyph-name="x" horiz-adv-x="482" d="M26 30Q75 79 125 142T186 226L102 318Q86 335 71 352T44 382T25 404L18 412L76 474Q121 419 142 391T177 345Q199 317 241 276Q255 296 291 348Q351 437 387 480Q410 480 424 464T438 434Q412 378 363
316Q345 294 330 274T306 229Q367 186 452 83Q471 60 479 48Q479 41 468 27Q451 3 438 -3Q419 6 399 29T355 81T308 137T256 183Q233 157 192 108Q117 18 92 0Q73 -4 38 18Q29 23 26 30Z" />
<glyph unicode="y" glyph-name="y" horiz-adv-x="562" d="M238 -377Q217 -424 188 -424Q174 -424 168 -412T167 -382Q189 -289 230 -170T286 -10Q251 25 176 130Q22 346 22 367Q22 368 23 369L61 407Q140 334 267 159Q299 115 318 85Q339 127 351 157T370 206T391
256Q425 339 485 467Q494 471 504 471Q529 471 540 458Q544 453 544 447T542 434L238 -377Z" />
<glyph unicode="z" glyph-name="z" horiz-adv-x="507" d="M138 -4Q38 -4 38 40Q38 68 82 113T159 186T222 242Q293 307 338 362Q329 362 311 362T259 360T186 353Q83 342 51 342T19 356Q19 373 38 387T66 401T79 402T95 404T126 408T182 414Q251 421 398 433Q446
427 446 398Q446 361 376 290Q314 228 244 165T145 72Q184 69 213 69L377 76Q415 76 446 73T484 66Q500 57 500 32Q500 22 496 10Q471 13 444 13T373 10T267 2Q182 -4 138 -4Z" />
<glyph unicode="{" glyph-name="braceleft" horiz-adv-x="361" d="M263 928T252 902T234 830T228 710T238 524Q238 503 223 490T188 465T154 441T138 410Q136 405 136 397T147 370Q173 331 223 299Q244 286 248 286T254 286Q248 227 248 189T252 106T273 23T313
-32T360 -56T404 -63T435 -66L431 -138Q263 -127 220 -2Q198 61 193 137T183 259Q177 271 158 285T118 316Q61 362 52 404Q57 441 73 461T107 495T144 521T172 557Q170 595 166 643Q160 703 160 751T165 843T190 926Q232 1010 338 1010V956Q297 959 280 944Z" />
<glyph unicode="|" glyph-name="bar" horiz-adv-x="149" d="M103 -68H77Q59 -68 55 -70L52 980H111V-66Q111 -68 103 -68Z" />
<glyph unicode="}" glyph-name="braceright" horiz-adv-x="490" d="M28 -218L24 -146Q34 -143 55 -143T101 -137T150 -112Q219 -63 219 97Q219 143 213 202Q214 202 219 202T245 215Q298 246 325 288Q334 303 334 311T332 324Q332 343 316 355T280 378T244 402T228
443T229 515T223 618T201 721T164 792T122 830T82 848T52 856V910Q162 910 225 828Q273 766 290 650Q299 597 299 546T298 469Q308 446 328 430T369 398T406 365T425 325Q423 275 360 226Q336 207 314 195T286 175Q281 130 278 85T268 -3T248 -83T207 -148Q150
-209 28 -218Z" />
<glyph unicode="~" glyph-name="asciitilde" horiz-adv-x="455" d="M148 567Q116 567 62 486Q56 486 43 490T26 507Q41 555 71 592T134 642Q142 645 152 645T176 635T209 605T246 569T286 552T320 559T343 579T366 611T402 654Q408 654 419 647T431 632T432 613T424
584T398 546Q347 496 283 496Q237 496 210 526Q190 544 176 555T148 567Z" />
<glyph unicode="&#xa0;" glyph-name="space" horiz-adv-x="410" />
<glyph unicode="&#xa1;" glyph-name="exclamdown" horiz-adv-x="138" d="M64 425Q106 425 115 430T125 443Q114 472 77 477Q71 478 64 478T47 475T32 465Q21 447 64 425ZM111 -176Q105 -157 105 58T90 305H24Q24 231 32 119Q46 -98 46 -173L111 -176Z" />
<glyph unicode="&#xa2;" glyph-name="cent" horiz-adv-x="648" d="M346 -68H319Q300 -68 298 -70L297 4Q269 0 244 0T179 8T103 34Q22 76 22 158Q21 164 21 171Q21 245 102 321Q183 398 296 432V570H355L354 445Q389 449 409 449Q498 449 498 386Q498 362 464
339Q455 333 448 328Q439 373 417 380Q404 384 354 372V78Q385 87 415 99T474 124Q542 150 581 150T621 128Q621 103 592 87T523 56Q447 30 354 14V-66Q354 -68 346 -68ZM254 62Q279 62 297 65L296 354Q152 298 112 228Q101 209 101 195T102 173Q102 109 151 82Q188
62 254 62Z" />
<glyph unicode="&#xa3;" glyph-name="sterling" horiz-adv-x="552" d="M29 246Q-22 246 -22 271Q-22 285 -10 290T16 297T53 301T93 307Q96 370 99 416T112 493T139 544T186 573Q265 599 324 599Q396 599 443 576T513 523T536 474T519 455T466 490Q441 516 398
530Q342 548 312 548T257 541T206 510T167 442L152 318L235 317Q276 317 288 294Q292 285 286 275T262 259L151 258L124 66Q164 73 194 78T249 87T298 90T348 86Q390 79 476 52Q482 50 485 44T485 30Q477 14 456 11T419 11T384 20Q329 34 293 34T242 32T217 25T194
16Q151 0 78 0Q68 0 57 0Q72 67 77 250L29 246Z" />
<glyph unicode="&#xa4;" glyph-name="currency" horiz-adv-x="576" d="M451 111Q366 50 238 50Q193 50 159 59Q151 51 129 33T96 6Q81 -5 76 -5T61 -3T37 4Q6 14 -1 29L86 104Q46 148 46 241T110 398L30 477L102 544Q154 488 184 454Q253 491 343 500Q350 500
372 500T430 487Q440 500 460 524T491 560T509 580Q538 580 554 563T571 530Q564 518 548 493L523 456Q515 444 510 437Q555 387 555 328Q555 321 554 314Q554 237 513 174Q560 130 600 82Q600 73 587 59Q565 33 550 26Q527 35 503 58T451 111ZM107 207Q107 145
140 124Q166 107 224 107T328 116T408 148Q483 196 483 297Q483 356 451 394Q416 435 359 435Q320 429 281 421T207 390Q130 339 107 207Z" />
<glyph unicode="&#xa5;" glyph-name="yen" horiz-adv-x="547" d="M121 186Q214 200 261 205V248L150 234Q145 234 138 234T122 234Q103 237 101 251L121 287Q123 289 261 304L262 349L-5 622Q-10 629 -10 634T-6 645T10 658Q35 673 48 673Q64 661 76 653T101 634T129
610T167 570Q200 535 301 415Q383 655 431 696Q447 709 459 710T484 697T501 670Q485 636 465 598T424 518Q371 411 345 339L343 314Q366 317 386 319T424 325Q440 330 448 325T458 311T456 290T442 273L341 259L338 214Q396 221 458 234Q481 234 487 222T493 201T491
184Q409 182 336 165L328 3Q325 -4 314 -12Q288 -31 266 -18Q254 -12 252 10Q260 25 262 149Q187 134 128 134Q104 134 104 169Q104 173 110 179T121 186Z" />
<glyph unicode="&#xa6;" glyph-name="brokenbar" horiz-adv-x="131" d="M28 16L36 290H102L94 34Q92 16 66 8Q40 1 28 16ZM37 314Q40 431 44 532Q42 554 52 560T74 566T96 564T110 548L102 314H37Z" />
<glyph unicode="&#xa7;" glyph-name="section" horiz-adv-x="514" d="M381 503Q494 503 494 448Q494 404 429 346Q394 315 346 286Q409 280 433 261T458 218Q458 189 426 157T346 97Q235 35 99 24Q90 24 71 60Q67 67 65 69Q195 91 288 136Q360 171 360 190T301
210T133 191Q81 193 43 228Q10 259 10 294Q10 361 108 419Q75 434 57 460T38 512Q38 563 104 614Q204 690 349 702Q363 703 385 703T437 697Q461 697 465 676T469 607Q410 634 336 634Q196 634 138 556Q121 533 120 502Q120 485 132 480T161 475L234 483Q323 503
381 503ZM391 413Q391 441 344 441Q306 441 261 425T180 388Q101 340 92 286Q92 260 132 260Q143 260 155 261Q248 291 317 336Q391 383 391 413Z" />
<glyph unicode="&#xa8;" glyph-name="dieresis" horiz-adv-x="380" d="M90 597Q66 597 66 631Q66 643 116 664Q137 664 144 655T152 632T146 612T131 602Q119 597 90 597ZM234 597Q210 597 210 631Q210 644 261 664Q297 664 297 630Q297 599 255 598Q244 597 234 597Z" />
<glyph unicode="&#xa9;" glyph-name="copyright" horiz-adv-x="646" d="M116 44Q80 67 59 101T38 176T50 271T80 373T125 464T186 542Q261 615 356 615Q484 615 552 521Q615 436 615 310Q615 161 520 78Q427 -2 273 -2Q184 -2 116 44ZM97 183Q97 48 289 48Q427
48 496 119T566 321Q566 325 566 329Q566 444 509 505T353 566Q342 566 334 566T318 566Q265 566 213 494Q164 428 129 325Q97 231 97 183ZM164 246Q164 252 164 258Q164 300 184 344T238 425T308 481T375 500Q382 500 395 500T422 491T437 455T427 416T408 395Q406
415 401 429T380 443Q315 424 264 378Q209 328 209 273Q209 267 209 248T217 211T238 182Q258 164 292 164T350 175T398 201T443 227T481 239T501 236T507 225T506 207T490 185T456 161T411 141T364 124Q316 109 297 109T254 116T211 138Q164 175 164 246Z" />
<glyph unicode="&#xaa;" glyph-name="ordfeminine" horiz-adv-x="255" d="M188 214Q155 150 100 135Q87 132 77 132T60 132T45 134T29 141Q13 153 13 173Q11 183 11 195T15 227T31 271T60 314Q95 355 135 367Q147 370 157 370T175 368Q200 368 209 326Q215 299
216 251T218 176T224 127H198Q196 142 195 153T193 174Q191 197 188 214ZM186 298Q186 329 161 329Q158 330 155 330Q123 330 87 292Q70 275 58 253Q41 222 41 198Q41 166 71 160Q110 161 147 204Q162 223 172 245Q186 275 186 298Z" />
<glyph unicode="&#xab;" glyph-name="guillemotleft" horiz-adv-x="718" d="M84 229Q116 254 159 288T246 356Q354 441 401 467Q414 467 420 445Q423 436 423 427T419 412L184 233Q199 225 227 213T289 183Q370 143 431 103Q430 102 427 95T420 80Q411 59 409
59Q379 78 323 97T233 130T170 158Q102 192 84 229ZM318 251Q350 276 392 310T480 380Q585 461 634 490Q647 488 654 467Q660 448 653 434L418 255Q433 247 460 235T522 205Q614 159 665 126Q664 124 661 117T654 102Q645 82 642 82Q612 101 556 120T467 153T403
181Q335 215 318 251Z" />
<glyph unicode="&#xac;" glyph-name="logicalnot" horiz-adv-x="614" d="M587 341Q582 286 582 263V230Q582 195 573 121Q559 120 548 120T528 122Q511 127 511 169L514 273L73 266L76 331Q92 330 122 330T213 335L340 346Q422 352 481 352T587 341Z" />
<glyph unicode="&#xae;" glyph-name="registered" horiz-adv-x="646" d="M116 44Q80 67 59 101T38 176T50 271T80 373T125 464T186 542Q261 615 356 615Q484 615 552 521Q615 436 615 310Q615 161 520 78Q427 -2 273 -2Q184 -2 116 44ZM97 183Q97 48 289 48Q447
48 517 143Q511 142 504 142H494Q485 142 458 159T394 198Q300 258 253 274V164Q253 156 243 156T230 155Q213 155 210 175T206 228L208 341Q208 388 202 440Q215 465 238 430Q267 456 341 456Q386 456 423 446Q482 432 482 407Q482 377 386 346Q279 311 266 304Q266
301 271 298T302 283Q391 239 453 206T521 169T528 161Q566 225 566 321Q566 325 566 329Q566 444 509 505T353 566Q342 566 334 566T318 566Q265 566 213 494Q164 428 129 325Q97 231 97 183ZM374 425Q264 425 245 401Q240 394 240 384T241 366Q244 347 253 338Q255
337 260 337T282 341T326 354Q387 374 412 389T437 412T413 425H374Z" />
<glyph unicode="&#xaf;" glyph-name="overscore" horiz-adv-x="318" d="M80 534Q30 534 30 559Q30 573 41 578T81 587T153 598T245 611Q287 611 298 588Q299 584 299 580T295 568T272 554L80 534Z" />
<glyph unicode="&#xb0;" glyph-name="degree" horiz-adv-x="225" d="M43 300T34 315T25 357T37 404Q58 437 97 437Q149 437 180 395Q194 377 197 354Q197 303 177 287T114 270Q84 270 64 285ZM150 370Q127 394 101 394Q70 394 64 364Q64 361 64 352T76 322Q94
307 104 306T122 305T141 313Q156 323 156 339T150 370Z" />
<glyph unicode="&#xb1;" glyph-name="plusminus" horiz-adv-x="537" d="M122 -5Q71 -5 71 21Q71 34 82 39T109 46T161 55T242 69Q240 90 238 116T232 168Q223 227 210 266Q183 266 146 255Q71 233 43 232Q31 232 25 246T18 276L210 316V482Q210 501 245 501Q262
501 267 495T275 473T281 439T286 399T291 359T294 333L481 354Q481 331 479 320T460 303T405 292T293 274Q290 260 290 249T291 222T298 181Q310 113 311 82Q392 96 462 106Q503 106 514 83Q517 79 517 75T513 62T490 48L122 -5Z" />
<glyph unicode="&#xb2;" glyph-name="twosuperior" horiz-adv-x="384" d="M336 258Q357 258 357 245T343 225T312 217T280 214T261 213T243 209T210 201T167 191Q97 175 55 175Q34 175 27 180T24 196Q71 231 121 286Q197 367 197 413Q197 422 194 430Q187 446
158 451Q131 451 114 442T81 421T49 400T10 390Q11 407 27 423Q59 457 119 472Q140 477 152 477T171 477Q196 475 213 463T234 423Q234 349 151 259Q129 234 107 213Q114 213 128 213T168 219T223 233T280 250T336 258Z" />
<glyph unicode="&#xb3;" glyph-name="threesuperior" horiz-adv-x="336" d="M294 463Q294 429 237 382Q222 371 212 363Q286 362 300 329Q303 322 303 314T299 293T280 261T245 225Q203 189 155 175Q139 171 130 171T114 171T101 174T94 186Q139 197 173 217T227
259Q251 286 251 304T240 328T210 335Q164 335 86 299L65 325Q246 405 246 440Q246 455 212 460Q177 460 132 449T63 432T12 427Q12 454 26 458Q51 464 79 471Q171 493 226 493T294 463Z" />
<glyph unicode="&#xb4;" glyph-name="acute" horiz-adv-x="176" d="M94 605Q108 624 124 624Q134 624 139 615T143 596T138 579T125 560Q108 541 56 498L25 526L94 605Z" />
<glyph unicode="&#xb5;" glyph-name="mu" horiz-adv-x="502" d="M33 226Q33 446 76 446Q91 446 113 426Q112 388 108 357Q101 294 101 266T101 219T110 160Q135 120 200 93Q247 73 291 73T359 91T390 138Q398 184 398 212Q398 260 391 313T383 380T384 402Q387
424 414 430Q437 407 450 317Q458 258 458 207T457 128Q456 -19 430 -26Q427 -27 420 -27T397 -18Q394 -16 394 3Q394 40 392 38Q348 3 285 3Q225 3 168 29Q117 52 101 79Q100 68 100 58L104 -30Q104 -93 80 -106Q74 -110 64 -110T42 -106Q43 -101 43 -90T42 -55T39
14Q33 154 33 226Z" />
<glyph unicode="&#xb6;" glyph-name="paragraph" horiz-adv-x="388" d="M313 424L302 426Q296 426 294 246T292 34L291 2Q285 2 275 2T256 4Q234 11 236 40Q238 66 239 113Q241 209 242 220Q149 238 96 270Q18 319 18 374T88 460Q137 482 208 482T365 455L350
-1L310 2Q308 2 308 34L314 392Q314 424 313 424Z" />
<glyph unicode="&#xb7;" glyph-name="middot" horiz-adv-x="144" d="M15 240Q20 264 32 272T51 281T67 280T88 267T102 239Q102 215 92 208T69 200T48 202T32 210Q15 222 15 240Z" />
<glyph unicode="&#xb8;" glyph-name="cedilla" horiz-adv-x="273" d="M47 8Q47 28 59 28Q71 28 80 15T85 -2Q85 -29 86 -50T105 -71Q127 -69 152 -69T205 -79Q245 -95 245 -132Q245 -172 198 -204Q157 -233 104 -233Q77 -233 46 -223Q43 -223 43 -218T43 -206T44
-193T43 -184Q54 -185 70 -185T112 -181T162 -167T198 -146Q224 -122 168 -114Q156 -112 135 -112T82 -115Q48 -115 48 -7Q47 2 47 8Z" />
<glyph unicode="&#xb9;" glyph-name="onesuperior" horiz-adv-x="115" d="M27 150Q27 160 28 181T30 228T33 284T36 340T37 387T39 419Q38 430 45 433T63 437T80 436T90 427L78 160Q76 150 56 147T27 150Z" />
<glyph unicode="&#xba;" glyph-name="ordmasculine" horiz-adv-x="278" d="M24 249Q24 311 70 349Q107 380 159 386Q162 386 172 386T199 379Q236 364 250 327Q255 312 255 302T255 287Q255 221 212 182Q171 147 111 147Q68 147 46 170T24 249ZM55 236Q55 203
70 191Q82 183 108 183T155 188T192 204Q227 230 227 283Q227 315 212 335Q196 357 170 357Q152 353 134 349T100 332Q66 306 55 236Z" />
<glyph unicode="&#xbb;" glyph-name="guillemotright" horiz-adv-x="670" d="M118 48Q73 65 68 84Q68 88 68 91Q68 122 139 164Q244 225 276 249T314 297L50 396L100 445Q149 410 190 396T270 374T347 354T426 311Q400 280 361 249T278 184T192 117T118 48ZM345
76Q257 110 322 161Q355 187 402 214T475 258Q534 296 542 325L277 424L327 473Q376 438 417 424T498 402T574 382T654 339Q628 308 589 277T506 212T420 145T345 76Z" />
<glyph unicode="&#xbc;" glyph-name="onequarter" horiz-adv-x="635" d="M63 157Q63 165 64 184T66 227T68 277T71 328T72 371T74 399Q73 409 80 412T96 415T111 414T121 406L110 165Q108 157 90 153T63 157ZM287 248Q269 248 269 280V290Q284 334 664 904Q683
933 686 937Q691 934 691 923T679 877T636 776T560 632T467 478Q356 306 287 248ZM363 14Q350 14 349 21L351 134H307H234H190Q182 134 174 136T166 148Q199 187 229 226Q325 349 361 349Q401 349 401 217Q401 200 401 181L535 183Q535 168 531 161T524 154L412
145Q403 123 401 96Q398 50 398 20L363 14ZM351 296Q338 279 319 263T281 231T249 199T230 164Q234 164 249 164T291 167T351 174V296Z" />
<glyph unicode="&#xbd;" glyph-name="onehalf" horiz-adv-x="664" d="M26 149Q26 158 27 177T30 220T32 270T35 321T37 364T39 392Q37 403 45 405T62 408T79 408T89 400L77 157Q76 149 56 145T26 149ZM41 0Q23 0 23 32V42Q38 86 418 656Q437 685 440 689Q445 686
445 675T433 629T390 528T314 384T221 230Q110 58 41 0ZM522 108Q543 108 543 93T529 72T498 62T465 59T446 57T428 53T395 44T352 33Q281 15 238 15Q217 15 210 21T207 39Q254 78 305 139Q382 231 382 282Q382 293 378 301Q371 320 342 325Q315 325 297 315T264
291T233 267T193 256Q194 276 210 294Q243 332 303 349Q324 355 336 355T356 355Q380 352 398 338T419 294Q419 211 336 109Q313 81 291 58Q298 57 312 57T353 64T408 80T465 99T522 108Z" />
<glyph unicode="&#xbe;" glyph-name="threequarters" horiz-adv-x="883" d="M341 456Q341 419 274 370Q257 358 245 349Q331 347 348 313Q352 305 352 297T347 274T325 239T284 201Q234 162 178 148Q159 143 148 143T129 143T114 147T106 159Q159 171 199 192T262
238Q290 267 290 286T277 311T242 318Q189 318 96 280L72 308Q285 394 285 432Q285 448 245 453Q203 453 150 441T68 423T9 417Q9 446 25 451Q55 457 88 464Q196 488 261 488T341 456ZM220 -20Q202 -20 202 12V22Q217 66 597 636Q616 665 619 669Q624 666 624 655T612
609T569 508T493 364T400 210Q289 38 220 -20ZM529 14Q515 14 513 22L515 149H467L388 150H341Q332 150 324 152T315 166Q350 210 383 254Q488 393 527 393Q570 393 570 244Q570 225 569 203L715 205Q715 188 711 181T703 172L581 163Q572 138 570 106Q567 55 567
20L529 14ZM515 334Q501 314 480 296T440 260T404 223T384 184Q389 184 404 184T450 187T515 195V334Z" />
<glyph unicode="&#xbf;" glyph-name="questiondown" horiz-adv-x="496" d="M155 727Q186 727 186 692T155 656Q150 654 143 654T128 664T120 691T127 718T142 729T155 727ZM154 448Q286 448 286 397Q286 389 282 379Q170 303 135 277Q26 194 26 140Q26 92 114
67Q150 67 205 78T288 95T345 101Q355 101 366 86T381 56Q275 14 178 14Q108 14 62 34Q-29 73 -29 147Q-29 215 65 298Q115 343 197 388L101 421V445Q121 448 154 448Z" />
<glyph unicode="&#xc0;" glyph-name="Agrave" horiz-adv-x="656" d="M800 617H828Q845 617 860 614T876 592Q883 552 829 553Q814 554 802 555T781 556T774 550Q784 521 795 485T821 413Q857 324 889 285Q872 264 850 250T826 236T823 237L682 534L409 467L399
425Q370 310 334 265Q328 255 309 263Q277 275 277 283Q277 285 298 341T340 454T385 575T430 695T468 797T492 863T501 899T509 926Q519 949 559 949Q602 925 625 887T665 804T698 715T741 633Q750 619 768 618T800 617ZM550 833Q542 772 514 708T469 609T440
543Q508 543 607 583Q632 594 655 603Q608 804 550 833ZM253 839Q253 867 268 867Q277 867 290 853L357 788L340 745Q274 790 262 810Q258 818 256 826T253 839Z" />
<glyph unicode="&#xc1;" glyph-name="Aacute" horiz-adv-x="656" d="M549 366H577Q594 366 609 363T625 341Q632 301 578 302Q563 303 551 304T530 305T523 299Q533 270 544 234T570 162Q606 73 638 34Q621 13 599 -1T575 -15T572 -14L431 283L158 216L148 174Q119
59 83 14Q77 4 58 12Q26 24 26 32Q26 34 47 90T89 203T134 324T179 444T217 546T241 612T250 648T258 675Q268 698 308 698Q351 674 374 636T414 553T447 464T490 382Q499 368 517 367T549 366ZM299 582Q291 521 263 457T218 358T189 292Q257 292 356 332Q381 343
404 352Q357 553 299 582ZM275 860Q289 879 305 879Q315 879 320 870T324 851T319 834T306 815Q289 796 237 753L206 781L275 860Z" />
<glyph unicode="&#xc2;" glyph-name="Acircumflex" horiz-adv-x="656" d="M549 366H577Q594 366 609 363T625 341Q632 301 578 302Q563 303 551 304T530 305T523 299Q533 270 544 234T570 162Q606 73 638 34Q621 13 599 -1T575 -15T572 -14L431 283L158 216L148
174Q119 59 83 14Q77 4 58 12Q26 24 26 32Q26 34 47 90T89 203T134 324T179 444T217 546T241 612T250 648T258 675Q268 698 308 698Q351 674 374 636T414 553T447 464T490 382Q499 368 517 367T549 366ZM299 582Q291 521 263 457T218 358T189 292Q257 292 356 332Q381
343 404 352Q357 553 299 582ZM181 676T170 681T158 705T168 742T198 780Q240 824 302 853Q353 820 370 806Q398 781 434 725Q440 713 440 703T436 686Q425 670 400 685Q363 712 357 718T338 737T295 780Q234 738 212 702Q205 690 199 676Q181 676 170 681Z" />
<glyph unicode="&#xc3;" glyph-name="Atilde" horiz-adv-x="656" d="M549 366H577Q594 366 609 363T625 341Q632 301 578 302Q563 303 551 304T530 305T523 299Q533 270 544 234T570 162Q606 73 638 34Q621 13 599 -1T575 -15T572 -14L431 283L158 216L148 174Q119
59 83 14Q77 4 58 12Q26 24 26 32Q26 34 47 90T89 203T134 324T179 444T217 546T241 612T250 648T258 675Q268 698 308 698Q351 674 374 636T414 553T447 464T490 382Q499 368 517 367T549 366ZM299 582Q291 521 263 457T218 358T189 292Q257 292 356 332Q381 343
404 352Q357 553 299 582ZM254 798Q222 798 168 717Q162 717 149 721T132 738Q147 786 177 823T240 873Q248 876 258 876T282 866T315 836T352 800T392 783T426 790T449 810T472 842T508 885Q514 885 520 875T527 857T528 838T521 809T496 773Q452 726 390 726Q344
726 316 757Q296 775 282 786T254 798Z" />
<glyph unicode="&#xc4;" glyph-name="Adieresis" horiz-adv-x="656" d="M549 366H577Q594 366 609 363T625 341Q632 301 578 302Q563 303 551 304T530 305T523 299Q533 270 544 234T570 162Q606 73 638 34Q621 13 599 -1T575 -15T572 -14L431 283L158 216L148
174Q119 59 83 14Q77 4 58 12Q26 24 26 32Q26 34 47 90T89 203T134 324T179 444T217 546T241 612T250 648T258 675Q268 698 308 698Q351 674 374 636T414 553T447 464T490 382Q499 368 517 367T549 366ZM299 582Q291 521 263 457T218 358T189 292Q257 292 356 332Q381
343 404 352Q357 553 299 582ZM230 748Q206 748 206 782Q206 794 256 815Q277 815 284 806T292 783T286 763T271 753Q259 748 230 748ZM374 748Q350 748 350 782Q350 795 401 815Q437 815 437 781Q437 750 395 749Q384 748 374 748Z" />
<glyph unicode="&#xc5;" glyph-name="Aring" horiz-adv-x="656" d="M549 366H577Q594 366 609 363T625 341Q632 301 578 302Q563 303 551 304T530 305T523 299Q533 270 544 234T570 162Q606 73 638 34Q621 13 599 -1T575 -15T572 -14L431 283L158 216L148 174Q119
59 83 14Q77 4 58 12Q26 24 26 32Q26 34 47 90T89 203T134 324T179 444T217 546T241 612T250 648T258 675Q268 698 308 698Q351 674 374 636T414 553T447 464T490 382Q499 368 517 367T549 366ZM299 582Q291 521 263 457T218 358T189 292Q257 292 356 332Q381 343
404 352Q357 553 299 582ZM221 699T212 714T203 755T215 802Q235 835 275 835Q301 835 324 823Q371 798 375 752Q375 702 354 686T293 669Q262 669 242 684ZM328 769Q306 792 279 792Q248 792 242 762Q242 759 242 750T254 721Q275 704 292 704Q327 704 334 734Q334
739 334 747T328 769Z" />
<glyph unicode="&#xc6;" glyph-name="AE" horiz-adv-x="898" d="M731 559L592 562Q523 562 477 552Q458 464 460 439T463 398Q466 348 466 306Q538 306 599 314Q719 330 783 330V276L474 238L479 74Q594 74 665 80Q794 91 880 91Q884 89 884 82T877 66Q858 41
825 34Q714 22 604 15T397 0V3Q365 8 363 10L338 252L162 226Q158 211 152 185T136 129Q114 58 87 24Q81 16 63 22T38 34T30 52T40 103T68 193T108 302T154 414Q208 541 235 583Q256 629 280 652Q309 680 332 680Q378 680 401 638Q433 630 485 629T593 628Q738
628 780 612V562Q758 559 731 559ZM346 355L350 482Q350 538 342 586Q217 403 193 302Q237 302 265 308Q318 320 349 321Q346 335 346 355Z" />
<glyph unicode="&#xc7;" glyph-name="Ccedilla" horiz-adv-x="725" d="M522 555Q457 619 378 619Q303 619 234 562Q147 490 114 376Q102 335 102 308T104 266Q104 167 171 114Q234 65 332 65Q466 76 589 168Q623 194 661 218Q675 218 689 214T704 191Q605 105
537 67Q411 -1 309 -1Q302 -1 296 -1Q185 -1 106 68Q22 141 22 250Q22 332 51 407T132 539T254 631T406 665Q475 665 496 646Q522 623 522 555ZM268 15Q268 35 280 35Q292 35 301 22T306 5Q306 -22 307 -43T326 -64Q348 -62 373 -62T426 -72Q466 -88 466 -125Q466
-165 419 -197Q378 -226 325 -226Q298 -226 267 -216Q264 -216 264 -211T264 -199T265 -186T264 -177Q275 -178 291 -178T333 -174T383 -160T419 -139Q445 -115 389 -107Q377 -105 356 -105T303 -108Q269 -108 269 0Q268 9 268 15Z" />
<glyph unicode="&#xc8;" glyph-name="Egrave" horiz-adv-x="606" d="M353 635Q453 635 486 622V573Q459 569 412 569T312 567Q164 564 110 552Q93 472 94 443T96 398Q100 359 100 306Q168 306 255 318T391 335T490 341V286L107 238L113 74Q212 74 315 83T472 97T586
102Q586 82 574 64Q550 32 531 45Q355 26 217 15T30 0L34 638Q60 630 130 630L353 635ZM187 768Q187 796 202 796Q211 796 224 782L291 717L274 674Q208 719 196 739Q192 747 190 755T187 768Z" />
<glyph unicode="&#xc9;" glyph-name="Eacute" horiz-adv-x="606" d="M353 635Q453 635 486 622V573Q459 569 412 569T312 567Q164 564 110 552Q93 472 94 443T96 398Q100 359 100 306Q168 306 255 318T391 335T490 341V286L107 238L113 74Q212 74 315 83T472 97T586
102Q586 82 574 64Q550 32 531 45Q355 26 217 15T30 0L34 638Q60 630 130 630L353 635ZM281 788Q295 807 311 807Q321 807 326 798T330 779T325 762T312 743Q295 724 243 681L212 709L281 788Z" />
<glyph unicode="&#xca;" glyph-name="Ecircumflex" horiz-adv-x="606" d="M353 635Q453 635 486 622V573Q459 569 412 569T312 567Q164 564 110 552Q93 472 94 443T96 398Q100 359 100 306Q168 306 255 318T391 335T490 341V286L107 238L113 74Q212 74 315 83T472
97T586 102Q586 82 574 64Q550 32 531 45Q355 26 217 15T30 0L34 638Q60 630 130 630L353 635ZM166 676T155 681T143 705T153 742T183 780Q225 824 287 853Q338 820 355 806Q383 781 419 725Q425 713 425 703T421 686Q410 670 385 685Q348 712 342 718T323 737T280
780Q219 738 197 702Q190 690 184 676Q166 676 155 681Z" />
<glyph unicode="&#xcb;" glyph-name="Edieresis" horiz-adv-x="606" d="M353 635Q453 635 486 622V573Q459 569 412 569T312 567Q164 564 110 552Q93 472 94 443T96 398Q100 359 100 306Q168 306 255 318T391 335T490 341V286L107 238L113 74Q212 74 315 83T472
97T586 102Q586 82 574 64Q550 32 531 45Q355 26 217 15T30 0L34 638Q60 630 130 630L353 635ZM190 673Q166 673 166 707Q166 719 216 740Q237 740 244 731T252 708T246 688T231 678Q219 673 190 673ZM334 673Q310 673 310 707Q310 720 361 740Q397 740 397 706Q397
675 355 674Q344 673 334 673Z" />
<glyph unicode="&#xcc;" glyph-name="Igrave" horiz-adv-x="155" d="M105 16Q105 -1 81 -1Q63 -1 38 16Q26 43 26 145T28 313T32 436Q38 558 38 565Q67 582 86 582T105 565V16ZM8 733Q8 761 23 761Q32 761 45 747L112 682L95 639Q29 684 17 704Q13 712 11 720T8 733Z" />
<glyph unicode="&#xcd;" glyph-name="Iacute" horiz-adv-x="155" d="M105 16Q105 -1 81 -1Q63 -1 38 16Q26 43 26 145T28 313T32 436Q38 558 38 565Q67 582 86 582T105 565V16ZM337 711Q351 730 367 730Q377 730 382 721T386 702T381 685T368 666Q351 647 299
604L268 632L337 711Z" />
<glyph unicode="&#xce;" glyph-name="Icircumflex" horiz-adv-x="155" d="M105 16Q105 -1 81 -1Q63 -1 38 16Q26 43 26 145T28 313T32 436Q38 558 38 565Q67 582 86 582T105 565V16ZM222 610T211 615T199 639T209 676T239 714Q281 758 343 787Q394 754 411 740Q439
715 475 659Q481 647 481 637T477 620Q466 604 441 619Q404 646 398 652T379 671T336 714Q275 672 253 636Q246 624 240 610Q222 610 211 615Z" />
<glyph unicode="&#xcf;" glyph-name="Idieresis" horiz-adv-x="155" d="M105 16Q105 -1 81 -1Q63 -1 38 16Q26 43 26 145T28 313T32 436Q38 558 38 565Q67 582 86 582T105 565V16ZM233 628Q209 628 209 662Q209 674 259 695Q280 695 287 686T295 663T289 643T274
633Q262 628 233 628ZM377 628Q353 628 353 662Q353 675 404 695Q440 695 440 661Q440 630 398 629Q387 628 377 628Z" />
<glyph unicode="&#xd0;" glyph-name="Eth" horiz-adv-x="698" d="M60 194Q10 194 10 219Q10 233 21 238T42 244T58 246T73 249V638H86Q110 638 123 631T139 614Q213 640 335 640Q559 640 642 530Q673 488 673 423Q674 415 674 393T658 332T608 253T528 178T431
112T328 60Q206 7 119 7Q92 7 73 14V194H60ZM157 548V262Q190 268 225 271Q267 271 278 248Q282 239 276 230T252 214L157 203V71Q227 71 332 122Q514 212 582 331Q606 373 606 415Q595 505 506 547Q439 579 335 579T157 548Z" />
<glyph unicode="&#xd1;" glyph-name="Ntilde" horiz-adv-x="642" d="M608 353Q608 49 583 -3L510 3Q455 98 325 270Q274 338 224 405T131 538Q111 449 111 182Q111 80 107 10Q88 -8 66 -8T34 -4T25 11T27 44T33 120T40 232Q48 386 48 497T46 681Q68 701 80 710T107
710T145 669T212 575Q359 366 501 183L520 681Q531 701 542 708T571 716Q606 716 606 652L605 615L608 353ZM244 819Q212 819 158 738Q152 738 139 742T122 759Q137 807 167 844T230 894Q238 897 248 897T272 887T305 857T342 821T382 804T416 811T439 831T462
863T498 906Q504 906 510 896T517 878T518 859T511 830T486 794Q442 747 380 747Q334 747 306 778Q286 796 272 807T244 819Z" />
<glyph unicode="&#xd2;" glyph-name="Ograve" horiz-adv-x="686" d="M46 168Q22 222 22 295T45 424T110 522Q197 607 328 607Q465 607 554 544Q654 472 654 338Q654 172 578 93T339 14Q114 14 46 168ZM104 315Q104 79 342 79Q459 79 532 149Q605 218 605 330Q605
435 518 490Q444 538 331 538Q241 538 172 473Q104 408 104 315ZM282 746Q282 774 297 774Q306 774 319 760L386 695L369 652Q303 697 291 717Q287 725 285 733T282 746Z" />
<glyph unicode="&#xd3;" glyph-name="Oacute" horiz-adv-x="686" d="M46 168Q22 222 22 295T45 424T110 522Q197 607 328 607Q465 607 554 544Q654 472 654 338Q654 172 578 93T339 14Q114 14 46 168ZM104 315Q104 79 342 79Q459 79 532 149Q605 218 605 330Q605
435 518 490Q444 538 331 538Q241 538 172 473Q104 408 104 315ZM359 754Q373 773 389 773Q399 773 404 764T408 745T403 728T390 709Q373 690 321 647L290 675L359 754Z" />
<glyph unicode="&#xd4;" glyph-name="Ocircumflex" horiz-adv-x="686" d="M46 168Q22 222 22 295T45 424T110 522Q197 607 328 607Q465 607 554 544Q654 472 654 338Q654 172 578 93T339 14Q114 14 46 168ZM104 315Q104 79 342 79Q459 79 532 149Q605 218 605
330Q605 435 518 490Q444 538 331 538Q241 538 172 473Q104 408 104 315ZM227 616T216 621T204 645T214 682T244 720Q286 764 348 793Q399 760 416 746Q444 721 480 665Q486 653 486 643T482 626Q471 610 446 625Q409 652 403 658T384 677T341 720Q280 678 258
642Q251 630 245 616Q227 616 216 621Z" />
<glyph unicode="&#xd5;" glyph-name="Otilde" horiz-adv-x="686" d="M46 168Q22 222 22 295T45 424T110 522Q197 607 328 607Q465 607 554 544Q654 472 654 338Q654 172 578 93T339 14Q114 14 46 168ZM104 315Q104 79 342 79Q459 79 532 149Q605 218 605 330Q605
435 518 490Q444 538 331 538Q241 538 172 473Q104 408 104 315ZM294 712Q262 712 208 631Q202 631 189 635T172 652Q187 700 217 737T280 787Q288 790 298 790T322 780T355 750T392 714T432 697T466 704T489 724T512 756T548 799Q554 799 560 789T567 771T568
752T561 723T536 687Q492 640 430 640Q384 640 356 671Q336 689 322 700T294 712Z" />
<glyph unicode="&#xd6;" glyph-name="Odieresis" horiz-adv-x="686" d="M46 168Q22 222 22 295T45 424T110 522Q197 607 328 607Q465 607 554 544Q654 472 654 338Q654 172 578 93T339 14Q114 14 46 168ZM104 315Q104 79 342 79Q459 79 532 149Q605 218 605 330Q605
435 518 490Q444 538 331 538Q241 538 172 473Q104 408 104 315ZM252 646Q228 646 228 680Q228 692 278 713Q299 713 306 704T314 681T308 661T293 651Q281 646 252 646ZM396 646Q372 646 372 680Q372 693 423 713Q459 713 459 679Q459 648 417 647Q406 646 396
646Z" />
<glyph unicode="&#xd7;" glyph-name="multiply" horiz-adv-x="482" d="M249 209Q153 94 130 75Q109 75 97 84T82 98Q125 141 157 182T198 239Q163 277 139 305T95 353T76 375L118 421Q151 381 166 360T192 326Q209 303 238 276Q248 289 260 307T286 346Q317 392
344 425Q361 425 370 414T380 391Q361 350 337 320T303 275T286 242Q332 209 390 136Q404 119 410 110Q410 100 398 88T381 73Q367 80 352 97T320 134Q277 188 249 209Z" />
<glyph unicode="&#xd8;" glyph-name="Oslash" horiz-adv-x="686" d="M46 168Q22 222 22 295T45 424T110 522Q197 607 328 607Q465 607 554 544Q654 472 654 338Q654 172 578 93T339 14Q114 14 46 168ZM104 315Q104 79 342 79Q459 79 532 149Q605 218 605 330Q605
435 518 490Q444 538 331 538Q241 538 172 473Q104 408 104 315ZM129 223Q111 223 111 255V265Q126 309 506 879Q525 908 528 912Q533 909 533 898T521 852T478 751T402 607T309 453Q198 281 129 223Z" />
<glyph unicode="&#xd9;" glyph-name="Ugrave" horiz-adv-x="575" d="M526 16Q526 -2 495 -2Q480 -2 468 2T452 10L462 138Q370 59 328 39Q262 6 193 6Q180 6 166 7Q20 23 20 194Q20 272 60 459Q73 517 77 565Q80 566 90 566Q90 566 102 566Q107 567 111 567Q143
567 143 519Q143 486 130 437Q90 276 90 214Q90 149 124 112Q146 88 193 83Q199 83 205 83Q368 83 419 240Q449 332 454 462Q457 522 459 581Q470 611 489 611Q508 611 531 594Q534 536 534 480L524 98Q524 57 526 16ZM227 695Q227 723 242 723Q251 723 264 709L331
644L314 601Q248 646 236 666Q232 674 230 682T227 695Z" />
<glyph unicode="&#xda;" glyph-name="Uacute" horiz-adv-x="575" d="M526 16Q526 -2 495 -2Q480 -2 468 2T452 10L462 138Q370 59 328 39Q262 6 193 6Q180 6 166 7Q20 23 20 194Q20 272 60 459Q73 517 77 565Q80 566 90 566Q90 566 102 566Q107 567 111 567Q143
567 143 519Q143 486 130 437Q90 276 90 214Q90 149 124 112Q146 88 193 83Q199 83 205 83Q368 83 419 240Q449 332 454 462Q457 522 459 581Q470 611 489 611Q508 611 531 594Q534 536 534 480L524 98Q524 57 526 16ZM317 747Q331 766 347 766Q357 766 362 757T366
738T361 721T348 702Q331 683 279 640L248 668L317 747Z" />
<glyph unicode="&#xdb;" glyph-name="Ucircumflex" horiz-adv-x="575" d="M526 16Q526 -2 495 -2Q480 -2 468 2T452 10L462 138Q370 59 328 39Q262 6 193 6Q180 6 166 7Q20 23 20 194Q20 272 60 459Q73 517 77 565Q80 566 90 566Q90 566 102 566Q107 567 111 567Q143
567 143 519Q143 486 130 437Q90 276 90 214Q90 149 124 112Q146 88 193 83Q199 83 205 83Q368 83 419 240Q449 332 454 462Q457 522 459 581Q470 611 489 611Q508 611 531 594Q534 536 534 480L524 98Q524 57 526 16ZM185 637T174 642T162 666T172 703T202 741Q244
785 306 814Q357 781 374 767Q402 742 438 686Q444 674 444 664T440 647Q429 631 404 646Q367 673 361 679T342 698T299 741Q238 699 216 663Q209 651 203 637Q185 637 174 642Z" />
<glyph unicode="&#xdc;" glyph-name="Udieresis" horiz-adv-x="575" d="M526 16Q526 -2 495 -2Q480 -2 468 2T452 10L462 138Q370 59 328 39Q262 6 193 6Q180 6 166 7Q20 23 20 194Q20 272 60 459Q73 517 77 565Q80 566 90 566Q90 566 102 566Q107 567 111 567Q143
567 143 519Q143 486 130 437Q90 276 90 214Q90 149 124 112Q146 88 193 83Q199 83 205 83Q368 83 419 240Q449 332 454 462Q457 522 459 581Q470 611 489 611Q508 611 531 594Q534 536 534 480L524 98Q524 57 526 16ZM206 652Q182 652 182 686Q182 698 232 719Q253
719 260 710T268 687T262 667T247 657Q235 652 206 652ZM350 652Q326 652 326 686Q326 699 377 719Q413 719 413 685Q413 654 371 653Q360 652 350 652Z" />
<glyph unicode="&#xdd;" glyph-name="Yacute" horiz-adv-x="547" d="M278 -18Q262 -18 244 -8Q209 13 216 29Q228 50 247 113L274 203Q288 246 302 298L35 570Q28 579 28 586T36 597Q49 603 67 603T105 597T154 567Q211 519 341 364Q400 536 426 585T467 649T495
665T517 664T530 650Q499 584 471 501T412 328Q333 92 278 -18ZM321 767Q335 786 351 786Q361 786 366 777T370 758T365 741T352 722Q335 703 283 660L252 688L321 767Z" />
<glyph unicode="&#xde;" glyph-name="Thorn" horiz-adv-x="518" d="M106 25Q106 1 77 1L60 5Q50 10 45 21L34 677Q33 681 33 691T44 710T71 719T100 711T110 687L115 438Q178 521 272 570Q338 605 391 605Q453 605 484 556Q504 524 504 475T485 387T435 313T362
249Q278 190 190 170Q162 164 143 164T110 166L106 25ZM118 246Q118 231 147 231Q181 231 226 250T308 297Q396 360 446 455Q432 518 365 518Q318 518 269 489Q172 432 133 344Q118 309 118 286T118 255T118 246Z" />
<glyph unicode="&#xdf;" glyph-name="germandbls" horiz-adv-x="728" d="M223 615Q141 615 131 598L146 -145H78Q89 -75 89 22T86 214T78 408T73 548V599Q73 627 105 648Q123 660 166 667T247 675T331 672T436 649T522 602T552 545Q552 501 493 457T314 371Q545
358 630 304Q676 275 676 235Q676 181 602 126Q519 64 392 22Q330 1 267 -9L260 69Q375 85 447 113T550 170T581 225Q581 262 533 285Q465 318 347 318Q288 318 214 309L210 414Q451 464 451 531Q451 578 366 600Q309 615 244 615H223Z" />
<glyph unicode="&#xe0;" glyph-name="agrave" horiz-adv-x="521" d="M420 166Q345 48 220 20Q191 14 168 14T129 14T94 19T59 32Q22 53 22 91Q18 109 18 131T28 191T64 271T129 350Q208 426 300 448Q327 454 349 454T390 451Q448 451 468 372Q481 322 483 233T488
95T501 6H442Q438 33 436 54T432 93Q427 135 420 166ZM416 321Q416 379 359 379Q352 380 345 380Q272 380 191 310Q153 278 126 238Q86 181 86 136Q86 77 154 66Q244 68 326 148Q361 183 384 224Q416 279 416 321ZM210 588Q210 616 225 616Q234 616 247 602L314
537L297 494Q231 539 219 559Q215 567 213 575T210 588Z" />
<glyph unicode="&#xe1;" glyph-name="aacute" horiz-adv-x="521" d="M420 166Q345 48 220 20Q191 14 168 14T129 14T94 19T59 32Q22 53 22 91Q18 109 18 131T28 191T64 271T129 350Q208 426 300 448Q327 454 349 454T390 451Q448 451 468 372Q481 322 483 233T488
95T501 6H442Q438 33 436 54T432 93Q427 135 420 166ZM416 321Q416 379 359 379Q352 380 345 380Q272 380 191 310Q153 278 126 238Q86 181 86 136Q86 77 154 66Q244 68 326 148Q361 183 384 224Q416 279 416 321ZM270 605Q284 624 300 624Q310 624 315 615T319
596T314 579T301 560Q284 541 232 498L201 526L270 605Z" />
<glyph unicode="&#xe2;" glyph-name="acircumflex" horiz-adv-x="521" d="M420 166Q345 48 220 20Q191 14 168 14T129 14T94 19T59 32Q22 53 22 91Q18 109 18 131T28 191T64 271T129 350Q208 426 300 448Q327 454 349 454T390 451Q448 451 468 372Q481 322 483
233T488 95T501 6H442Q438 33 436 54T432 93Q427 135 420 166ZM416 321Q416 379 359 379Q352 380 345 380Q272 380 191 310Q153 278 126 238Q86 181 86 136Q86 77 154 66Q244 68 326 148Q361 183 384 224Q416 279 416 321ZM137 510T126 515T114 539T124 576T154
614Q196 658 258 687Q309 654 326 640Q354 615 390 559Q396 547 396 537T392 520Q381 504 356 519Q319 546 313 552T294 571T251 614Q190 572 168 536Q161 524 155 510Q137 510 126 515Z" />
<glyph unicode="&#xe3;" glyph-name="atilde" horiz-adv-x="521" d="M420 166Q345 48 220 20Q191 14 168 14T129 14T94 19T59 32Q22 53 22 91Q18 109 18 131T28 191T64 271T129 350Q208 426 300 448Q327 454 349 454T390 451Q448 451 468 372Q481 322 483 233T488
95T501 6H442Q438 33 436 54T432 93Q427 135 420 166ZM416 321Q416 379 359 379Q352 380 345 380Q272 380 191 310Q153 278 126 238Q86 181 86 136Q86 77 154 66Q244 68 326 148Q361 183 384 224Q416 279 416 321ZM177 567Q145 567 91 486Q85 486 72 490T55 507Q70
555 100 592T163 642Q171 645 181 645T205 635T238 605T275 569T315 552T349 559T372 579T395 611T431 654Q437 654 443 644T450 626T451 607T444 578T419 542Q375 495 313 495Q267 495 239 526Q219 544 205 555T177 567Z" />
<glyph unicode="&#xe4;" glyph-name="adieresis" horiz-adv-x="521" d="M420 166Q345 48 220 20Q191 14 168 14T129 14T94 19T59 32Q22 53 22 91Q18 109 18 131T28 191T64 271T129 350Q208 426 300 448Q327 454 349 454T390 451Q448 451 468 372Q481 322 483 233T488
95T501 6H442Q438 33 436 54T432 93Q427 135 420 166ZM416 321Q416 379 359 379Q352 380 345 380Q272 380 191 310Q153 278 126 238Q86 181 86 136Q86 77 154 66Q244 68 326 148Q361 183 384 224Q416 279 416 321ZM168 597Q144 597 144 631Q144 643 194 664Q215
664 222 655T230 632T224 612T209 602Q197 597 168 597ZM312 597Q288 597 288 631Q288 644 339 664Q375 664 375 630Q375 599 333 598Q322 597 312 597Z" />
<glyph unicode="&#xe5;" glyph-name="aring" horiz-adv-x="521" d="M420 166Q345 48 220 20Q191 14 168 14T129 14T94 19T59 32Q22 53 22 91Q18 109 18 131T28 191T64 271T129 350Q208 426 300 448Q327 454 349 454T390 451Q448 451 468 372Q481 322 483 233T488
95T501 6H442Q438 33 436 54T432 93Q427 135 420 166ZM416 321Q416 379 359 379Q352 380 345 380Q272 380 191 310Q153 278 126 238Q86 181 86 136Q86 77 154 66Q244 68 326 148Q361 183 384 224Q416 279 416 321ZM203 410T194 425T185 466T197 513Q217 546 257
546Q283 546 306 534Q353 509 357 463Q357 413 336 397T275 380Q244 380 224 395ZM310 480Q288 503 261 503Q230 503 224 473Q224 470 224 461T236 432Q257 415 274 415Q309 415 316 445Q316 450 316 458T310 480Z" />
<glyph unicode="&#xe6;" glyph-name="ae" horiz-adv-x="946" d="M420 166Q345 48 220 20Q191 14 168 14T129 14T94 19T59 32Q22 53 22 91Q18 109 18 131T28 191T64 271T129 350Q208 426 300 448Q327 454 349 454T390 451Q448 451 468 372Q481 322 483 233T488
95T501 6H442Q438 33 436 54T432 93Q427 135 420 166ZM416 321Q416 379 359 379Q352 380 345 380Q272 380 191 310Q153 278 126 238Q86 181 86 136Q86 77 154 66Q244 68 326 148Q361 183 384 224Q416 279 416 321ZM649 54Q737 54 914 134Q925 134 932 127T939 109Q899
41 786 3T575 -10Q464 19 440 115Q438 134 438 166T454 250T511 350T605 424T720 451Q778 451 850 411Q884 392 904 368T924 319Q924 312 923 305Q921 244 864 228Q839 221 806 221L662 227Q590 227 552 196Q530 179 521 145Q546 54 649 54ZM805 379T781 386T741
393T689 383T625 359Q556 327 556 292Q636 285 676 285Q787 285 826 304Q850 314 850 329Q850 347 828 363Z" />
<glyph unicode="&#xe7;" glyph-name="ccedilla" horiz-adv-x="648" d="M472 122T511 136T585 150T621 128Q621 123 619 113T592 88T532 60T454 36T372 17Q289 0 254 0T179 8T103 34Q22 76 22 158Q22 164 22 182T37 233T82 300T152 362Q236 422 328 440Q360 447
381 447T417 447T446 445T472 437Q498 424 498 386Q498 362 464 339Q455 333 448 328Q443 351 435 367T400 383Q282 358 197 308Q101 251 101 188Q101 181 102 173Q102 109 151 82Q188 62 246 62T348 75T431 105ZM174 8Q174 28 186 28Q198 28 207 15T212 -2Q212
-29 213 -50T232 -71Q254 -69 279 -69T332 -79Q372 -95 372 -132Q372 -172 325 -204Q284 -233 231 -233Q204 -233 173 -223Q170 -223 170 -218T170 -206T171 -193T170 -184Q181 -185 197 -185T239 -181T289 -167T325 -146Q351 -122 295 -114Q283 -112 262 -112T209
-115Q175 -115 175 -7Q174 2 174 8Z" />
<glyph unicode="&#xe8;" glyph-name="egrave" horiz-adv-x="554" d="M231 70Q319 70 496 150Q507 150 514 143T521 125Q481 57 368 19T157 6Q46 35 22 131Q20 150 20 182T36 266T93 366T187 440T302 467Q360 467 432 427Q466 408 486 384T506 335Q506 328 505
321Q503 260 446 244Q421 237 388 237L244 243Q172 243 134 212Q112 195 103 161Q128 70 231 70ZM387 395T363 402T323 409T271 399T207 375Q138 343 138 308Q218 301 258 301Q369 301 408 320Q432 330 432 345Q432 363 410 379ZM226 588Q226 616 241 616Q250 616
263 602L330 537L313 494Q247 539 235 559Q231 567 229 575T226 588Z" />
<glyph unicode="&#xe9;" glyph-name="eacute" horiz-adv-x="554" d="M231 70Q319 70 496 150Q507 150 514 143T521 125Q481 57 368 19T157 6Q46 35 22 131Q20 150 20 182T36 266T93 366T187 440T302 467Q360 467 432 427Q466 408 486 384T506 335Q506 328 505
321Q503 260 446 244Q421 237 388 237L244 243Q172 243 134 212Q112 195 103 161Q128 70 231 70ZM387 395T363 402T323 409T271 399T207 375Q138 343 138 308Q218 301 258 301Q369 301 408 320Q432 330 432 345Q432 363 410 379ZM286 605Q300 624 316 624Q326 624
331 615T335 596T330 579T317 560Q300 541 248 498L217 526L286 605Z" />
<glyph unicode="&#xea;" glyph-name="ecircumflex" horiz-adv-x="554" d="M231 70Q319 70 496 150Q507 150 514 143T521 125Q481 57 368 19T157 6Q46 35 22 131Q20 150 20 182T36 266T93 366T187 440T302 467Q360 467 432 427Q466 408 486 384T506 335Q506 328
505 321Q503 260 446 244Q421 237 388 237L244 243Q172 243 134 212Q112 195 103 161Q128 70 231 70ZM387 395T363 402T323 409T271 399T207 375Q138 343 138 308Q218 301 258 301Q369 301 408 320Q432 330 432 345Q432 363 410 379ZM154 510T143 515T131 539T141
576T171 614Q213 658 275 687Q326 654 343 640Q371 615 407 559Q413 547 413 537T409 520Q398 504 373 519Q336 546 330 552T311 571T268 614Q207 572 185 536Q178 524 172 510Q154 510 143 515Z" />
<glyph unicode="&#xeb;" glyph-name="edieresis" horiz-adv-x="554" d="M231 70Q319 70 496 150Q507 150 514 143T521 125Q481 57 368 19T157 6Q46 35 22 131Q20 150 20 182T36 266T93 366T187 440T302 467Q360 467 432 427Q466 408 486 384T506 335Q506 328 505
321Q503 260 446 244Q421 237 388 237L244 243Q172 243 134 212Q112 195 103 161Q128 70 231 70ZM387 395T363 402T323 409T271 399T207 375Q138 343 138 308Q218 301 258 301Q369 301 408 320Q432 330 432 345Q432 363 410 379ZM185 597Q161 597 161 631Q161 643
211 664Q232 664 239 655T247 632T241 612T226 602Q214 597 185 597ZM329 597Q305 597 305 631Q305 644 356 664Q392 664 392 630Q392 599 350 598Q339 597 329 597Z" />
<glyph unicode="&#xec;" glyph-name="igrave" horiz-adv-x="155" d="M139 37Q136 21 123 14T102 7T87 6T69 10T54 23V470H117Q130 283 139 37ZM28 640Q28 668 43 668Q52 668 65 654L132 589L115 546Q49 591 38 611Q33 619 31 627T28 640Z" />
<glyph unicode="&#xed;" glyph-name="iacute" horiz-adv-x="155" d="M117 470Q130 283 139 37Q133 6 91 6Q80 6 69 10T54 23V470H117ZM102 639Q116 658 132 658Q142 658 147 649T151 630T146 613T133 594Q116 575 64 532L33 560L102 639Z" />
<glyph unicode="&#xee;" glyph-name="icircumflex" horiz-adv-x="155" d="M117 470Q130 283 139 37Q133 6 91 6Q80 6 69 10T54 23V470H117ZM-45 510T-56 515T-68 539T-58 576T-28 614Q14 658 76 687Q127 654 144 640Q172 615 208 559Q214 547 214 537T210 520Q199
504 174 519Q137 546 131 552T112 571T69 614Q8 572 -14 536Q-21 524 -27 510Q-45 510 -56 515Z" />
<glyph unicode="&#xef;" glyph-name="idieresis" horiz-adv-x="155" d="M117 470Q130 283 139 37Q133 6 91 6Q80 6 69 10T54 23V470H117ZM-14 597Q-38 597 -38 631Q-38 643 12 664Q33 664 40 655T48 632T42 612T27 602Q15 597 -14 597ZM130 597Q106 597 106 631Q106
644 157 664Q193 664 193 630Q193 599 151 598Q140 597 130 597Z" />
<glyph unicode="&#xf0;" glyph-name="eth" horiz-adv-x="594" d="M483 466Q541 351 541 238Q541 119 470 54Q438 25 389 11Q373 6 355 6T307 12T235 37T153 84Q69 143 53 202Q51 211 51 225T65 259Q104 299 146 312T213 325T266 324T349 311T466 286Q458 359 410
428L331 383L290 449L358 483Q315 551 238 580Q238 598 252 608T280 622Q342 590 361 577Q400 552 438 514L511 566L553 517L483 466ZM146 232Q146 148 215 106Q271 73 366 73Q424 77 450 118Q467 144 467 169T463 212Q361 252 277 252T146 232Z" />
<glyph unicode="&#xf1;" glyph-name="ntilde" horiz-adv-x="512" d="M417 219Q417 338 404 394Q412 409 380 409Q346 409 292 392T204 358Q123 319 114 282V10H47Q34 44 34 201Q34 341 39 407T48 482Q74 499 90 499Q115 499 115 440Q115 417 113 396T110 366Q272
485 361 485Q462 485 476 322Q482 265 482 164L481 85Q481 41 483 0Q473 -6 467 -6Q464 -5 454 -3T428 0Q418 40 417 81T416 158L417 219ZM182 625Q150 625 96 544Q90 544 77 548T60 565Q75 613 105 650T168 700Q176 703 186 703T210 693T243 663T280 627T320 610T354
617T377 637T400 669T436 712Q442 712 448 702T455 684T456 665T449 636T424 600Q380 553 318 553Q272 553 244 584Q224 602 210 613T182 625Z" />
<glyph unicode="&#xf2;" glyph-name="ograve" horiz-adv-x="576" d="M52 190Q52 308 154 380Q235 437 349 449Q355 449 377 449T436 436Q518 408 548 337Q560 309 560 290T559 262Q559 137 464 65Q376 -1 244 -1Q149 -1 101 43T52 190ZM121 166Q121 104 154 82Q179
66 238 66T342 75T422 106Q497 154 497 255Q497 315 465 353Q430 394 373 394Q334 387 295 379T220 348Q144 299 121 166ZM237 588Q237 616 252 616Q261 616 274 602L341 537L324 494Q258 539 246 559Q242 567 240 575T237 588Z" />
<glyph unicode="&#xf3;" glyph-name="oacute" horiz-adv-x="576" d="M52 190Q52 308 154 380Q235 437 349 449Q355 449 377 449T436 436Q518 408 548 337Q560 309 560 290T559 262Q559 137 464 65Q376 -1 244 -1Q149 -1 101 43T52 190ZM121 166Q121 104 154 82Q179
66 238 66T342 75T422 106Q497 154 497 255Q497 315 465 353Q430 394 373 394Q334 387 295 379T220 348Q144 299 121 166ZM297 605Q311 624 327 624Q337 624 342 615T346 596T341 579T328 560Q311 541 259 498L228 526L297 605Z" />
<glyph unicode="&#xf4;" glyph-name="ocircumflex" horiz-adv-x="576" d="M52 190Q52 308 154 380Q235 437 349 449Q355 449 377 449T436 436Q518 408 548 337Q560 309 560 290T559 262Q559 137 464 65Q376 -1 244 -1Q149 -1 101 43T52 190ZM121 166Q121 104 154
82Q179 66 238 66T342 75T422 106Q497 154 497 255Q497 315 465 353Q430 394 373 394Q334 387 295 379T220 348Q144 299 121 166ZM165 510T154 515T142 539T152 576T182 614Q224 658 286 687Q337 654 354 640Q382 615 418 559Q424 547 424 537T420 520Q409 504
384 519Q347 546 341 552T322 571T279 614Q218 572 196 536Q189 524 183 510Q165 510 154 515Z" />
<glyph unicode="&#xf5;" glyph-name="otilde" horiz-adv-x="576" d="M52 190Q52 308 154 380Q235 437 349 449Q355 449 377 449T436 436Q518 408 548 337Q560 309 560 290T559 262Q559 137 464 65Q376 -1 244 -1Q149 -1 101 43T52 190ZM121 166Q121 104 154 82Q179
66 238 66T342 75T422 106Q497 154 497 255Q497 315 465 353Q430 394 373 394Q334 387 295 379T220 348Q144 299 121 166ZM204 567Q172 567 118 486Q112 486 99 490T82 507Q97 555 127 592T190 642Q198 645 208 645T232 635T265 605T302 569T342 552T376 559T399
579T422 611T458 654Q464 654 470 644T477 626T478 607T471 578T446 542Q402 495 340 495Q294 495 266 526Q246 544 232 555T204 567Z" />
<glyph unicode="&#xf6;" glyph-name="odieresis" horiz-adv-x="576" d="M52 190Q52 308 154 380Q235 437 349 449Q355 449 377 449T436 436Q518 408 548 337Q560 309 560 290T559 262Q559 137 464 65Q376 -1 244 -1Q149 -1 101 43T52 190ZM121 166Q121 104 154
82Q179 66 238 66T342 75T422 106Q497 154 497 255Q497 315 465 353Q430 394 373 394Q334 387 295 379T220 348Q144 299 121 166ZM196 597Q172 597 172 631Q172 643 222 664Q243 664 250 655T258 632T252 612T237 602Q225 597 196 597ZM340 597Q316 597 316 631Q316
644 367 664Q403 664 403 630Q403 599 361 598Q350 597 340 597Z" />
<glyph unicode="&#xf7;" glyph-name="divide" horiz-adv-x="352" d="M171 136Q171 151 184 165T215 179T241 168T250 145T241 122T223 111T209 111T187 116T171 136ZM139 328Q125 332 125 343Q125 358 140 368T164 379Q195 375 203 364T212 345Q212 324 186 318Q182
316 172 316T139 328ZM108 216Q58 216 58 242Q58 255 69 260T109 269T181 281T273 294Q293 294 307 287Q327 277 327 263Q327 258 323 250T300 236L108 216Z" />
<glyph unicode="&#xf8;" glyph-name="oslash" horiz-adv-x="576" d="M52 190Q52 308 154 380Q235 437 349 449Q355 449 377 449T436 436Q518 408 548 337Q560 309 560 290T559 262Q559 137 464 65Q376 -1 244 -1Q149 -1 101 43T52 190ZM121 166Q121 104 154 82Q179
66 238 66T342 75T422 106Q497 154 497 255Q497 315 465 353Q430 394 373 394Q334 387 295 379T220 348Q144 299 121 166ZM126 218Q110 218 110 244V252Q124 287 457 747Q474 770 476 773Q481 771 481 762T470 725T432 644T365 527T284 403Q187 265 126 218Z" />
<glyph unicode="&#xf9;" glyph-name="ugrave" horiz-adv-x="520" d="M22 133Q22 149 20 177T15 240T13 309T19 373Q32 438 73 438Q101 430 110 418T120 389T111 345Q78 258 78 188Q78 165 81 139Q97 72 191 72Q240 72 284 89Q368 120 398 162Q407 208 407 242T405
304T399 363T394 435Q407 441 419 441T445 428T468 379T481 295T484 194T485 94T489 10Q477 -1 466 -1Q426 -1 407 79Q394 68 363 52Q297 16 207 4Q190 2 169 2T117 10T57 47T22 133ZM209 588Q209 616 224 616Q233 616 246 602L313 537L296 494Q230 539 218 559Q214
567 212 575T209 588Z" />
<glyph unicode="&#xfa;" glyph-name="uacute" horiz-adv-x="520" d="M22 133Q22 149 20 177T15 240T13 309T19 373Q32 438 73 438Q101 430 110 418T120 389T111 345Q78 258 78 188Q78 165 81 139Q97 72 191 72Q240 72 284 89Q368 120 398 162Q407 208 407 242T405
304T399 363T394 435Q407 441 419 441T445 428T468 379T481 295T484 194T485 94T489 10Q477 -1 466 -1Q426 -1 407 79Q394 68 363 52Q297 16 207 4Q190 2 169 2T117 10T57 47T22 133ZM269 605Q283 624 299 624Q309 624 314 615T318 596T313 579T300 560Q283 541
231 498L200 526L269 605Z" />
<glyph unicode="&#xfb;" glyph-name="ucircumflex" horiz-adv-x="520" d="M22 133Q22 149 20 177T15 240T13 309T19 373Q32 438 73 438Q101 430 110 418T120 389T111 345Q78 258 78 188Q78 165 81 139Q97 72 191 72Q240 72 284 89Q368 120 398 162Q407 208 407
242T405 304T399 363T394 435Q407 441 419 441T445 428T468 379T481 295T484 194T485 94T489 10Q477 -1 466 -1Q426 -1 407 79Q394 68 363 52Q297 16 207 4Q190 2 169 2T117 10T57 47T22 133ZM137 510T126 515T114 539T124 576T154 614Q196 658 258 687Q309 654
326 640Q354 615 390 559Q396 547 396 537T392 520Q381 504 356 519Q319 546 313 552T294 571T251 614Q190 572 168 536Q161 524 155 510Q137 510 126 515Z" />
<glyph unicode="&#xfc;" glyph-name="udieresis" horiz-adv-x="520" d="M22 133Q22 149 20 177T15 240T13 309T19 373Q32 438 73 438Q101 430 110 418T120 389T111 345Q78 258 78 188Q78 165 81 139Q97 72 191 72Q240 72 284 89Q368 120 398 162Q407 208 407 242T405
304T399 363T394 435Q407 441 419 441T445 428T468 379T481 295T484 194T485 94T489 10Q477 -1 466 -1Q426 -1 407 79Q394 68 363 52Q297 16 207 4Q190 2 169 2T117 10T57 47T22 133ZM168 597Q144 597 144 631Q144 643 194 664Q215 664 222 655T230 632T224 612T209
602Q197 597 168 597ZM312 597Q288 597 288 631Q288 644 339 664Q375 664 375 630Q375 599 333 598Q322 597 312 597Z" />
<glyph unicode="&#xfd;" glyph-name="yacute" horiz-adv-x="562" d="M238 -377Q217 -424 188 -424Q174 -424 168 -412T167 -382Q189 -289 230 -170T286 -10Q251 25 176 130Q22 346 22 367Q22 368 23 369L61 407Q140 334 267 159Q299 115 318 85Q339 127 351 157T370
206T391 256Q425 339 485 467Q494 471 504 471Q529 471 540 458Q544 453 544 447T542 434L238 -377ZM290 605Q304 624 320 624Q330 624 335 615T339 596T334 579T321 560Q304 541 252 498L221 526L290 605Z" />
<glyph unicode="&#xfe;" glyph-name="thorn" horiz-adv-x="531" d="M114 29L113 -18Q113 -47 117 -78Q118 -86 118 -92Q118 -118 103 -130T72 -143T50 -142L24 582Q47 591 58 591T77 576Q91 550 95 420Q227 460 323 460Q449 460 491 400Q510 373 510 340Q510 295
480 250T399 166Q282 81 113 64Q114 46 114 29ZM388 389Q354 402 317 402T242 395Q158 379 118 324Q100 298 100 260Q100 256 100 252L105 131Q309 177 396 246Q444 285 444 324Q444 367 388 389Z" />
<glyph unicode="&#xff;" glyph-name="ydieresis" horiz-adv-x="562" d="M238 -377Q217 -424 188 -424Q174 -424 168 -412T167 -382Q189 -289 230 -170T286 -10Q251 25 176 130Q22 346 22 367Q22 368 23 369L61 407Q140 334 267 159Q299 115 318 85Q339 127 351
157T370 206T391 256Q425 339 485 467Q494 471 504 471Q529 471 540 458Q544 453 544 447T542 434L238 -377ZM189 597Q165 597 165 631Q165 643 215 664Q236 664 243 655T251 632T245 612T230 602Q218 597 189 597ZM333 597Q309 597 309 631Q309 644 360 664Q396
664 396 630Q396 599 354 598Q343 597 333 597Z" />
<glyph unicode="&#x2013;" glyph-name="endash" horiz-adv-x="318" d="M80 216Q30 216 30 242Q30 255 41 260T81 269T153 281T245 294Q265 294 279 287Q299 277 299 263Q299 258 295 250T272 236L80 216Z" />
<glyph unicode="&#x2014;" glyph-name="emdash" horiz-adv-x="421" d="M80 216Q30 216 30 242Q30 255 41 260T70 267T123 273T197 280T272 287T332 293Q352 293 366 286Q386 276 386 262Q386 257 382 249T359 235L80 216Z" />
<glyph unicode="&#x2018;" glyph-name="quoteleft" horiz-adv-x="166" d="M104 619Q128 619 128 584Q128 543 94 476Q84 456 75 442L27 438L83 614Q95 619 104 619Z" />
<glyph unicode="&#x2019;" glyph-name="quoteright" horiz-adv-x="166" d="M104 619Q128 619 128 584Q128 543 94 476Q84 456 75 442L27 438L83 614Q95 619 104 619Z" />
<glyph unicode="&#x201a;" glyph-name="quotesinglbase" horiz-adv-x="166" d="M112 191Q136 191 136 156Q136 115 102 48Q92 28 83 14L35 10L91 186Q103 191 112 191Z" />
<glyph unicode="&#x201c;" glyph-name="quotedblleft" horiz-adv-x="242" d="M146 594L147 622L146 663Q146 746 182 763L199 747V548L215 514Q212 511 200 505T182 498Q146 498 146 594ZM54 585L55 614L54 656Q54 739 90 756L106 740V541L123 507Q119 503 107
497T90 490Q54 490 54 585Z" />
<glyph unicode="&#x201d;" glyph-name="quotedblright" horiz-adv-x="242" d="M146 594L147 622L146 663Q146 746 182 763L199 747V548L215 514Q212 511 200 505T182 498Q146 498 146 594ZM54 585L55 614L54 656Q54 739 90 756L106 740V541L123 507Q119 503 107
497T90 490Q54 490 54 585Z" />
<glyph unicode="&#x201e;" glyph-name="quotedblbase" horiz-adv-x="287" d="M185 127L186 155L185 195Q185 277 221 297L238 280V81L254 47Q251 43 239 37T221 31Q185 31 185 127ZM85 131L86 159L85 201Q85 282 121 301L138 284V85L154 52Q151 47 139 41T121
35Q85 35 85 131Z" />
<glyph unicode="&#x2022;" glyph-name="bullet" horiz-adv-x="197" d="M33 257Q41 294 59 307T89 321Q122 321 142 301T165 255Q165 218 150 206T115 194T83 198T59 210Q33 231 33 257Z" />
<glyph unicode="&#x2039;" glyph-name="guilsinglleft" horiz-adv-x="487" d="M84 229Q116 254 159 288T246 356Q354 441 401 467Q414 467 420 445Q423 436 423 427T419 412L184 233Q199 225 227 213T289 183Q370 143 431 103Q430 102 427 95T420 80Q411 59 409
59Q379 78 323 97T233 130T170 158Q102 192 84 229Z" />
<glyph unicode="&#x203a;" glyph-name="guilsinglright" horiz-adv-x="483" d="M118 48Q73 65 68 84Q68 88 68 91Q68 122 139 164Q244 225 276 249T314 297L50 396L100 445Q149 410 190 396T270 374T347 354T426 311Q400 280 361 249T278 184T192 117T118 48Z" />
</font>
</defs>
</svg>
