<?xml version="1.0" standalone="no"?>
<!DOCTYPE svg PUBLIC "-//W3C//DTD SVG 1.1//EN" "http://www.w3.org/Graphics/SVG/1.1/DTD/svg11.dtd">
<svg xmlns="http://www.w3.org/2000/svg">
<defs >
<font id="DancingScript" horiz-adv-x="522" ><font-face
    font-family="Dancing Script"
    units-per-em="1000"
    panose-1="3 8 8 0 4 5 7 0 13 0"
    ascent="920"
    descent="-280"
    alphabetic="0" />
<glyph unicode=" " glyph-name="space" horiz-adv-x="260" />
<glyph unicode="!" glyph-name="exclam" horiz-adv-x="295" d="M61 108Q61 140 76 187T115 297Q193 498 246 609T341 720Q352 720 360 711T369 690Q369 664 312 544T183 290T73 104L61 108ZM23 -10T12 -2T0 24Q0 42 20 56T65 71Q99 71 99 40Q99 22 81 6T40 -10Q23
-10 12 -2Z" />
<glyph unicode="&quot;" glyph-name="quotedbl" horiz-adv-x="270" d="M151 590T151 620Q151 640 160 664T183 705T214 722Q227 722 236 712T245 683Q224 663 212 642T179 576Q151 590 151 620ZM266 590T266 617Q266 637 274 662T297 704T328 722Q342 722 350
712T359 683Q341 666 331 648T303 596L293 576Q266 590 266 617Z" />
<glyph unicode="#" glyph-name="numbersign" horiz-adv-x="720" d="M170 -95T230 165Q202 164 180 162T138 159L85 155L19 150Q21 193 80 212T245 233L249 253Q250 259 251 266T254 281Q235 281 207 279T163 276Q149 274 121 272L55 267Q60 344 270 349Q276 381
304 524Q326 644 332 670Q336 690 347 702T393 722Q391 714 362 556Q355 519 346 468T325 351Q400 349 447 347Q468 448 493 585L509 670Q513 690 525 702T571 722Q567 705 558 654T543 576Q530 499 501 344Q552 342 575 340Q679 334 725 334Q689 304 661 296T600
288L491 287L485 260Q484 252 482 244T479 226L527 223Q633 217 687 217Q651 187 624 179T564 171Q499 171 468 170Q444 46 424 -22T372 -126T292 -162Q322 -127 351 -40T408 167H289Q263 39 244 -26T195 -126T114 -162Q170 -95 230 165ZM434 286Q350 286 312 284L302
233Q363 233 422 230L434 286Z" />
<glyph unicode="$" glyph-name="dollar" horiz-adv-x="565" d="M181 -122T204 -57Q122 -50 68 -11T13 98Q13 142 36 172T94 218T167 234Q135 201 119 165T102 96Q102 51 133 24T220 -11Q249 92 286 260Q239 285 210 305T160 357T140 431Q140 485 170 532T251 611T364
653Q364 676 382 696T430 720Q418 666 416 656Q481 655 508 627T536 547Q536 508 523 465T485 381Q463 385 451 399T438 430Q438 447 455 496Q462 517 468 538T474 574Q474 596 460 606T409 618L395 540L355 323Q403 299 433 278T485 225T506 146Q506 88 475 44T390
-25T271 -57Q251 -109 222 -135T150 -162Q181 -122 204 -57ZM317 404Q356 612 356 612Q294 597 256 551T218 455Q218 420 241 395T306 349L317 404ZM349 -2T385 32T421 116Q421 154 400 181T338 232Q302 42 286 -10Q349 -2 385 32Z" />
<glyph unicode="%" glyph-name="percent" horiz-adv-x="740" d="M136 -41T229 106T411 417T534 671Q540 687 570 703T626 720Q618 688 556 564T419 302T300 97Q241 6 192 -40T88 -87Q136 -41 229 106ZM158 339T134 372T109 453Q109 500 128 551T183 636T262 670Q305
670 332 640T359 561Q359 516 339 464T284 375T203 339Q158 339 134 372ZM231 391T250 419T280 488T292 566Q292 620 264 620Q238 620 219 592T190 524T180 451Q180 424 187 408T209 391Q231 391 250 419ZM502 -1T478 31T454 112Q454 159 473 210T527 295T607 329Q650
329 676 299T703 220Q703 175 683 123T628 35T548 -1Q502 -1 478 31ZM575 51T594 78T625 147T637 225Q637 250 630 265T608 280Q582 280 563 251T534 182T524 108Q524 82 532 67T553 51Q575 51 594 78Z" />
<glyph unicode="&amp;" glyph-name="ampersand" horiz-adv-x="675" d="M168 -87T120 -62T44 5T17 99Q17 159 50 215T141 310T272 359Q237 390 219 429T200 509Q200 563 227 611T305 689T418 719Q478 719 509 691T541 608Q541 571 529 534T497 474T458 450Q433
450 410 491Q496 561 496 622Q496 651 479 668T429 685Q364 685 327 632T290 501Q290 456 305 415T363 339Q293 328 240 291T157 202T127 99Q127 45 159 3T257 -39Q326 -39 390 3T497 114T549 258Q525 257 499 253T438 242Q422 240 413 238Q414 285 444 304T526
323Q558 323 610 315Q659 306 697 306Q683 276 671 268T644 260L588 259Q579 169 527 90T397 -38T231 -87Q168 -87 120 -62Z" />
<glyph unicode="&apos;" glyph-name="quotesingle" horiz-adv-x="156" d="M151 590T151 620Q151 640 160 664T183 705T214 722Q226 722 236 712T246 689L245 683Q225 664 214 645T189 598L179 576Q151 590 151 620Z" />
<glyph unicode="(" glyph-name="parenleft" horiz-adv-x="295" d="M150 -72T127 -31T91 69T77 192Q77 339 132 460T263 650T393 720Q272 626 212 481T151 181Q151 104 165 43T206 -58Q196 -78 178 -87Q150 -72 127 -31Z" />
<glyph unicode=")" glyph-name="parenright" horiz-adv-x="315" d="M-14 -87T-34 -53Q82 24 155 155T228 454Q228 529 210 593T139 725Q174 716 210 678T271 577T295 433Q295 295 241 176T116 -15T0 -87Q-14 -87 -34 -53Z" />
<glyph unicode="*" glyph-name="asterisk" horiz-adv-x="416" d="M351 446T291 531Q260 475 234 446T171 415Q191 443 207 473T226 509Q231 521 243 543Q194 543 165 552T127 589Q216 592 242 594Q197 661 197 696Q197 710 207 720T218 733Q222 726 245 683Q273
631 288 611Q303 658 329 690T394 731Q384 702 354 642Q341 621 330 595Q377 595 410 588T475 555L340 544Q365 510 377 483T390 404Q351 446 291 531Z" />
<glyph unicode="+" glyph-name="plus" horiz-adv-x="441" d="M179 58T179 148Q132 148 98 146T13 136Q24 169 66 183T177 199V240Q177 268 185 294T216 356Q228 260 230 199Q300 198 408 189Q350 148 282 148H231Q230 77 218 37T171 -7Q179 58 179 148Z" />
<glyph unicode="," glyph-name="comma" horiz-adv-x="216" d="M5 -72T5 -44Q5 -24 14 0T37 42T68 59Q81 59 90 49T100 26Q81 5 70 -15T47 -57T32 -88Q5 -72 5 -44Z" />
<glyph unicode="-" glyph-name="hyphen" horiz-adv-x="507" d="M67 180T117 192T214 205Q257 204 321 202T430 198Q420 175 385 160T308 144Q299 144 263 146Q217 150 183 150Q150 150 112 147T55 142Q67 180 117 192Z" />
<glyph unicode="." glyph-name="period" horiz-adv-x="242" d="M50 -10T39 1T28 28Q28 45 49 63T91 81Q104 81 114 74T124 50Q124 41 118 27T100 1T72 -10Q50 -10 39 1Z" />
<glyph unicode="/" glyph-name="slash" horiz-adv-x="355" d="M46 -57T329 671Q335 688 367 703T435 719Q410 653 140 24Q103 -63 47 -112T-63 -162Q46 -57 329 671Z" />
<glyph unicode="0" glyph-name="zero" horiz-adv-x="660" d="M171 -87T117 -11T63 185Q63 299 109 424T241 635T436 720Q535 720 594 647T653 442Q653 319 603 196T465 -7T273 -87Q171 -87 117 -11ZM359 -39T422 44T524 250T562 481Q562 572 532 625T436 679Q353
679 291 594T196 387T163 168Q163 73 196 17T287 -39Q359 -39 422 44Z" />
<glyph unicode="1" glyph-name="one" horiz-adv-x="392" d="M38 -87T13 -73T-34 -31Q-24 -31 -10 -33L18 -34Q52 -34 122 -24Q149 38 172 146T222 401Q244 519 254 564Q203 530 180 519T142 507Q113 507 113 548Q146 564 214 614T339 719Q352 707 352 680Q352
665 348 648T342 626Q332 587 330 572Q301 385 271 246T187 -15Q211 -13 222 -13Q265 -13 292 -28T329 -84Q280 -78 237 -78Q215 -78 132 -83Q82 -87 72 -87Q38 -87 13 -73Z" />
<glyph unicode="2" glyph-name="two" horiz-adv-x="599" d="M403 -87T358 -73T242 -32Q235 -29 192 -13Q123 -54 73 -54Q38 -54 16 -37T-6 7Q-6 60 78 60Q119 60 187 47Q250 101 311 187T412 367T452 541Q452 609 423 644T344 679Q301 679 271 653T225 586T210
501Q210 458 229 414L210 416Q177 419 155 442T133 512Q133 566 161 614T241 691T355 720Q442 720 489 665T537 523Q537 444 498 353T393 177T254 33Q403 0 460 0Q484 0 501 6T553 31Q537 -31 510 -59T438 -87Q403 -87 358 -73ZM95 -13T132 8Q95 20 69 20Q53 20
46 15T39 4Q40 -3 49 -8T71 -13Q95 -13 132 8Z" />
<glyph unicode="3" glyph-name="three" horiz-adv-x="542" d="M138 -87T98 -65T38 -9T19 62Q19 105 42 139T108 173Q122 173 143 169Q125 154 113 127T101 72Q101 44 115 18T153 -24T209 -41Q248 -41 284 -15T344 59T367 164Q367 228 336 279T232 349Q285 372
326 413T389 501T412 591Q412 636 386 657T322 679Q278 679 245 653T211 584Q211 552 231 515Q225 502 211 491T182 480Q161 480 148 507T135 568Q135 614 163 648T237 701T334 720Q378 720 417 704T480 655T504 579Q504 538 484 494T427 414T344 361Q417 336 451
282T486 169Q486 106 449 47T347 -49T201 -87Q138 -87 98 -65Z" />
<glyph unicode="4" glyph-name="four" horiz-adv-x="508" d="M296 -84T272 -70T247 -33Q247 -22 258 42T291 230Q255 234 221 234Q185 234 100 229T3 216Q3 239 15 256T53 297Q344 567 453 720Q478 708 478 685Q478 661 458 630Q435 536 392 296Q438 296 460 298T508
307Q482 272 448 251T380 229Q370 173 356 71T341 -87Q296 -84 272 -70ZM158 301T209 301Q246 301 306 299Q337 446 359 519Q366 526 262 431Q158 337 119 298Q158 301 209 301Z" />
<glyph unicode="5" glyph-name="five" horiz-adv-x="513" d="M129 -87T88 -65T28 -9T9 61Q9 105 32 139T97 173Q112 173 133 169Q114 154 103 127T91 69Q91 24 117 -8T194 -41Q244 -41 281 -10T339 71T359 171Q359 237 325 280T223 323Q186 323 118 310Q126 364
146 439T200 635L223 715Q280 701 338 701Q377 701 414 706T504 721Q511 693 511 683Q511 643 471 625T377 606Q352 606 303 613Q278 618 263 618Q247 618 231 568T191 424Q178 369 174 357Q217 365 256 365Q361 365 416 312T472 169Q472 99 437 40T339 -53T195
-87Q129 -87 88 -65Z" />
<glyph unicode="6" glyph-name="six" horiz-adv-x="592" d="M168 -87T113 -18T58 168Q58 283 107 413T247 631T454 720Q502 720 531 704T561 656Q561 637 548 623T501 600Q503 620 503 633Q503 657 492 670T451 683Q392 683 340 632T249 499T188 327Q222 353 265
367T354 381Q440 381 497 331T554 181Q554 106 520 45T424 -51T282 -87Q168 -87 113 -18ZM335 -41T372 -8T429 77T450 185Q450 259 414 296T316 333Q238 333 201 280T164 145Q164 74 192 17T287 -41Q335 -41 372 -8Z" />
<glyph unicode="7" glyph-name="seven" horiz-adv-x="439" d="M108 -87T95 -74T82 -35Q82 36 210 292Q138 290 68 282Q69 328 116 344T247 361Q270 396 310 465Q386 592 405 622Q381 622 362 621T329 619Q290 616 254 616Q135 616 135 670Q135 691 152 719Q265
699 346 699Q459 699 540 725Q469 633 418 551T315 357Q350 353 393 353Q432 353 458 360Q433 326 410 309T360 292H285Q247 205 223 138T199 24Q199 -7 215 -18Q198 -53 172 -70T125 -87Q108 -87 95 -74Z" />
<glyph unicode="8" glyph-name="eight" horiz-adv-x="561" d="M168 -87T125 -61T62 4T43 84Q43 129 66 166T122 233T212 302Q221 309 233 317T259 337Q202 395 172 443T142 552Q142 608 170 646T242 701T338 719Q413 719 459 681T505 569Q505 503 469 451T364
348Q409 303 435 273T479 205T497 125Q497 63 461 15T364 -60T236 -87Q168 -87 125 -61ZM378 429T405 472T432 568Q432 620 406 649T340 678Q301 678 269 650T236 564Q236 516 259 475T327 387Q378 429 405 472ZM282 -34T317 -15T375 40T398 120Q398 168 373 208T297
299Q239 259 204 230T144 164T120 85Q120 49 138 22T184 -19T245 -34Q282 -34 317 -15Z" />
<glyph unicode="9" glyph-name="nine" horiz-adv-x="598" d="M166 -87T136 -70T105 -21Q105 19 163 36Q163 -2 173 -26T217 -50Q276 -50 326 1T411 134T465 306Q432 281 389 267T301 253Q243 253 197 276T123 347T96 460Q96 536 128 595T220 687T357 720Q477 720
533 642T590 441Q590 324 544 201T412 -5T215 -87Q166 -87 136 -70ZM412 301T447 346T483 471Q483 548 453 611T353 674Q307 674 272 643T218 562T199 457Q199 380 237 341T341 301Q412 301 447 346Z" />
<glyph unicode=":" glyph-name="colon" horiz-adv-x="251" d="M112 228T100 236T88 261Q88 279 109 293T153 308Q186 308 186 277Q186 260 168 244T128 228Q112 228 100 236ZM56 -10T44 -2T32 23Q32 41 52 55T97 70Q130 70 130 39Q130 22 112 6T72 -10Q56 -10 44 -2Z" />
<glyph unicode=";" glyph-name="semicolon" horiz-adv-x="250" d="M111 229T100 237T88 263Q88 281 108 295T152 310Q187 310 187 279Q187 262 169 246T128 229Q111 229 100 237ZM23 -73T23 -43Q23 -22 32 4T57 49T90 67Q103 67 113 57T125 33Q101 7 86 -19T51
-88Q23 -73 23 -43Z" />
<glyph unicode="&lt;" glyph-name="less" horiz-adv-x="328" d="M178 44T140 65T69 116T30 165Q83 184 136 228T225 323Q230 319 234 309T239 287Q239 251 194 217T80 147Q112 126 145 110T244 70Q220 44 202 44Q178 44 140 65Z" />
<glyph unicode="=" glyph-name="equal" horiz-adv-x="517" d="M62 206Q72 234 120 244T249 255Q335 255 434 244Q375 204 312 204H215Q168 204 140 202T70 194L62 206ZM64 118Q75 146 123 156T251 167Q337 167 436 156Q378 116 314 116H218Q171 116 143 114T73
106L64 118Z" />
<glyph unicode="&gt;" glyph-name="greater" horiz-adv-x="337" d="M103 44T91 52T72 70Q137 94 168 109T232 147Q161 182 114 217T66 287Q66 303 77 320Q111 277 170 232T282 166Q277 145 247 116T178 66T116 44Q103 44 91 52Z" />
<glyph unicode="?" glyph-name="question" horiz-adv-x="462" d="M239 132T231 142T223 175Q223 226 246 267T316 366Q364 424 388 468T413 569Q413 621 392 650T336 680Q302 680 268 653T211 579T189 481Q189 449 200 413Q154 420 136 441T118 497Q118 555 145
606T223 688T339 720Q408 720 448 684T489 582Q489 528 466 489T394 396Q352 349 329 316T292 237Q286 218 280 181Q274 143 265 119Q239 132 231 142ZM205 -10T194 -2T182 23Q182 42 203 56T247 71Q263 71 272 64T282 42Q282 22 264 6T222 -10Q205 -10 194 -2Z"
/>
<glyph unicode="@" glyph-name="at" horiz-adv-x="613" d="M166 -121T115 -92T38 -15T13 92Q13 168 54 238T170 351T343 395Q417 395 469 369T546 301T572 210Q572 161 548 114T482 36T391 5Q351 5 334 25T316 79Q280 37 249 15T188 -8Q160 -8 141 11T121 64Q121
111 156 169T244 269T351 310Q387 310 410 292T433 243Q433 225 423 216T393 204Q418 195 418 180Q418 167 398 136Q385 114 379 99T372 71Q372 46 402 46Q432 46 461 69T508 128T526 203Q526 241 507 275T446 331T344 353Q262 353 198 315T99 215T63 89Q63 17
109 -34T252 -85Q373 -85 470 3L484 -15Q440 -63 379 -92T242 -121Q166 -121 115 -92ZM220 35T265 73T346 159T383 233Q383 255 378 267T352 279Q316 279 278 241T213 149T187 61Q187 35 202 35Q220 35 265 73Z" />
<glyph unicode="A" glyph-name="A" horiz-adv-x="631" d="M0 -63T0 -25Q0 13 40 92T147 275Q87 279 0 279Q24 344 116 344Q136 344 190 338Q302 500 399 611T528 722Q554 722 596 683Q576 668 538 559T470 319T440 108Q440 68 448 49T475 29Q500 29 534 65T608
178L626 159Q594 74 544 23T440 -29Q394 -29 373 11T352 126Q352 175 365 250Q314 258 222 269Q129 104 46 -87Q0 -63 0 -25ZM393 383T422 473T481 634Q437 599 378 518T254 326L329 310Q359 302 375 299Q393 383 422 473Z" />
<glyph unicode="B" glyph-name="B" horiz-adv-x="650" d="M103 -87T73 -67T41 -1Q41 9 52 9Q58 9 79 5T150 0Q264 0 356 31T502 114T555 222Q555 292 482 316T296 341L222 340Q207 289 196 246T175 171Q146 62 135 24Q105 24 83 40T61 79Q61 97 71 125L75 137L88
177Q199 523 278 676Q228 665 175 636Q170 634 161 630T148 625Q138 625 123 639T108 664Q177 692 231 706T360 720Q459 720 535 686T611 557Q611 480 551 435T402 368Q515 353 566 307T617 207Q617 116 542 49T360 -52T165 -87Q103 -87 73 -67ZM362 383T448 427T535
565Q535 685 347 685Q291 577 232 378Q362 383 448 427Z" />
<glyph unicode="C" glyph-name="C" horiz-adv-x="570" d="M177 -87T128 -52T56 39T32 160Q32 289 95 419T258 634T457 719Q504 719 532 697T561 628Q561 588 543 536T496 448T438 411Q413 411 397 442Q435 484 470 542T506 636Q506 675 461 675Q391 675 313 590T182
381T129 151Q129 71 165 16T274 -39Q326 -39 380 -10T479 69T551 175L577 158Q520 50 436 -18T250 -87Q177 -87 128 -52Z" />
<glyph unicode="D" glyph-name="D" horiz-adv-x="687" d="M151 -87T122 -77T70 -37Q75 7 109 126T184 370T241 537Q253 569 274 601T326 634Q343 634 364 620Q304 483 244 293T151 -44Q168 -50 201 -50Q304 -50 395 29T542 226T597 450Q597 566 539 622T384 679Q319
679 267 656T186 591T156 499Q156 472 165 451Q124 451 105 468T85 515Q85 562 130 610T251 689T417 720Q555 720 620 643T686 440Q686 301 614 180T427 -14T191 -87Q151 -87 122 -77Z" />
<glyph unicode="E" glyph-name="E" horiz-adv-x="533" d="M147 -87T98 -62T23 6T-4 101Q-4 160 29 215T121 310T251 359Q216 390 198 429T179 510Q179 563 206 611T283 689T396 719Q457 719 490 690T523 604Q523 567 510 531T476 473T437 450Q412 450 389 491Q477
563 477 625Q477 654 458 670T405 686Q362 686 331 660T284 591T268 501Q268 454 285 412T342 339Q272 328 219 291T136 202T106 99Q106 65 119 33T162 -20T236 -42Q289 -42 342 -12T441 68T513 175L540 158Q481 47 396 -20T209 -87Q147 -87 98 -62Z" />
<glyph unicode="F" glyph-name="F" d="M138 -84T120 -64T102 -6Q102 46 128 130T195 311Q98 302 73 298Q80 377 220 381Q281 549 329 647Q313 649 293 649Q206 649 173 623T140 540Q140 516 144 496T160 450Q73 464 73 537Q73 588 111 628T215 692T363 715Q393
715 428 712T473 708Q532 701 568 701Q614 701 669 716Q623 665 593 646T531 627Q512 627 468 634Q407 642 387 643Q369 600 345 528T297 380Q321 378 340 376T374 373Q444 365 484 364Q468 342 450 333T397 321T278 316Q261 255 237 175Q210 82 199 21T188 -87Q138
-84 120 -64Z" />
<glyph unicode="G" glyph-name="G" horiz-adv-x="585" d="M447 -88T434 -65T420 -9Q420 4 421 11Q340 -87 238 -87Q181 -87 134 -57T60 30T32 164Q32 290 95 420T257 634T454 719Q515 719 544 686T573 601Q573 565 560 530T526 473T479 450Q466 450 456 457T437
483Q452 493 471 519T503 575T517 628Q517 649 504 662T463 675Q390 675 312 590T181 381T128 153Q128 94 146 51T194 -16T262 -39Q314 -39 357 4T428 114T461 246Q412 256 354 256Q336 256 288 254Q297 289 316 305T368 322Q392 322 417 316T480 296Q522 280 552
274Q508 138 497 93T485 1L486 -46Q488 -74 488 -93Q447 -88 434 -65Z" />
<glyph unicode="H" glyph-name="H" horiz-adv-x="663" d="M84 -11T106 74T176 306Q121 301 111 300Q111 330 133 347T198 374Q203 391 211 411L281 616Q282 618 287 633T293 664Q293 672 290 675T280 678Q254 678 228 649T183 578T165 505Q165 489 175 460Q135
460 116 477T96 526Q96 569 130 614T215 690T306 720Q336 720 349 705T362 665Q362 648 354 622L281 382Q297 383 331 383Q421 383 506 375Q566 577 604 665Q614 687 629 704T676 721Q655 664 625 564T571 370L606 369Q640 367 658 367Q630 339 607 330T559 321Q530
198 516 107T501 -34Q501 -60 506 -87Q455 -82 437 -63T418 6Q418 51 433 121T490 320Q411 320 357 319T259 313Q257 307 240 250T156 -19Q146 -52 121 -69T72 -87Q84 -11 106 74Z" />
<glyph unicode="I" glyph-name="I" horiz-adv-x="503" d="M-13 -30T30 -12T154 6Q183 68 208 163T270 423Q274 440 292 523T326 649Q254 648 202 642T89 625Q99 675 151 697T311 719Q431 719 601 697Q571 668 543 659T485 650Q409 650 377 649L371 619L346 480Q331
394 314 302T284 164Q254 44 212 4Q262 0 288 -3Q380 -13 438 -14Q379 -70 303 -70Q164 -70 110 -73T-18 -88Q-13 -30 30 -12Z" />
<glyph unicode="J" glyph-name="J" horiz-adv-x="440" d="M53 -86T18 -58T-18 49Q-18 115 4 168T64 221Q78 221 103 210Q65 118 65 49Q65 9 81 -14T127 -37Q152 -37 172 -15T212 61Q246 158 290 344T356 654Q286 653 239 648T142 631Q149 678 191 698T322 718Q377
718 441 711T552 696Q537 672 512 664T461 655L403 654Q416 637 416 615Q415 588 396 483T345 260T278 63Q241 -19 198 -52T104 -86Q53 -86 18 -58Z" />
<glyph unicode="K" glyph-name="K" horiz-adv-x="637" d="M505 -87T450 -28T338 115T242 275L151 -19Q141 -51 113 -60T43 -69Q61 -30 78 17T131 168Q226 446 288 616Q289 619 294 633T300 659Q300 678 280 678Q251 678 223 649T178 578T161 506Q161 483 171 460Q130
460 111 477T91 525Q91 568 126 613T211 689T302 720Q357 720 357 662Q357 643 350 622L276 382Q288 389 345 433Q430 499 503 574T625 723Q636 713 640 698T645 669Q645 601 533 507T276 320Q329 238 366 187T461 79T604 -45Q595 -62 577 -74T542 -87Q505 -87
450 -28Z" />
<glyph unicode="L" glyph-name="L" horiz-adv-x="610" d="M396 -87T345 -69T213 -17L165 4Q111 -53 49 -53Q16 -53 -10 -38T-50 -2T-64 40Q-64 62 -45 76T18 90Q67 90 144 70Q167 112 188 170T238 317L263 394Q214 410 187 440T159 503Q159 535 182 562T243 589Q223
563 223 521Q223 490 237 467T275 429Q320 565 371 642T496 720Q538 720 572 695T607 612Q607 561 579 508T490 417T341 380Q305 271 273 191T204 54Q294 27 357 12T469 -4Q492 -4 512 1T557 18Q537 -37 508 -62T437 -87Q396 -87 345 -69ZM406 417T448 455T513
545T537 636Q537 681 504 681Q464 681 430 614T352 413Q406 417 448 455ZM62 -16T77 -7T113 24Q42 50 8 50Q-10 50 -19 44T-28 26Q-28 9 -8 -3T39 -16Q62 -16 77 -7Z" />
<glyph unicode="M" glyph-name="M" horiz-adv-x="806" d="M7 -51T111 168Q264 500 316 614Q325 634 325 647Q325 669 296 669Q257 669 230 645T190 583T176 508Q176 487 180 460Q147 460 128 488T109 551Q109 592 140 631T219 695T315 720Q354 720 379 699T418
623T432 472Q432 402 421 255Q413 147 413 117Q443 207 498 318T607 523T693 664Q709 689 720 698T748 708Q762 708 792 697Q772 654 740 522T685 245T661 10Q661 -21 664 -36T672 -65T681 -87Q638 -87 616 -75T586 -35T578 43Q578 143 599 255T663 529Q600 439
525 274T414 3L407 1Q400 -2 393 -2Q360 -2 350 36T339 157Q339 208 343 328Q347 454 347 512L346 571L243 329Q169 153 133 74T64 -46T-5 -87Q7 -51 111 168Z" />
<glyph unicode="N" glyph-name="N" horiz-adv-x="674" d="M79 -14Q167 267 268 616Q275 644 275 655Q275 663 273 666T262 669Q235 669 210 642T170 576T154 507Q154 483 164 460Q122 460 103 477T84 525Q84 568 119 614T203 690T291 720Q334 720 360 679T399
576T429 407Q447 280 456 223T475 114L513 273Q552 442 577 534T626 668Q656 721 707 721Q671 628 624 463T544 143T511 -87Q472 -87 449 -69T415 -1Q403 50 332 443Q324 487 319 514T312 555Q229 253 191 130T124 -40T56 -87L79 -14Z" />
<glyph unicode="O" glyph-name="O" horiz-adv-x="655" d="M183 -87T135 -57T60 31T32 164Q32 290 95 420T261 634T470 719Q511 719 538 691Q522 693 509 693Q425 693 338 609T193 399T136 158Q136 72 170 17T277 -39Q364 -39 436 44T550 250T592 486Q592 541 582
585T547 630Q526 630 499 595T448 509T417 419Q354 432 354 477Q354 512 387 558T466 637T549 671Q602 671 623 604T644 450Q644 290 581 168T425 -21T242 -87Q183 -87 135 -57Z" />
<glyph unicode="P" glyph-name="P" horiz-adv-x="559" d="M86 -87T60 -71T34 -30Q34 -13 47 26Q124 262 171 394T286 677Q235 665 181 637Q157 625 152 625Q143 625 129 639T114 664Q248 720 349 720Q415 720 479 697T586 630T628 524Q628 428 551 376T383 307T228
289H222L166 88Q145 8 117 -87Q86 -87 60 -71ZM311 325T382 351T499 425T545 540Q545 609 492 646T363 685Q303 569 231 320Q311 325 382 351Z" />
<glyph unicode="Q" glyph-name="Q" horiz-adv-x="728" d="M516 -119T477 -98T390 -39Q338 -64 283 -64Q236 -64 210 -48T174 -12T164 26Q164 50 184 69T246 88Q284 88 319 73T411 26Q465 75 506 158T569 333T591 496Q591 581 558 630T454 679Q363 679 289 598T172
394T130 157Q130 103 142 57Q89 57 67 97T44 201Q44 326 98 446T247 643T454 720Q557 720 617 654T677 472Q677 391 648 302T569 133T455 2Q533 -37 598 -37Q620 -37 632 -34T647 -29Q657 -25 669 -22Q640 -119 559 -119Q516 -119 477 -98ZM304 -34T354 -10Q319
19 291 34T235 50Q215 50 205 42T194 19Q194 -1 211 -17T265 -34Q304 -34 354 -10Z" />
<glyph unicode="R" glyph-name="R" horiz-adv-x="616" d="M468 -121T413 -59T303 92T209 259Q191 197 149 47L111 -88Q80 -88 56 -72T31 -30Q31 -18 37 1T45 25Q122 259 165 376T290 679Q236 668 176 636Q170 634 161 630T148 625Q139 625 124 639T108 664Q168
688 227 704T349 720Q415 720 477 700T581 636T622 527Q622 441 554 393T400 328T243 309L269 268Q317 191 353 140T441 34T566 -77Q562 -96 543 -108T505 -121Q468 -121 413 -59ZM359 348T449 400T539 547Q539 618 488 650T360 685Q304 573 232 339Q359 348 449
400Z" />
<glyph unicode="S" glyph-name="S" horiz-adv-x="567" d="M172 -87T120 -67T36 -5T4 96Q4 170 50 202T158 235Q126 202 110 166T93 96Q93 42 134 4T250 -34Q297 -34 339 -19T408 28T435 101Q435 138 414 167T363 217T280 266Q225 296 191 319T134 375T111 453Q111
510 148 573T252 678T402 720Q527 720 527 615Q527 564 503 502T447 391Q403 400 403 442Q403 461 410 485T432 544Q446 582 453 604T460 644Q460 663 449 672T407 682Q347 682 297 648T218 566T188 476Q188 446 206 422T251 381T326 338Q385 306 420 282T481 220T507
129Q507 63 468 14T365 -61T233 -87Q172 -87 120 -67Z" />
<glyph unicode="T" glyph-name="T" horiz-adv-x="540" d="M137 -87T135 -10Q135 16 144 51T170 137Q203 237 240 330T333 554L369 639Q270 638 208 633T76 615Q82 674 150 697T341 720Q422 720 542 708Q647 698 696 698Q656 660 590 650T430 639Q348 437 268 143Q245
58 238 21T230 -58Q230 -72 233 -87Q137 -87 135 -10Z" />
<glyph unicode="U" glyph-name="U" horiz-adv-x="750" d="M551 -99T525 -67T498 13L500 65Q417 -88 287 -88Q220 -88 183 -48T145 64Q145 112 159 167T203 314Q233 407 249 470T265 588Q265 678 211 678Q178 678 155 651T121 587T109 523Q109 492 122 459Q76 459
55 480T33 536Q33 577 60 620T133 691T235 719Q294 719 322 685T351 590Q351 541 336 478T291 322Q261 226 248 172T234 75Q234 25 254 -4T317 -34Q368 -34 410 7T480 108T522 227Q577 452 619 585T700 719Q710 719 727 709T764 680Q745 666 699 545T616 280T579
44Q579 2 588 -19T617 -49T673 -58Q662 -76 637 -87T588 -99Q551 -99 525 -67Z" />
<glyph unicode="V" glyph-name="V" horiz-adv-x="669" d="M210 -87T180 -67T149 2Q149 30 159 67T191 174Q228 288 248 377T269 559Q269 617 256 647T208 678Q176 678 155 654T123 594T112 525Q112 489 127 460Q80 460 57 482T34 540Q34 581 60 623T131 692T228
720Q295 720 330 671T366 535Q366 468 348 395T295 209Q267 121 255 75T243 -8Q243 -26 248 -34T267 -42Q323 -42 407 57T553 292T616 530Q616 627 549 649Q562 677 582 691T620 706Q638 706 655 690T684 645T695 576Q695 470 619 310T436 32T245 -87Q210 -87 180
-67Z" />
<glyph unicode="W" glyph-name="W" horiz-adv-x="953" d="M213 -87T181 -69T149 2Q149 26 158 66T193 186L206 228Q238 331 253 401T269 554Q269 618 256 649T208 680Q163 680 138 635T112 533Q112 489 127 460Q80 460 57 482T34 540Q34 581 60 623T131 692T227
720Q294 720 330 670T366 528Q366 465 350 396T301 222Q298 211 294 200T286 176Q266 119 255 76T243 -8Q243 -27 247 -34T265 -42Q315 -42 379 38T495 227T557 404Q592 404 614 384T637 343Q637 324 600 238Q566 158 547 101T527 -4Q527 -25 532 -33T553 -42Q608
-42 691 58T838 295T901 530Q901 581 883 605T833 641Q850 669 870 683T908 697Q925 697 941 684T969 642T980 575Q980 469 904 310T720 32T523 -87Q484 -87 459 -64T433 -1Q433 20 443 50Q334 -87 246 -87Q213 -87 181 -69Z" />
<glyph unicode="X" glyph-name="X" horiz-adv-x="706" d="M49 -70T59 -50T97 -3Q167 70 210 118T327 257Q313 380 309 512Q306 584 303 616T288 666T251 684Q220 684 198 661T165 602T154 532Q154 497 167 468Q121 468 100 488T78 544Q78 586 105 627T178 696T273
723Q336 723 366 679T404 576T413 431L415 370Q550 552 637 728Q646 722 655 706T665 675Q665 636 596 532T417 294Q425 152 448 62T513 -29Q543 -29 584 22T689 182L711 164Q666 76 633 25T564 -53T488 -80Q411 -80 378 -4T333 191Q248 91 166 5T45 -112Q49 -70
59 -50Z" />
<glyph unicode="Y" glyph-name="Y" horiz-adv-x="706" d="M222 -187T182 -161T142 -88Q142 -56 162 -32T218 1Q207 -49 207 -67Q207 -108 229 -130T298 -152Q370 -152 413 -101T475 18T513 187Q527 263 534 287Q492 219 441 182T325 145Q262 145 232 180T202 273Q202
306 210 344T235 447Q250 504 258 540T266 606Q266 678 212 678Q178 678 155 653T121 590T109 515Q109 500 111 489T121 459Q75 459 54 480T32 536Q32 577 59 620T132 691T234 720Q291 720 321 689T351 610Q351 589 345 559T323 475Q305 409 296 369T287 293Q287
199 358 199Q422 199 477 267T567 439Q573 455 580 479T590 515Q621 616 643 668T693 720Q705 720 724 710T761 682Q724 625 703 576T661 450T596 193Q569 84 536 4T441 -132T286 -187Q222 -187 182 -161Z" />
<glyph unicode="Z" glyph-name="Z" horiz-adv-x="680" d="M442 -87T390 -68T263 -15L229 0Q154 -54 96 -54Q65 -54 42 -41T5 -8T-8 33Q-8 58 12 74T77 90Q125 90 218 65Q303 150 406 314Q342 311 241 297Q243 344 285 363T399 382Q415 382 445 380Q522 511 557
600Q523 610 477 627Q400 655 353 666T275 678Q223 678 194 648T165 544Q166 539 168 523T174 501Q100 514 100 580Q100 648 152 684T305 720Q358 720 404 711T513 685Q563 671 598 664T667 657Q700 657 717 661Q682 626 654 612Q606 500 530 373Q557 371 570 369Q624
365 644 365Q627 342 612 333T573 320T496 316Q388 146 285 47Q364 23 423 10T524 -4Q569 -4 614 18Q592 -40 564 -63T490 -87Q442 -87 390 -68ZM104 -21T122 -11T171 23Q132 38 108 45T65 53Q45 53 35 46T25 27Q25 10 43 -5T88 -21Q104 -21 122 -11Z" />
<glyph unicode="[" glyph-name="bracketleft" horiz-adv-x="438" d="M189 -87T137 -80T48 -65Q55 -53 62 -22T94 141T158 496Q178 612 215 658T295 704L325 703Q353 701 371 701Q439 701 482 725Q480 664 451 646T367 627Q339 627 304 634T259 643Q237 578 218
481T169 212Q137 25 125 -18Q236 -17 279 -14T370 3Q370 -44 338 -65T233 -87Q189 -87 137 -80Z" />
<glyph unicode="\" glyph-name="backslash" horiz-adv-x="604" d="M436 -158T402 -106T342 39T267 337Q216 559 173 724Q199 724 223 708T255 671Q278 614 305 511T373 235Q419 44 445 -51T488 -167Q436 -158 402 -106Z" />
<glyph unicode="]" glyph-name="bracketright" horiz-adv-x="457" d="M20 -2T132 -2Q152 -2 204 -6Q219 -8 255 -10Q279 60 303 179T357 461Q383 603 396 663Q294 663 236 659T125 640Q125 688 157 705T256 722Q341 722 443 701Q438 643 409 449T357 136Q347 84
335 43T294 -34T221 -69Q149 -69 101 -72T14 -88Q20 -2 132 -2Z" />
<glyph unicode="^" glyph-name="asciicircum" horiz-adv-x="210" d="M171 431T155 448T114 488Q59 470 14 440Q1 448 1 464Q1 482 22 502T72 536T115 550Q131 550 153 532T193 489T210 444Q210 419 185 406Q171 431 155 448Z" />
<glyph unicode="_" glyph-name="underscore" horiz-adv-x="887" d="M6 -18T84 1T316 21Q389 21 462 18T599 10Q692 3 756 2Q707 -30 663 -45T586 -60Q508 -60 352 -53Q324 -52 297 -51T247 -50Q155 -50 110 -54T-2 -73Q6 -18 84 1Z" />
<glyph unicode="`" glyph-name="grave" horiz-adv-x="138" d="M64 461T-4 513Q-3 532 6 542T28 552Q47 552 73 530T118 480T138 439Q138 430 131 419T113 403Q64 461 -4 513Z" />
<glyph unicode="a" glyph-name="a" horiz-adv-x="444" d="M21 -47T-2 -24T-26 41Q-26 99 16 171T125 293T257 343Q301 343 330 321T360 263Q360 217 303 215Q339 204 339 185Q339 178 332 164T316 135Q300 109 291 90T282 53Q282 38 289 28T312 17Q340 17 383
56T468 173L487 154Q450 71 395 21T284 -30Q244 -30 223 -4T201 57Q156 3 124 -22T56 -47Q21 -47 -2 -24ZM112 4T158 54T264 186L284 213Q287 218 292 218L296 217Q301 233 301 254Q301 306 259 306Q215 306 167 259T87 147T54 36Q54 19 59 12T77 4Q112 4 158 54Z"
/>
<glyph unicode="b" glyph-name="b" horiz-adv-x="409" d="M49 -73T19 -38T-11 60Q-11 154 49 311T186 591T307 714Q326 714 336 693T348 645Q348 597 315 520T229 371T116 266Q102 240 87 181T71 66Q71 22 83 -4T123 -31Q149 -31 179 -8T228 51Q192 71 173 106T153
183Q153 231 179 261T244 292Q278 292 298 267T318 192Q318 131 288 66L306 65Q352 65 382 97T435 176L450 155Q423 93 387 64T293 34Q279 34 272 35Q241 -14 199 -43T105 -73Q49 -73 19 -38ZM176 366T214 425T276 540T301 620Q288 615 256 570T190 460T135 329Q176
366 214 425ZM263 125T263 169Q263 203 255 221T234 239Q221 239 212 221T202 178Q202 153 212 127T245 84Q263 125 263 169Z" />
<glyph unicode="c" glyph-name="c" horiz-adv-x="333" d="M59 -56T27 -23T-6 76Q-6 140 26 201T111 300T216 338Q256 338 275 318T295 268Q295 238 281 213T245 187Q226 187 214 206Q226 214 236 234T246 281Q246 298 227 298Q195 298 158 260T96 168T71 70Q71
38 87 17T142 -5Q180 -5 221 17T299 79T356 173L376 155Q352 95 310 47T215 -28T113 -56Q59 -56 27 -23Z" />
<glyph unicode="d" glyph-name="d" horiz-adv-x="491" d="M36 -30T10 -7T-16 60Q-16 116 27 189T136 315T268 367Q317 367 317 335Q317 319 305 312Q297 323 270 323Q219 323 173 279T99 174T70 74Q70 54 78 43T102 32Q130 32 167 64T244 157T315 297Q393 497
447 608T541 720Q552 720 560 712T569 690Q569 673 554 638T501 528Q428 380 385 270T342 69Q342 45 346 37T362 28Q396 28 440 68T517 176L536 160Q503 78 445 26T330 -26Q291 -26 274 -2T257 61Q257 84 265 126Q216 55 164 13T69 -30Q36 -30 10 -7Z" />
<glyph unicode="e" glyph-name="e" horiz-adv-x="341" d="M53 -44T18 -10T-17 77Q-17 135 22 202T122 315T242 361Q273 361 294 346T315 294Q315 246 278 204T183 134T63 100Q61 90 61 77Q61 51 75 25T138 -1Q199 -1 262 48T365 172L385 156Q345 66 271 11T116
-44Q53 -44 18 -10ZM110 141T154 166T230 227T261 299Q261 310 257 314T244 318Q215 318 181 291T117 221T74 137Q110 141 154 166Z" />
<glyph unicode="f" glyph-name="f" horiz-adv-x="330" d="M-25 -280T-45 -259T-66 -184Q-66 -80 8 144T184 544T370 720Q412 720 412 669Q412 614 373 544T270 408T139 296L123 256Q133 252 139 242T148 221Q158 167 166 138T190 91T236 73Q269 73 295 97T353
172L375 156Q345 95 306 64T231 33Q197 33 160 60Q159 -21 136 -100T75 -230T-1 -280Q-25 -280 -45 -259ZM225 420T269 474T336 570T360 631Q360 639 352 639Q317 639 268 564T168 366Q225 420 269 474ZM45 -218T66 -170T103 -55T119 60Q119 88 113 110T90 162Q54
54 33 -35T11 -175Q11 -218 27 -218Q45 -218 66 -170Z" />
<glyph unicode="g" glyph-name="g" horiz-adv-x="403" d="M22 -280T2 -264T-18 -216Q-18 -177 11 -145T80 -91T183 -38Q208 25 223 87Q142 -15 71 -15Q31 -15 8 13T-16 87Q-16 154 28 214T137 310T261 347Q292 347 308 336T325 309Q325 299 319 291T309 282Q299
292 289 296T264 300Q215 300 169 264T95 176T66 83Q66 63 74 53T97 42Q124 42 163 77T242 167Q253 223 268 247T311 272Q324 272 340 268Q340 242 318 164T265 2Q315 23 361 67T428 170L446 152Q424 89 368 38T252 -40Q206 -151 157 -215T50 -280Q22 -280 2 -264ZM66
-234T98 -197T164 -85Q99 -117 63 -145T27 -206Q27 -219 32 -226T46 -234Q66 -234 98 -197Z" />
<glyph unicode="h" glyph-name="h" horiz-adv-x="494" d="M25 -38T15 -6T5 75Q5 165 61 319T191 594T310 714Q330 714 341 692T353 643Q353 597 320 520T232 372T119 266Q85 176 85 96L86 75Q88 78 95 97Q115 149 137 191T197 269T287 306Q333 306 354 277T375
207Q375 184 369 164T351 113Q349 109 344 95T336 69T333 48Q333 16 360 16Q382 16 412 38T471 97T521 177L537 160Q500 78 448 27T335 -24Q298 -24 278 -5T257 46Q257 66 271 118Q286 167 286 191Q286 233 250 233Q214 233 190 196T134 85Q109 23 90 -7T46 -38Q25
-38 15 -6ZM181 367T219 426T281 540T305 620Q293 615 262 572T197 463T140 330Q181 367 219 426Z" />
<glyph unicode="i" glyph-name="i" horiz-adv-x="244" d="M177 421T163 431T148 460Q148 483 173 500T228 518Q271 518 271 481Q271 460 248 441T198 421Q177 421 163 431ZM38 -30T15 -5T-8 59Q-8 99 14 167T71 288T141 340Q154 340 162 333T171 311Q171 302 163
287T137 242Q105 189 87 149T68 72Q68 41 79 30T113 19Q192 19 270 172L285 156Q250 68 196 19T80 -30Q38 -30 15 -5Z" />
<glyph unicode="j" glyph-name="j" horiz-adv-x="227" d="M119 424T104 434T89 462Q89 486 115 504T171 522Q189 522 200 513T212 487Q212 462 190 443T139 424Q119 424 104 434ZM-163 -280T-180 -264T-197 -221Q-197 -172 -141 -120T0 -33Q36 56 57 170Q43 148
41 145L22 113L5 140Q19 166 32 197T48 238Q70 296 86 323T124 350Q137 350 146 340T155 313Q155 286 135 192T83 6Q137 36 174 69T250 166L268 154Q243 104 216 71T162 20T99 -20L67 -39Q28 -143 -23 -211T-134 -280Q-163 -280 -180 -264ZM-125 -232T-91 -193T-23
-85Q-88 -118 -122 -152T-157 -215Q-157 -232 -145 -232Q-125 -232 -91 -193Z" />
<glyph unicode="k" glyph-name="k" horiz-adv-x="462" d="M278 -38T251 -7T211 69T198 148Q327 177 327 237Q327 255 316 266T283 277Q222 277 176 200T91 20Q80 -10 70 -20T41 -31Q25 -31 14 -17T2 44Q2 159 61 317T196 595T312 714Q329 714 340 693T352 641Q352
596 326 538T252 425T145 336Q119 274 103 211T83 95Q191 343 305 343Q345 343 375 315T405 245Q405 208 380 182T321 142T261 127Q271 81 288 46T340 10Q376 10 416 57T489 178L503 161Q475 80 423 21T317 -38Q278 -38 251 -7ZM223 447T263 507T305 620Q289 613
250 550T174 404Q223 447 263 507Z" />
<glyph unicode="l" glyph-name="l" horiz-adv-x="245" d="M42 -30T22 -1T2 76Q2 168 64 322T205 598T320 720Q337 720 349 694T362 640Q362 594 325 506T226 326T92 179Q81 117 81 85Q81 50 92 33T124 16Q159 16 198 62T269 175L293 162Q249 71 196 21T86 -30Q42
-30 22 -1ZM164 299T211 377T287 525T316 629Q303 629 264 568T181 417T110 241Q164 299 211 377Z" />
<glyph unicode="m" glyph-name="m" horiz-adv-x="660" d="M486 -31T466 -9T446 47Q446 63 450 82T461 119Q474 160 474 179Q474 209 451 209Q429 209 400 177T322 72Q310 54 286 11L267 -23Q249 -23 228 -16T207 3Q207 13 228 67Q248 119 260 158T273 223Q273
253 252 253Q225 253 182 211T97 103T32 -27Q14 -27 -10 -17T-35 0L29 256Q32 267 50 275T84 284Q99 284 108 275T118 251Q118 235 104 179Q152 245 203 288T299 332Q333 332 347 308T362 248Q362 229 358 213T345 168Q415 271 490 271Q526 271 542 250T559 196Q559
164 539 106Q538 102 532 80T525 44Q525 17 550 17Q586 17 620 63T685 173L702 152Q673 77 628 23T523 -31Q486 -31 466 -9Z" />
<glyph unicode="n" glyph-name="n" horiz-adv-x="473" d="M299 -20T278 -1T257 49Q257 62 261 79T271 113Q285 159 285 181Q285 201 275 210T250 220Q197 220 143 154T27 -15Q-16 -15 -38 14L-29 39Q30 182 30 251Q38 260 53 267T82 275Q99 275 108 267T117 245Q117
218 100 156Q145 216 193 254T289 292Q329 292 351 265T373 199Q373 177 368 157T351 112Q334 70 334 49Q334 34 341 27T358 20Q391 20 429 65T499 173L516 159Q480 76 437 28T337 -20Q299 -20 278 -1Z" />
<glyph unicode="o" glyph-name="o" horiz-adv-x="372" d="M25 -32T7 -5T-12 62Q-12 104 5 149T51 224T108 254Q120 254 139 246Q145 292 171 322T246 352Q286 352 305 330T324 271Q324 236 306 191T258 101Q270 95 286 95Q314 95 346 113T395 170L413 157Q392
109 357 84T283 59Q260 59 233 68Q196 24 152 -4T66 -32Q25 -32 7 -5ZM249 159T265 199T282 271Q282 315 254 315Q241 315 227 302T204 268T195 220Q195 197 203 168T224 122Q249 159 265 199ZM120 19T146 39T198 90Q141 140 138 237Q126 231 109 200T80 131T68
65Q68 19 102 19Q120 19 146 39Z" />
<glyph unicode="p" glyph-name="p" horiz-adv-x="413" d="M-68 -280T-81 -271T-96 -255Q-52 -127 -32 -55T2 99T38 350Q40 364 43 368T62 373Q91 373 106 358T121 320Q121 296 107 226Q139 275 180 307T270 340Q319 340 351 307T383 220Q383 167 352 108T264 8T140
-32Q109 -32 90 -24T70 -6Q70 4 94 4Q154 5 202 36T277 115T304 208Q304 240 290 261T248 282Q217 282 184 257T125 195T85 128Q68 69 41 -42Q12 -165 -8 -222T-56 -280Q-68 -280 -81 -271Z" />
<glyph unicode="q" glyph-name="q" horiz-adv-x="417" d="M173 -280T173 -201Q173 -153 185 -73T218 77Q174 22 138 -7T69 -36Q39 -36 13 -13T-14 56Q-14 115 29 186T141 307T277 357Q315 357 341 341T367 301Q367 290 362 279T346 263Q357 261 361 253T366 237Q366
225 360 211T340 173Q297 101 279 29Q322 35 364 69T442 169L460 153Q425 83 379 46T279 -1Q296 -50 296 -106Q296 -181 274 -230T216 -280Q173 -280 173 -201ZM136 25T180 79T287 230Q300 250 308 258T326 267Q326 289 311 302T271 315Q218 315 172 271T97 168T69
69Q69 50 77 38T102 25Q136 25 180 79ZM245 -215T249 -180T253 -100Q253 -73 250 -53Q233 -135 233 -194Q233 -215 237 -215Q245 -215 249 -180Z" />
<glyph unicode="r" glyph-name="r" horiz-adv-x="363" d="M148 -26T125 -7T102 46Q102 65 109 87T132 142Q145 170 152 189T159 224Q159 262 109 288Q89 238 63 187T15 101L0 130Q46 212 81 311Q71 321 71 338Q71 364 87 387T118 410Q128 410 134 398T141 378Q141
374 137 361T130 341Q131 334 138 328T164 309Q199 286 218 265T238 207Q238 185 231 163T208 110Q186 66 186 47Q186 24 211 24Q241 24 276 48T341 106T385 171L409 153Q389 108 353 67T273 0T185 -26Q148 -26 125 -7Z" />
<glyph unicode="s" glyph-name="s" horiz-adv-x="351" d="M47 -51T14 -11T-20 86Q-20 125 -6 140T25 164T46 175Q110 241 143 312V322Q143 359 155 377T188 395Q210 395 212 375Q212 370 210 360T207 339Q207 320 213 299T232 242Q248 198 256 166T265 101Q265
84 261 60Q329 77 379 173L391 164Q371 107 336 72T252 30Q236 -10 200 -30T117 -51Q47 -51 14 -11ZM185 71T185 93Q184 125 178 156T160 236L151 272Q102 187 64 147Q81 118 112 95T182 62Q185 71 185 93ZM130 -7T147 3T174 32Q135 40 102 62T49 111Q35 108 35
84Q35 48 55 21T110 -7Q130 -7 147 3Z" />
<glyph unicode="t" glyph-name="t" horiz-adv-x="288" d="M45 -46T19 -20T-7 59Q-7 98 8 158T48 287Q22 292 13 296V327Q37 324 61 322Q106 435 157 516T241 597Q252 597 260 589T269 568Q269 552 255 525T209 443Q165 369 140 319Q255 319 323 326V293Q205 281
122 281Q70 158 70 80Q70 39 83 22T124 5Q174 5 226 50T318 174L332 164Q291 71 226 13T91 -46Q45 -46 19 -20Z" />
<glyph unicode="u" glyph-name="u" horiz-adv-x="441" d="M43 -30T21 1T-1 74Q-1 110 15 164T52 258T90 298Q97 298 111 291T137 272Q116 241 94 183T71 83Q71 64 76 44T101 23Q138 23 189 105T278 273Q338 263 338 239Q338 237 326 210Q305 161 290 119T275 46Q275
11 302 11Q323 11 352 30T413 86T467 171L482 159Q460 105 425 62T350 -5T272 -30Q228 -30 216 0T203 82Q169 30 139 0T76 -30Q43 -30 21 1Z" />
<glyph unicode="v" glyph-name="v" horiz-adv-x="410" d="M38 -39T23 -8T8 81Q8 109 12 200Q13 232 19 242T50 252Q73 252 78 244T83 204Q83 185 81 141Q78 108 78 74Q78 40 81 27T96 14Q128 14 173 77T253 218Q255 282 268 307T305 332Q327 332 337 318T348 288Q348
278 344 269T338 257Q328 240 322 220T316 164Q316 94 359 94Q379 94 398 111T437 168L448 159Q426 107 399 84T342 60Q311 60 290 85T257 153Q213 71 166 16T74 -39Q38 -39 23 -8Z" />
<glyph unicode="w" glyph-name="w" horiz-adv-x="631" d="M260 -38T247 -12T232 62L233 86Q233 106 235 130Q196 59 157 15T77 -30Q44 -30 22 0T-1 74Q-1 111 15 165T52 259T90 299Q99 299 115 290T136 270Q115 240 93 182T71 82Q71 62 77 43T102 23Q153 23 245
202Q253 244 259 263T271 287T288 293Q307 293 317 286T328 264Q328 261 323 246Q313 214 307 165T301 65Q301 38 304 26T319 14Q345 14 387 72T466 205Q466 276 480 304T521 332Q543 332 554 318T565 289Q565 279 560 269T552 255Q532 215 532 166Q532 92 576
92Q595 92 613 109T653 168L672 153Q652 105 625 84T568 62Q537 62 514 84T476 145Q431 67 383 15T291 -38Q260 -38 247 -12Z" />
<glyph unicode="x" glyph-name="x" horiz-adv-x="430" d="M47 -59T42 -53T37 -39Q37 -20 79 35T186 158Q177 215 169 237T141 259Q118 259 100 236T52 162L25 116L8 144Q15 155 32 192Q49 231 63 254T101 294T159 311Q197 311 218 290T251 226Q299 274 334 303T384
332Q392 332 402 325T417 306Q398 306 355 269T259 175Q263 148 263 146Q268 92 279 57T316 22Q347 22 389 72T455 171L471 156Q443 83 391 28T285 -27Q243 -27 223 6T194 96Q133 27 72 -50Q64 -59 55 -59Q47 -59 42 -53Z" />
<glyph unicode="y" glyph-name="y" horiz-adv-x="400" d="M20 -280T0 -264T-20 -215Q-20 -176 9 -144T78 -90T179 -39Q196 4 227 117Q191 66 157 37T83 8Q50 8 24 28T-2 91Q-2 125 14 177T52 269T90 309Q100 309 120 299T144 276Q125 250 103 189T80 93Q80 56
109 56Q139 56 174 91T241 177Q243 184 247 210T265 255T305 275Q309 275 337 271Q336 246 314 162T261 -2Q310 18 353 59T422 167L439 153Q418 84 367 37T248 -40Q201 -151 153 -215T48 -280Q20 -280 0 -264ZM59 -243T93 -201T160 -83Q102 -112 61 -147T19 -215Q19
-226 23 -234T38 -243Q59 -243 93 -201Z" />
<glyph unicode="z" glyph-name="z" horiz-adv-x="331" d="M-68 -280T-68 -222Q-68 -190 -47 -163T5 -114T96 -58Q148 -28 182 -6Q180 27 161 56T98 117Q135 127 162 150T204 202T219 257Q219 277 210 290T178 304Q137 304 103 257T27 123L8 139Q46 243 87 298T193
353Q236 353 264 330T292 263Q292 217 260 175T179 108Q222 74 244 26Q325 88 355 166L368 150Q353 106 324 68T254 0Q258 -18 258 -33Q258 -91 223 -148T130 -243T8 -280Q-68 -280 -68 -222ZM20 -242T61 -217T137 -147T180 -46L110 -87Q34 -132 1 -158T-33 -215Q-33
-229 -26 -235T-6 -242Q20 -242 61 -217Z" />
<glyph unicode="{" glyph-name="braceleft" horiz-adv-x="304" d="M99 -87T81 -67T62 -15Q62 8 70 32T96 101Q115 147 125 177T135 237Q135 297 83 337Q124 341 145 368T173 433T186 533Q191 595 198 632T227 694T291 720Q314 720 333 712T353 681Q353 667 345
652Q317 667 306 667Q281 667 270 628T250 511Q240 423 228 378T184 321Q195 308 200 293T205 253Q205 212 194 175T163 88Q147 48 140 24T132 -23Q132 -36 140 -42T162 -49Q179 -49 194 -39Q192 -67 177 -77T140 -87Q99 -87 81 -67Z" />
<glyph unicode="|" glyph-name="bar" horiz-adv-x="294" d="M102 -67T116 61T145 402Q155 542 161 606T176 698Q216 682 216 610Q215 503 208 320T193 55Q177 -132 78 -132Q102 -67 116 61Z" />
<glyph unicode="}" glyph-name="braceright" horiz-adv-x="301" d="M45 -87T25 -76T4 -35Q4 -22 6 -14Q33 -32 49 -32Q74 -32 86 12T107 134Q117 222 131 274T180 349Q157 376 157 417Q157 450 168 487T201 577Q203 583 211 603T222 637T226 659Q226 680 204 680Q189
680 173 669Q172 672 172 678Q172 700 189 714T239 729Q268 729 284 718T301 682Q301 666 295 646T273 591Q253 546 241 508T229 433Q229 366 279 336Q236 325 214 292T185 217T173 107Q168 41 161 3T133 -61T70 -87Q45 -87 25 -76Z" />
<glyph unicode="~" glyph-name="asciitilde" horiz-adv-x="477" d="M275 123T210 144Q174 155 152 160T113 166Q88 166 59 159Q102 208 145 208Q170 208 236 189Q263 181 290 175T335 169Q346 169 394 177Q365 147 343 135T301 123Q275 123 210 144Z" />
<glyph unicode="&#xa0;" glyph-name="uni00A0" horiz-adv-x="260" />
<glyph unicode="&#xa1;" glyph-name="exclamdown" horiz-adv-x="297" d="M210 400T210 431Q210 449 228 465T269 481Q286 481 297 473T309 447Q309 429 289 415T244 400Q210 400 210 431ZM-43 -249T-51 -240T-60 -219Q-60 -193 -3 -73T126 181T236 367L248 363Q248
331 233 284T194 174Q116 -27 63 -138T-32 -249Q-43 -249 -51 -240Z" />
<glyph unicode="&#xa2;" glyph-name="cent" horiz-adv-x="426" d="M119 -115T177 110Q125 112 93 146T60 241Q60 299 89 354T167 450T266 505Q282 587 294 670Q297 689 308 702T355 722L317 512Q356 512 378 491T400 429Q400 401 389 380T355 358Q337 358 322
377Q331 381 338 399T345 435Q345 450 335 460T309 470L299 415Q292 380 278 301T252 166Q317 179 369 224L391 200Q319 135 243 117Q221 16 202 -41T153 -130T75 -162Q119 -115 177 110ZM218 271T255 449Q205 416 172 354T138 236Q138 208 150 188T190 162Q218
271 255 449Z" />
<glyph unicode="&#xa3;" glyph-name="sterling" horiz-adv-x="691" d="M350 26T413 11T522 -4Q546 -4 566 1T611 18Q591 -37 562 -62T491 -87Q450 -87 399 -69T267 -17L219 4Q165 -53 103 -53Q70 -53 44 -38T4 -2T-10 40Q-10 62 9 76T72 90Q121 90 198 70Q227
130 260 221Q162 220 123 212Q132 238 174 255T280 278Q293 317 308 367L317 394Q269 410 241 439T213 502Q213 534 236 561T296 589Q277 564 277 524Q277 460 329 429Q374 566 425 643T550 720Q592 720 626 695T660 612Q660 562 632 508T544 417T395 380L360 279Q407
278 482 270Q519 266 533 265Q518 245 496 236T440 224T339 221Q299 116 258 54Q350 26 413 11ZM518 681T484 614T406 413Q460 417 502 455T567 545T591 636Q591 681 558 681Q518 681 484 614ZM109 -18T130 -6T167 24Q96 50 61 50Q44 50 33 45T21 31Q21 23 30 11T56
-9T89 -18Q109 -18 130 -6Z" />
<glyph unicode="&#xa4;" glyph-name="currency" horiz-adv-x="735" d="M633 42T613 62T557 113Q549 120 531 136T497 167Q438 98 369 98Q314 98 282 135Q197 47 90 47Q116 71 150 94Q184 118 205 136T250 189Q240 222 240 253Q240 295 250 340T283 425Q225 483
161 537Q152 544 146 563T139 602Q139 623 149 646Q197 603 317 480Q377 552 449 552Q485 552 514 536T561 490Q568 499 573 507T585 522Q606 552 621 568T658 595T713 606Q720 606 744 602Q728 578 647 489L582 416Q584 398 584 390Q584 315 533 220Q652 117 653
53Q653 40 647 20Q633 42 613 62ZM408 165T440 204T494 302T515 410Q515 443 496 466T453 489Q415 489 383 447T331 347T312 245Q312 211 332 188T376 165Q408 165 440 204Z" />
<glyph unicode="&#xa5;" glyph-name="yen" horiz-adv-x="868" d="M317 -187T273 -161T229 -87Q229 -29 306 -2Q302 -18 299 -37T296 -70Q296 -105 319 -126T384 -148Q478 -148 540 -26Q463 -26 383 -38Q396 -4 442 10T561 26L577 73Q517 72 474 70T381 60Q394
97 447 110T590 125Q593 137 604 204L621 298Q578 227 527 186T413 145Q351 145 321 179T290 272Q290 307 298 348T324 450Q339 508 346 542T354 605Q354 638 341 659T299 681Q266 681 243 655T208 592T196 521Q196 488 209 459Q163 459 141 480T119 536Q119 577
146 620T220 692T321 720Q379 720 409 688T439 612Q439 591 433 562T412 482Q395 422 385 377T375 294Q375 199 444 199Q508 199 562 269T655 439Q720 720 781 720Q793 720 813 709T848 682Q799 605 772 521T713 307Q688 195 665 122Q688 121 709 120T748 117Q771
114 784 114Q724 73 652 73L635 25Q671 24 756 18L786 16Q726 -26 659 -26H613Q577 -101 521 -144T382 -187Q317 -187 273 -161Z" />
<glyph unicode="&#xa6;" glyph-name="brokenbar" horiz-adv-x="295" d="M143 360T145 394Q154 523 161 595T177 699Q217 683 217 627L215 541Q211 445 211 380Q211 364 204 344T177 310L137 282Q143 360 145 394ZM97 -86T108 -4T131 199Q141 210 155 217T185 225Q195
225 199 216T204 195Q204 29 178 -51T79 -132Q97 -86 108 -4Z" />
<glyph unicode="&#xa7;" glyph-name="section" horiz-adv-x="443" d="M107 -87T64 -56T20 33Q20 81 52 102T127 124Q105 102 93 78T81 32Q81 -1 107 -24T181 -48Q227 -48 261 -26T295 35Q295 66 272 89T201 142Q163 166 140 184T100 230T83 291Q83 328 102 360T158
413T250 435Q208 459 185 483T162 545Q162 582 186 623T254 691T352 719Q395 719 413 701T432 649Q432 615 417 575T381 504Q349 509 349 539Q349 556 357 580T368 608Q385 651 385 670Q385 680 379 685T355 690Q317 690 285 669T235 617T216 560Q216 534 234 517T292
478Q329 456 352 439T391 392T408 320Q408 255 368 221T261 186Q248 186 244 187Q293 160 323 131T353 55Q353 13 326 -19T256 -69T168 -87Q107 -87 64 -56ZM287 232T312 253T337 314Q337 350 315 373T250 396Q208 396 178 374T148 315Q148 286 168 259T242 232Q287
232 312 253Z" />
<glyph unicode="&#xa8;" glyph-name="dieresis" horiz-adv-x="230" d="M21 431T9 439T-4 465Q-4 483 18 498T63 513Q99 513 99 481Q99 463 80 447T39 431Q21 431 9 439ZM166 411T154 420T141 445Q141 464 162 478T208 493Q245 493 245 460Q245 443 226 427T183
411Q166 411 154 420Z" />
<glyph unicode="&#xa9;" glyph-name="copyright" horiz-adv-x="620" d="M281 100T223 129T128 217T88 358Q88 443 126 502T223 590T346 620Q409 620 470 591T570 503T610 362Q610 277 570 218T469 130T344 100Q281 100 223 129ZM408 142T459 170T540 248T569 362Q569
424 541 473T462 550T347 578Q284 578 235 551T157 474T129 362Q129 299 155 249T231 171T344 142Q408 142 459 170ZM311 206T285 229T259 300V429Q259 524 347 524Q378 524 399 511T430 481T440 448Q440 424 418 424Q406 424 402 430T394 449Q389 466 381 474T349
483Q325 483 314 470T303 429V300Q303 271 314 259T354 246Q377 246 385 255T398 282Q401 294 404 299T418 305Q442 305 442 284Q442 251 418 229T353 206Q311 206 285 229Z" />
<glyph unicode="&#xaa;" glyph-name="ordfeminine" horiz-adv-x="410" d="M158 447T142 463T125 511Q125 552 154 601T229 685T321 720Q352 720 373 704T394 663Q394 633 364 629Q379 621 380 610Q380 600 363 574Q361 571 355 559T345 538T341 520Q341 511 345
504T359 497Q378 497 406 524T466 603L476 587Q454 530 415 495T339 459Q311 459 302 477T292 522Q261 485 234 466T182 447Q158 447 142 463ZM225 490T264 534T338 631L345 634Q350 649 350 659Q350 671 343 679T320 688Q291 688 260 658T208 584T187 510Q187
499 190 495T200 490Q225 490 264 534Z" />
<glyph unicode="&#xab;" glyph-name="guillemotleft" horiz-adv-x="480" d="M176 44T137 65T66 116T27 165Q81 186 135 229T225 319Q227 317 232 305T237 287Q237 251 192 217T77 147Q111 125 143 110T241 70Q217 44 200 44Q176 44 137 65ZM329 44T290 65T219
116T180 165Q234 186 288 229T378 319Q380 317 385 305T390 287Q390 251 345 217T230 147Q264 125 296 110T394 70Q370 44 353 44Q329 44 290 65Z" />
<glyph unicode="&#xac;" glyph-name="logicalnot" horiz-adv-x="676" d="M496 33T503 63T510 115L509 186Q494 185 466 185L327 183Q233 182 181 180T44 170Q65 208 145 222T358 236Q442 236 511 233Q520 262 549 289Q549 277 552 259T557 231Q574 231 582 230Q622
230 634 227Q618 211 601 204T560 191Q560 172 562 164Q562 105 550 72T495 26Q496 33 503 63Z" />
<glyph unicode="&#xad;" glyph-name="uni00AD" horiz-adv-x="485" d="M55 180T105 192T202 205Q245 204 309 202T418 198Q408 175 373 160T296 144Q287 144 251 146Q205 150 171 150Q138 150 100 147T43 142Q55 180 105 192Z" />
<glyph unicode="&#xae;" glyph-name="registered" horiz-adv-x="619" d="M279 100T221 129T125 217T88 358Q88 443 127 502T226 590T350 620Q414 620 473 591T571 503T610 362Q610 278 570 219T467 130T342 100Q279 100 221 129ZM406 142T457 170T539 248T569
363Q569 425 542 474T466 550T352 578Q289 578 238 551T158 474T129 359Q129 297 155 248T229 171T342 142Q406 142 457 170ZM281 207T274 212T267 228L263 503Q263 511 269 517T284 523H349Q391 523 419 502T448 434Q448 400 433 379T390 350Q408 314 427 279T449
238Q452 232 452 227Q452 220 445 214T429 207Q415 207 399 238L344 346H312V228Q312 218 305 213T290 207Q281 207 274 212ZM352 386Q376 386 389 398T403 434Q403 459 389 471T351 483H310V386H352Z" />
<glyph unicode="&#xaf;" glyph-name="overscore" horiz-adv-x="413" d="M286 421T248 428T145 449Q75 464 60 466Q71 496 110 496Q160 496 227 482T353 446Q341 421 312 421Q286 421 248 428Z" />
<glyph unicode="&#xb0;" glyph-name="degree" horiz-adv-x="293" d="M152 396T132 412T112 453Q112 476 128 502T173 545T236 562Q277 562 297 546T318 505Q318 481 301 456T254 413T191 396Q152 396 132 412ZM213 428T231 440T262 471T274 505Q274 516 265 522T236
529Q217 529 199 517T170 488T158 454Q158 443 167 436T195 428Q213 428 231 440Z" />
<glyph unicode="&#xb1;" glyph-name="plusminus" horiz-adv-x="485" d="M208 168T208 242Q160 242 131 241T58 233Q69 260 107 272T208 287V318Q208 341 215 362T242 411Q251 361 256 287Q316 286 420 278Q361 242 301 242H256Q255 185 244 152T197 106Q208 168
208 242ZM61 56T112 68T244 80Q341 80 424 71Q384 49 353 44T245 37Q182 36 152 34T56 23Q61 56 112 68Z" />
<glyph unicode="&#xb2;" glyph-name="uni00B2" horiz-adv-x="398" d="M297 301T261 312T198 337Q164 317 139 317Q119 317 106 327T92 353Q92 385 140 385Q162 385 192 379Q240 420 279 490T318 618Q318 650 306 665T272 681Q246 681 230 657T214 595Q214 576
226 550H207Q184 556 172 567T160 602Q160 646 194 679T280 712Q322 712 349 684T376 615Q376 553 338 485T243 369Q248 368 279 362T331 355Q345 355 387 380Q376 339 361 320T319 301Q297 301 261 312ZM143 349T151 353Q145 354 137 354Q129 354 129 352Q129
349 137 349Q143 349 151 353Z" />
<glyph unicode="&#xb3;" glyph-name="uni00B3" horiz-adv-x="335" d="M152 314T128 338T103 392Q103 415 117 433T155 452Q164 452 185 445Q173 436 167 424T160 399Q160 377 171 360T203 343Q229 343 251 371T273 439Q273 471 255 495T195 530Q240 549 267 584T295
649Q295 669 284 681T259 693Q240 693 226 678T212 642Q212 632 222 612Q217 603 207 596T190 589Q177 589 169 604T161 636Q161 673 192 695T265 718Q301 718 328 699T355 647Q355 617 336 585T286 537Q317 522 331 496T346 444Q346 412 328 382T275 333T199 314Q152
314 128 338Z" />
<glyph unicode="&#xb4;" glyph-name="acute" horiz-adv-x="141" d="M106 409T100 419T93 437Q93 449 111 477T153 529T196 552Q222 552 226 517Q226 517 210 501Q182 475 158 451T117 404Q106 409 100 419Z" />
<glyph unicode="&#xb5;" glyph-name="uni00B5" horiz-adv-x="616" d="M-3 -280T-15 -262T-29 -234Q-17 -195 10 -121Q34 -60 49 -9T81 129T111 350Q113 364 117 368T137 373Q165 373 178 358T194 321Q170 213 160 153T149 60Q149 18 174 18Q207 18 244 74T329
224L355 274Q374 271 394 263T414 241Q409 231 394 197T364 118T350 42Q350 8 378 8Q400 8 430 27T491 83T546 169L570 153Q548 99 513 56T436 -12T357 -36Q321 -36 299 -14T276 44Q276 54 277 60Q248 14 219 -11T155 -36Q145 -36 133 -31T113 -18Q75 -153 51 -216T11
-280Q-3 -280 -15 -262Z" />
<glyph unicode="&#xb6;" glyph-name="paragraph" horiz-adv-x="686" d="M364 19T375 152Q267 158 169 198T71 336Q71 406 118 459T238 543T390 581Q387 647 378 706Q398 716 415 716Q445 716 453 679T461 583Q467 582 482 581T504 576Q499 671 494 705Q510 716
528 716Q564 716 575 559Q613 548 665 525Q661 515 641 502T614 488Q608 488 597 494T577 504Q582 445 582 371Q582 194 579 88T571 -34Q564 -58 540 -72T486 -87Q490 -76 497 106T505 444L504 535Q498 537 485 539T465 542Q473 402 473 234Q473 125 470 52T462
-33Q454 -55 422 -71T358 -87Q364 19 375 152Z" />
<glyph unicode="&#xb7;" glyph-name="middot" horiz-adv-x="241" d="M77 115T68 125T58 152Q58 168 79 184T122 201Q155 201 155 172Q155 163 148 150T128 126T99 115Q77 115 68 125Z" />
<glyph unicode="&#xb8;" glyph-name="cedilla" horiz-adv-x="232" d="M51 -233T32 -220T13 -192Q13 -183 21 -172T45 -149Q58 -194 85 -194Q101 -194 120 -180T152 -146T166 -111Q166 -95 150 -95Q141 -95 129 -101T104 -116Q102 -117 90 -124T71 -132Q63 -132
57 -124T50 -107Q50 -103 83 -59T134 0H150L103 -75Q136 -63 157 -63Q181 -63 196 -76T211 -113Q211 -140 193 -168T144 -214T79 -233Q51 -233 32 -220Z" />
<glyph unicode="&#xb9;" glyph-name="uni00B9" horiz-adv-x="308" d="M133 314T117 324T87 352Q141 352 169 355Q181 383 190 425T211 540Q222 604 227 620Q195 602 185 602Q174 602 169 608T163 632Q177 639 213 664T284 717Q294 707 294 694Q294 683 270 566L254
487L242 427Q232 382 222 361Q247 361 262 351T284 315Q245 318 232 318Q211 318 183 316Q159 314 146 314Q133 314 117 324Z" />
<glyph unicode="&#xba;" glyph-name="ordmasculine" horiz-adv-x="310" d="M162 452T145 470T127 517Q127 553 152 601T218 684T301 719Q324 719 335 706Q351 705 359 695T368 674Q368 666 356 638Q351 627 346 615T341 594Q341 587 344 585T354 583Q362 583 374
585Q379 585 381 586Q381 569 370 560T342 551Q328 551 317 559Q294 510 261 481T191 452Q162 452 145 470ZM229 492T255 521T298 589Q294 605 294 626Q294 662 300 677Q269 672 242 645T199 582T183 524Q183 510 190 501T208 492Q229 492 255 521Z" />
<glyph unicode="&#xbb;" glyph-name="guillemotright" horiz-adv-x="492" d="M91 44T67 70Q132 94 164 109T231 147Q161 182 116 216T71 287Q71 292 76 304T83 319Q118 272 172 229T281 165Q275 145 243 116T171 66T108 44Q91 44 67 70ZM244 44T220 70Q285 94
317 109T384 147Q314 182 269 216T224 287Q224 292 229 304T236 319Q271 272 325 229T434 165Q428 145 396 116T324 66T261 44Q244 44 220 70Z" />
<glyph unicode="&#xbc;" glyph-name="onequarter" horiz-adv-x="686" d="M122 307T106 317T75 345Q104 345 124 345T159 349Q171 378 179 419T203 540Q209 583 218 620Q188 602 176 602Q165 602 160 607T154 628Q154 630 191 655Q258 703 275 717Q285 708 285
694Q285 668 233 423Q223 374 212 355Q238 355 253 345T275 308Q233 311 222 311Q204 311 176 309Q150 307 134 307Q122 307 106 317ZM100 -41T192 106T373 417T497 671Q503 685 527 698T577 712Q584 712 596 710Q577 663 451 428T264 97Q205 6 155 -40T52 -87Q100
-41 192 106ZM497 -24T497 8Q497 28 518 131Q507 132 485 132Q421 132 377 121Q377 149 389 159Q461 220 518 275T607 383Q627 381 628 362Q628 356 622 335Q603 269 585 174H595Q598 174 626 178L648 182Q631 159 611 145T577 130Q576 125 568 67T560 -27Q497
-24 497 8ZM531 185T535 210T547 258L519 233Q496 210 483 200L459 177L529 176Q531 185 535 210Z" />
<glyph unicode="&#xbd;" glyph-name="onehalf" horiz-adv-x="743" d="M107 -41T200 106T382 418T506 671Q512 687 542 703T598 720Q590 689 528 565T391 303T272 97Q213 6 164 -40T60 -87Q107 -41 200 106ZM124 307T108 317T77 345Q106 345 126 345T161 349Q173
378 181 419T205 540Q211 583 220 620Q190 602 178 602Q167 602 162 607T156 628Q156 630 193 655Q260 703 277 717Q287 708 287 694Q287 668 235 423Q225 374 214 355Q240 355 255 345T277 308Q235 311 224 311Q206 311 178 309Q152 307 136 307Q124 307 108 317ZM581
-27T545 -16T482 9Q448 -11 423 -11Q403 -11 390 -1T376 25Q376 57 424 57Q446 57 476 51Q524 92 563 162T602 290Q602 322 590 337T556 353Q530 353 514 329T498 267Q498 248 510 222H491Q468 228 456 239T444 274Q444 318 478 351T564 384Q606 384 633 356T660
287Q660 225 622 157T527 41Q532 40 563 34T615 27Q629 27 671 52Q660 11 645 -8T603 -27Q581 -27 545 -16ZM427 21T435 25Q429 26 421 26Q413 26 413 24Q413 21 421 21Q427 21 435 25Z" />
<glyph unicode="&#xbe;" glyph-name="threequarters" horiz-adv-x="733" d="M190 22T265 141T391 359T508 593Q534 649 545 671Q553 689 582 704T638 720Q630 688 572 571T438 317T310 98Q251 5 203 -41T100 -87Q190 22 265 141ZM144 307T120 331T96 386Q96 410
109 428T148 447Q156 447 179 441Q166 432 159 418T152 391Q152 371 165 355T198 339Q225 339 247 367T269 435Q269 467 251 492T190 527Q234 546 263 582T292 648Q292 669 281 680T254 692Q236 692 221 678T206 644Q206 631 216 611Q212 602 202 595T184 588Q172
588 164 603T154 635Q154 673 186 695T260 718Q297 718 324 699T351 645Q351 615 332 583T281 534Q311 520 326 494T342 439Q342 407 323 377T270 327T193 307Q144 307 120 331ZM545 -24T545 8Q545 28 566 131Q520 131 489 130T425 121Q425 149 437 159Q507 218
564 273T649 380L655 383Q675 381 675 362Q675 354 666 322Q643 226 633 174Q649 174 668 177T696 182Q679 159 659 145T625 130Q624 125 616 67T608 -27Q545 -24 545 8ZM579 185T583 210T595 258L533 201Q529 197 521 191T507 177L577 176Q579 185 583 210Z" />
<glyph unicode="&#xbf;" glyph-name="questiondown" horiz-adv-x="437" d="M185 319T176 326T166 348Q166 368 184 384T226 400Q243 400 254 392T266 367Q266 348 245 334T201 319Q185 319 176 326ZM40 -280T0 -244T-41 -142Q-41 -96 -18 -62T53 15Q95 54 119
83T156 153Q163 175 169 211Q175 247 183 271Q209 258 217 248T225 215Q225 170 203 135T133 49Q84 -2 60 -40T35 -129Q35 -182 56 -211T112 -240Q146 -240 180 -213T237 -139T259 -41Q259 -9 248 27Q294 20 312 -1T330 -57Q330 -115 303 -166T225 -248T109 -280Q40
-280 0 -244Z" />
<glyph unicode="&#xc0;" glyph-name="Agrave" horiz-adv-x="631" d="M0 -63T0 -25Q0 13 40 92T147 275Q87 279 0 279Q24 344 116 344Q136 344 190 338Q302 500 399 611T528 722Q554 722 596 683Q576 668 538 559T470 319T440 108Q440 68 448 49T475 29Q500 29
534 65T608 178L626 159Q594 74 544 23T440 -29Q394 -29 373 11T352 126Q352 175 365 250Q314 258 222 269Q129 104 46 -87Q0 -63 0 -25ZM393 383T422 473T481 634Q437 599 378 518T254 326L329 310Q359 302 375 299Q393 383 422 473ZM538 806T470 858Q471 877
480 887T502 897Q521 897 547 875T592 825T612 784Q612 775 605 764T587 748Q538 806 470 858Z" />
<glyph unicode="&#xc1;" glyph-name="Aacute" horiz-adv-x="631" d="M0 -63T0 -25Q0 13 40 92T147 275Q87 279 0 279Q24 344 116 344Q136 344 190 338Q302 500 399 611T528 722Q554 722 596 683Q576 668 538 559T470 319T440 108Q440 68 448 49T475 29Q500 29
534 65T608 178L626 159Q594 74 544 23T440 -29Q394 -29 373 11T352 126Q352 175 365 250Q314 258 222 269Q129 104 46 -87Q0 -63 0 -25ZM393 383T422 473T481 634Q437 599 378 518T254 326L329 310Q359 302 375 299Q393 383 422 473ZM584 753T578 763T571 781Q571
793 589 821T631 873T674 896Q700 896 704 861Q704 861 688 845Q660 819 636 795T595 748Q584 753 578 763Z" />
<glyph unicode="&#xc2;" glyph-name="Acircumflex" horiz-adv-x="631" d="M0 -63T0 -25Q0 13 40 92T147 275Q87 279 0 279Q24 344 116 344Q136 344 190 338Q302 500 399 611T528 722Q554 722 596 683Q576 668 538 559T470 319T440 108Q440 68 448 49T475 29Q500
29 534 65T608 178L626 159Q594 74 544 23T440 -29Q394 -29 373 11T352 126Q352 175 365 250Q314 258 222 269Q129 104 46 -87Q0 -63 0 -25ZM393 383T422 473T481 634Q437 599 378 518T254 326L329 310Q359 302 375 299Q393 383 422 473ZM670 769T654 787T612 827Q566
812 510 775Q503 779 500 787T497 803Q497 821 519 841T569 875T613 889Q629 889 652 871T692 828T709 783Q709 772 703 761T684 744Q670 769 654 787Z" />
<glyph unicode="&#xc3;" glyph-name="Atilde" horiz-adv-x="631" d="M0 -63T0 -25Q0 13 40 92T147 275Q87 279 0 279Q24 344 116 344Q136 344 190 338Q302 500 399 611T528 722Q554 722 596 683Q576 668 538 559T470 319T440 108Q440 68 448 49T475 29Q500 29
534 65T608 178L626 159Q594 74 544 23T440 -29Q394 -29 373 11T352 126Q352 175 365 250Q314 258 222 269Q129 104 46 -87Q0 -63 0 -25ZM393 383T422 473T481 634Q437 599 378 518T254 326L329 310Q359 302 375 299Q393 383 422 473ZM647 755T627 761T577 780Q572
782 554 789T521 799T494 803Q459 803 429 790Q453 849 519 849Q538 849 558 843T606 825Q637 813 655 807T692 801Q722 801 751 811Q736 783 717 769T667 755Q647 755 627 761Z" />
<glyph unicode="&#xc4;" glyph-name="Adieresis" horiz-adv-x="631" d="M0 -63T0 -25Q0 13 40 92T147 275Q87 279 0 279Q24 344 116 344Q136 344 190 338Q302 500 399 611T528 722Q554 722 596 683Q576 668 538 559T470 319T440 108Q440 68 448 49T475 29Q500
29 534 65T608 178L626 159Q594 74 544 23T440 -29Q394 -29 373 11T352 126Q352 175 365 250Q314 258 222 269Q129 104 46 -87Q0 -63 0 -25ZM393 383T422 473T481 634Q437 599 378 518T254 326L329 310Q359 302 375 299Q393 383 422 473ZM505 773T493 781T480 807Q480
825 502 840T547 855Q583 855 583 823Q583 805 564 789T523 773Q505 773 493 781ZM650 753T638 762T625 787Q625 806 646 820T692 835Q729 835 729 802Q729 785 710 769T667 753Q650 753 638 762Z" />
<glyph unicode="&#xc5;" glyph-name="Aring" horiz-adv-x="631" d="M0 -63T0 -25Q0 13 40 92T147 275Q87 279 0 279Q24 344 116 344Q136 344 190 338Q302 500 399 611T528 722Q554 722 596 683Q576 668 538 559T470 319T440 108Q440 68 448 49T475 29Q500 29 534
65T608 178L626 159Q594 74 544 23T440 -29Q394 -29 373 11T352 126Q352 175 365 250Q314 258 222 269Q129 104 46 -87Q0 -63 0 -25ZM393 383T422 473T481 634Q437 599 378 518T254 326L329 310Q359 302 375 299Q393 383 422 473ZM546 754T527 770T507 811Q507
834 523 860T568 903T631 920Q672 920 692 904T713 863Q713 839 696 814T649 771T585 754Q546 754 527 770ZM618 789T640 811T662 856Q662 867 654 874T627 882Q602 882 581 861T559 817Q560 806 568 798T593 789Q618 789 640 811Z" />
<glyph unicode="&#xc6;" glyph-name="AE" horiz-adv-x="790" d="M-1 -63T-1 -26Q-1 13 39 92T146 275Q86 279 46 279H-1Q23 344 116 344Q135 344 189 338Q300 498 397 610T528 722Q603 722 702 715T861 699Q851 671 802 661T675 650Q637 650 571 652Q554 618 533
556T493 423Q535 422 577 417T653 407L711 399Q700 371 651 361T525 350Q489 350 474 351Q439 194 439 100Q439 94 442 67Q472 62 516 59T576 54Q695 44 730 36Q720 9 671 -1T545 -12Q429 -12 387 -8Q350 25 350 126Q350 173 364 250Q313 258 221 269Q128 104 45
-87Q-1 -63 -1 -26ZM392 383T421 473T480 634Q436 599 377 518T253 326Q268 323 320 311Q350 304 374 299Q392 383 421 473Z" />
<glyph unicode="&#xc7;" glyph-name="Ccedilla" horiz-adv-x="570" d="M489 -63T504 -76T519 -113Q519 -140 501 -168T452 -214T387 -233Q359 -233 340 -220T321 -192Q321 -183 329 -172T353 -149Q366 -194 393 -194Q409 -194 428 -180T460 -146T474 -111Q474
-95 458 -95Q449 -95 437 -101T412 -116Q410 -117 398 -124T379 -132Q371 -132 365 -124T358 -107Q358 -104 374 -82T407 -39Q332 -87 250 -87Q177 -87 128 -52T56 39T32 160Q32 289 95 419T258 634T457 719Q504 719 532 697T561 628Q561 588 543 536T496 448T438
411Q413 411 397 442Q435 484 470 542T506 636Q506 675 461 675Q391 675 313 590T182 381T129 151Q129 71 165 16T274 -39Q326 -39 380 -10T479 69T551 175L577 158Q529 65 458 0L411 -75Q444 -63 465 -63Q489 -63 504 -76Z" />
<glyph unicode="&#xc8;" glyph-name="Egrave" horiz-adv-x="533" d="M147 -87T98 -62T23 6T-4 101Q-4 160 29 215T121 310T251 359Q216 390 198 429T179 510Q179 563 206 611T283 689T396 719Q457 719 490 690T523 604Q523 567 510 531T476 473T437 450Q412 450
389 491Q477 563 477 625Q477 654 458 670T405 686Q362 686 331 660T284 591T268 501Q268 454 285 412T342 339Q272 328 219 291T136 202T106 99Q106 65 119 33T162 -20T236 -42Q289 -42 342 -12T441 68T513 175L540 158Q481 47 396 -20T209 -87Q147 -87 98 -62ZM401
806T333 858Q334 877 343 887T365 897Q384 897 410 875T455 825T475 784Q475 775 468 764T450 748Q401 806 333 858Z" />
<glyph unicode="&#xc9;" glyph-name="Eacute" horiz-adv-x="533" d="M147 -87T98 -62T23 6T-4 101Q-4 160 29 215T121 310T251 359Q216 390 198 429T179 510Q179 563 206 611T283 689T396 719Q457 719 490 690T523 604Q523 567 510 531T476 473T437 450Q412 450
389 491Q477 563 477 625Q477 654 458 670T405 686Q362 686 331 660T284 591T268 501Q268 454 285 412T342 339Q272 328 219 291T136 202T106 99Q106 65 119 33T162 -20T236 -42Q289 -42 342 -12T441 68T513 175L540 158Q481 47 396 -20T209 -87Q147 -87 98 -62ZM447
753T441 763T434 781Q434 793 452 821T494 873T537 896Q563 896 567 861Q567 861 551 845Q523 819 499 795T458 748Q447 753 441 763Z" />
<glyph unicode="&#xca;" glyph-name="Ecircumflex" horiz-adv-x="533" d="M147 -87T98 -62T23 6T-4 101Q-4 160 29 215T121 310T251 359Q216 390 198 429T179 510Q179 563 206 611T283 689T396 719Q457 719 490 690T523 604Q523 567 510 531T476 473T437 450Q412
450 389 491Q477 563 477 625Q477 654 458 670T405 686Q362 686 331 660T284 591T268 501Q268 454 285 412T342 339Q272 328 219 291T136 202T106 99Q106 65 119 33T162 -20T236 -42Q289 -42 342 -12T441 68T513 175L540 158Q481 47 396 -20T209 -87Q147 -87 98
-62ZM533 769T517 787T475 827Q429 812 373 775Q366 779 363 787T360 803Q360 821 382 841T432 875T476 889Q492 889 515 871T555 828T572 783Q572 772 566 761T547 744Q533 769 517 787Z" />
<glyph unicode="&#xcb;" glyph-name="Edieresis" horiz-adv-x="533" d="M147 -87T98 -62T23 6T-4 101Q-4 160 29 215T121 310T251 359Q216 390 198 429T179 510Q179 563 206 611T283 689T396 719Q457 719 490 690T523 604Q523 567 510 531T476 473T437 450Q412
450 389 491Q477 563 477 625Q477 654 458 670T405 686Q362 686 331 660T284 591T268 501Q268 454 285 412T342 339Q272 328 219 291T136 202T106 99Q106 65 119 33T162 -20T236 -42Q289 -42 342 -12T441 68T513 175L540 158Q481 47 396 -20T209 -87Q147 -87 98
-62ZM368 773T356 781T343 807Q343 825 365 840T410 855Q446 855 446 823Q446 805 427 789T386 773Q368 773 356 781ZM513 753T501 762T488 787Q488 806 509 820T555 835Q592 835 592 802Q592 785 573 769T530 753Q513 753 501 762Z" />
<glyph unicode="&#xcc;" glyph-name="Igrave" horiz-adv-x="503" d="M-13 -30T30 -12T154 6Q183 68 208 163T270 423Q274 440 292 523T326 649Q254 648 202 642T89 625Q99 675 151 697T311 719Q431 719 601 697Q571 668 543 659T485 650Q409 650 377 649L371 619L346
480Q331 394 314 302T284 164Q254 44 212 4Q262 0 288 -3Q380 -13 438 -14Q379 -70 303 -70Q164 -70 110 -73T-18 -88Q-13 -30 30 -12ZM322 805T254 857Q255 876 264 886T286 896Q305 896 331 874T376 824T396 783Q396 774 389 763T371 747Q322 805 254 857Z" />
<glyph unicode="&#xcd;" glyph-name="Iacute" horiz-adv-x="503" d="M-13 -30T30 -12T154 6Q183 68 208 163T270 423Q274 440 292 523T326 649Q254 648 202 642T89 625Q99 675 151 697T311 719Q431 719 601 697Q571 668 543 659T485 650Q409 650 377 649L371 619L346
480Q331 394 314 302T284 164Q254 44 212 4Q262 0 288 -3Q380 -13 438 -14Q379 -70 303 -70Q164 -70 110 -73T-18 -88Q-13 -30 30 -12ZM368 752T362 762T355 780Q355 792 373 820T415 872T458 895Q484 895 488 860Q488 860 472 844Q444 818 420 794T379 747Q368
752 362 762Z" />
<glyph unicode="&#xce;" glyph-name="Icircumflex" horiz-adv-x="503" d="M-13 -30T30 -12T154 6Q183 68 208 163T270 423Q274 440 292 523T326 649Q254 648 202 642T89 625Q99 675 151 697T311 719Q431 719 601 697Q571 668 543 659T485 650Q409 650 377 649L371
619L346 480Q331 394 314 302T284 164Q254 44 212 4Q262 0 288 -3Q380 -13 438 -14Q379 -70 303 -70Q164 -70 110 -73T-18 -88Q-13 -30 30 -12ZM454 768T438 786T396 826Q350 811 294 774Q287 778 284 786T281 802Q281 820 303 840T353 874T397 888Q413 888 436
870T476 827T493 782Q493 771 487 760T468 743Q454 768 438 786Z" />
<glyph unicode="&#xcf;" glyph-name="Idieresis" horiz-adv-x="503" d="M-13 -30T30 -12T154 6Q183 68 208 163T270 423Q274 440 292 523T326 649Q254 648 202 642T89 625Q99 675 151 697T311 719Q431 719 601 697Q571 668 543 659T485 650Q409 650 377 649L371
619L346 480Q331 394 314 302T284 164Q254 44 212 4Q262 0 288 -3Q380 -13 438 -14Q379 -70 303 -70Q164 -70 110 -73T-18 -88Q-13 -30 30 -12ZM289 772T277 780T264 806Q264 824 286 839T331 854Q367 854 367 822Q367 804 348 788T307 772Q289 772 277 780ZM434
752T422 761T409 786Q409 805 430 819T476 834Q513 834 513 801Q513 784 494 768T451 752Q434 752 422 761Z" />
<glyph unicode="&#xd0;" glyph-name="Eth" horiz-adv-x="688" d="M152 -87T122 -77T70 -37Q95 87 154 278Q115 277 28 265Q44 297 79 311T170 328Q213 466 241 537Q253 569 274 601T326 634Q343 634 364 620Q307 492 255 330Q315 330 438 320Q378 279 311 279H239Q182
101 151 -44Q174 -47 189 -47Q293 -47 387 26T539 213T597 446Q597 562 540 620T383 679Q319 679 267 656T186 591T156 499Q156 472 165 451Q124 451 105 468T85 515Q85 562 130 610T251 689T415 720Q554 720 620 641T686 435Q686 296 614 176T428 -16T192 -87Q152
-87 122 -77Z" />
<glyph unicode="&#xd1;" glyph-name="Ntilde" horiz-adv-x="674" d="M79 -14Q167 267 268 616Q275 644 275 655Q275 663 273 666T262 669Q235 669 210 642T170 576T154 507Q154 483 164 460Q122 460 103 477T84 525Q84 568 119 614T203 690T291 720Q334 720 360
679T399 576T429 407Q447 280 456 223T475 114L513 273Q552 442 577 534T626 668Q656 721 707 721Q671 628 624 463T544 143T511 -87Q472 -87 449 -69T415 -1Q403 50 332 443Q324 487 319 514T312 555Q229 253 191 130T124 -40T56 -87L79 -14ZM568 755T548 761T498
780Q493 782 475 789T442 799T415 803Q380 803 350 790Q374 849 440 849Q459 849 479 843T527 825Q558 813 576 807T613 801Q643 801 672 811Q657 783 638 769T588 755Q568 755 548 761Z" />
<glyph unicode="&#xd2;" glyph-name="Ograve" horiz-adv-x="655" d="M183 -87T135 -57T60 31T32 164Q32 290 95 420T261 634T470 719Q511 719 538 691Q522 693 509 693Q425 693 338 609T193 399T136 158Q136 72 170 17T277 -39Q364 -39 436 44T550 250T592 486Q592
541 582 585T547 630Q526 630 499 595T448 509T417 419Q354 432 354 477Q354 512 387 558T466 637T549 671Q602 671 623 604T644 450Q644 290 581 168T425 -21T242 -87Q183 -87 135 -57ZM494 806T426 858Q427 877 436 887T458 897Q477 897 503 875T548 825T568
784Q568 775 561 764T543 748Q494 806 426 858Z" />
<glyph unicode="&#xd3;" glyph-name="Oacute" horiz-adv-x="655" d="M183 -87T135 -57T60 31T32 164Q32 290 95 420T261 634T470 719Q511 719 538 691Q522 693 509 693Q425 693 338 609T193 399T136 158Q136 72 170 17T277 -39Q364 -39 436 44T550 250T592 486Q592
541 582 585T547 630Q526 630 499 595T448 509T417 419Q354 432 354 477Q354 512 387 558T466 637T549 671Q602 671 623 604T644 450Q644 290 581 168T425 -21T242 -87Q183 -87 135 -57ZM540 753T534 763T527 781Q527 793 545 821T587 873T630 896Q656 896 660
861Q660 861 644 845Q616 819 592 795T551 748Q540 753 534 763Z" />
<glyph unicode="&#xd4;" glyph-name="Ocircumflex" horiz-adv-x="655" d="M183 -87T135 -57T60 31T32 164Q32 290 95 420T261 634T470 719Q511 719 538 691Q522 693 509 693Q425 693 338 609T193 399T136 158Q136 72 170 17T277 -39Q364 -39 436 44T550 250T592
486Q592 541 582 585T547 630Q526 630 499 595T448 509T417 419Q354 432 354 477Q354 512 387 558T466 637T549 671Q602 671 623 604T644 450Q644 290 581 168T425 -21T242 -87Q183 -87 135 -57ZM626 769T610 787T568 827Q522 812 466 775Q459 779 456 787T453
803Q453 821 475 841T525 875T569 889Q585 889 608 871T648 828T665 783Q665 772 659 761T640 744Q626 769 610 787Z" />
<glyph unicode="&#xd5;" glyph-name="Otilde" horiz-adv-x="655" d="M183 -87T135 -57T60 31T32 164Q32 290 95 420T261 634T470 719Q511 719 538 691Q522 693 509 693Q425 693 338 609T193 399T136 158Q136 72 170 17T277 -39Q364 -39 436 44T550 250T592 486Q592
541 582 585T547 630Q526 630 499 595T448 509T417 419Q354 432 354 477Q354 512 387 558T466 637T549 671Q602 671 623 604T644 450Q644 290 581 168T425 -21T242 -87Q183 -87 135 -57ZM603 755T583 761T533 780Q528 782 510 789T477 799T450 803Q415 803 385
790Q409 849 475 849Q494 849 514 843T562 825Q593 813 611 807T648 801Q678 801 707 811Q692 783 673 769T623 755Q603 755 583 761Z" />
<glyph unicode="&#xd6;" glyph-name="Odieresis" horiz-adv-x="655" d="M183 -87T135 -57T60 31T32 164Q32 290 95 420T261 634T470 719Q511 719 538 691Q522 693 509 693Q425 693 338 609T193 399T136 158Q136 72 170 17T277 -39Q364 -39 436 44T550 250T592
486Q592 541 582 585T547 630Q526 630 499 595T448 509T417 419Q354 432 354 477Q354 512 387 558T466 637T549 671Q602 671 623 604T644 450Q644 290 581 168T425 -21T242 -87Q183 -87 135 -57ZM461 773T449 781T436 807Q436 825 458 840T503 855Q539 855 539
823Q539 805 520 789T479 773Q461 773 449 781ZM606 753T594 762T581 787Q581 806 602 820T648 835Q685 835 685 802Q685 785 666 769T623 753Q606 753 594 762Z" />
<glyph unicode="&#xd7;" glyph-name="multiply" horiz-adv-x="405" d="M58 35T58 46Q58 70 79 101T140 176Q107 210 90 236T72 285Q72 296 81 314Q119 266 176 210Q244 274 309 322Q302 273 283 244T232 189L216 175L265 130Q283 113 300 85T325 20Q251 74 181
137L178 140Q114 80 68 19Q58 35 58 46Z" />
<glyph unicode="&#xd8;" glyph-name="Oslash" horiz-adv-x="654" d="M57 -101T32 -96Q70 -71 104 -34Q30 37 30 166Q30 290 94 419T258 633T460 718Q481 718 496 713T523 692H509Q424 692 337 608T192 399T135 158Q135 79 161 28Q313 212 572 603Q566 616 561
622T546 629Q524 629 497 593T446 507T415 418Q353 432 353 476Q353 510 386 556T464 636T545 670Q577 670 600 642Q608 653 633 662T681 671Q693 671 710 668Q693 645 663 601L634 559Q644 515 644 456Q644 292 581 168T425 -22T243 -88Q200 -88 157 -70Q134 -85
111 -93T70 -101Q57 -101 32 -96ZM363 -40T436 43T550 253T591 497Q371 184 271 46Q236 -1 211 -25Q239 -40 273 -40Q363 -40 436 43Z" />
<glyph unicode="&#xd9;" glyph-name="Ugrave" horiz-adv-x="750" d="M551 -99T525 -67T498 13L500 65Q417 -88 287 -88Q220 -88 183 -48T145 64Q145 112 159 167T203 314Q233 407 249 470T265 588Q265 678 211 678Q178 678 155 651T121 587T109 523Q109 492 122
459Q76 459 55 480T33 536Q33 577 60 620T133 691T235 719Q294 719 322 685T351 590Q351 541 336 478T291 322Q261 226 248 172T234 75Q234 25 254 -4T317 -34Q368 -34 410 7T480 108T522 227Q577 452 619 585T700 719Q710 719 727 709T764 680Q745 666 699 545T616
280T579 44Q579 2 588 -19T617 -49T673 -58Q662 -76 637 -87T588 -99Q551 -99 525 -67ZM465 806T397 858Q398 877 407 887T429 897Q448 897 474 875T519 825T539 784Q539 775 532 764T514 748Q465 806 397 858Z" />
<glyph unicode="&#xda;" glyph-name="Uacute" horiz-adv-x="750" d="M551 -99T525 -67T498 13L500 65Q417 -88 287 -88Q220 -88 183 -48T145 64Q145 112 159 167T203 314Q233 407 249 470T265 588Q265 678 211 678Q178 678 155 651T121 587T109 523Q109 492 122
459Q76 459 55 480T33 536Q33 577 60 620T133 691T235 719Q294 719 322 685T351 590Q351 541 336 478T291 322Q261 226 248 172T234 75Q234 25 254 -4T317 -34Q368 -34 410 7T480 108T522 227Q577 452 619 585T700 719Q710 719 727 709T764 680Q745 666 699 545T616
280T579 44Q579 2 588 -19T617 -49T673 -58Q662 -76 637 -87T588 -99Q551 -99 525 -67ZM511 753T505 763T498 781Q498 793 516 821T558 873T601 896Q627 896 631 861Q631 861 615 845Q587 819 563 795T522 748Q511 753 505 763Z" />
<glyph unicode="&#xdb;" glyph-name="Ucircumflex" horiz-adv-x="750" d="M551 -99T525 -67T498 13L500 65Q417 -88 287 -88Q220 -88 183 -48T145 64Q145 112 159 167T203 314Q233 407 249 470T265 588Q265 678 211 678Q178 678 155 651T121 587T109 523Q109 492
122 459Q76 459 55 480T33 536Q33 577 60 620T133 691T235 719Q294 719 322 685T351 590Q351 541 336 478T291 322Q261 226 248 172T234 75Q234 25 254 -4T317 -34Q368 -34 410 7T480 108T522 227Q577 452 619 585T700 719Q710 719 727 709T764 680Q745 666 699
545T616 280T579 44Q579 2 588 -19T617 -49T673 -58Q662 -76 637 -87T588 -99Q551 -99 525 -67ZM597 769T581 787T539 827Q493 812 437 775Q430 779 427 787T424 803Q424 821 446 841T496 875T540 889Q556 889 579 871T619 828T636 783Q636 772 630 761T611 744Q597
769 581 787Z" />
<glyph unicode="&#xdc;" glyph-name="Udieresis" horiz-adv-x="750" d="M551 -99T525 -67T498 13L500 65Q417 -88 287 -88Q220 -88 183 -48T145 64Q145 112 159 167T203 314Q233 407 249 470T265 588Q265 678 211 678Q178 678 155 651T121 587T109 523Q109 492
122 459Q76 459 55 480T33 536Q33 577 60 620T133 691T235 719Q294 719 322 685T351 590Q351 541 336 478T291 322Q261 226 248 172T234 75Q234 25 254 -4T317 -34Q368 -34 410 7T480 108T522 227Q577 452 619 585T700 719Q710 719 727 709T764 680Q745 666 699
545T616 280T579 44Q579 2 588 -19T617 -49T673 -58Q662 -76 637 -87T588 -99Q551 -99 525 -67ZM432 773T420 781T407 807Q407 825 429 840T474 855Q510 855 510 823Q510 805 491 789T450 773Q432 773 420 781ZM577 753T565 762T552 787Q552 806 573 820T619 835Q656
835 656 802Q656 785 637 769T594 753Q577 753 565 762Z" />
<glyph unicode="&#xdd;" glyph-name="Yacute" horiz-adv-x="706" d="M222 -187T182 -161T142 -88Q142 -56 162 -32T218 1Q207 -49 207 -67Q207 -108 229 -130T298 -152Q370 -152 413 -101T475 18T513 187Q527 263 534 287Q492 219 441 182T325 145Q262 145 232
180T202 273Q202 306 210 344T235 447Q250 504 258 540T266 606Q266 678 212 678Q178 678 155 653T121 590T109 515Q109 500 111 489T121 459Q75 459 54 480T32 536Q32 577 59 620T132 691T234 720Q291 720 321 689T351 610Q351 589 345 559T323 475Q305 409 296
369T287 293Q287 199 358 199Q422 199 477 267T567 439Q573 455 580 479T590 515Q621 616 643 668T693 720Q705 720 724 710T761 682Q724 625 703 576T661 450T596 193Q569 84 536 4T441 -132T286 -187Q222 -187 182 -161ZM502 753T496 763T489 781Q489 793 507
821T549 873T592 896Q618 896 622 861Q622 861 606 845Q578 819 554 795T513 748Q502 753 496 763Z" />
<glyph unicode="&#xde;" glyph-name="Thorn" horiz-adv-x="543" d="M101 -87T75 -71T49 -30Q49 -13 62 26Q164 344 242 542Q209 536 185 526T127 500Q103 488 99 488Q90 488 75 502T59 527Q176 573 259 581L271 612Q290 662 307 689T353 716Q369 716 385 698Q356
640 334 581Q432 568 502 518T573 381Q573 297 508 247T357 176T199 152Q184 102 163 21Q145 -47 133 -87Q101 -87 75 -71ZM326 201T408 256T491 402Q491 472 442 507T320 546Q270 410 208 186Q326 201 408 256Z" />
<glyph unicode="&#xdf;" glyph-name="germandbls" horiz-adv-x="471" d="M-26 -94T-15 -39T16 133Q44 311 71 430T154 637T296 726Q347 726 381 695T415 608Q415 539 365 478T245 376Q315 355 354 296T393 161Q393 102 370 46T306 -46T216 -82Q163 -82 141 -43T119
53Q119 106 136 142T186 178Q199 178 225 173Q204 162 189 119T174 26Q174 -7 181 -27T206 -48Q227 -48 252 -16T294 66T312 164Q312 217 290 265T229 345Q205 364 205 378Q205 392 232 415Q284 461 315 504T346 608Q346 640 334 662T288 685Q239 685 208 632T158
501T117 293Q96 168 78 91T31 -44T-43 -115Q-26 -94 -15 -39Z" />
<glyph unicode="&#xe0;" glyph-name="agrave" horiz-adv-x="444" d="M21 -47T-2 -24T-26 41Q-26 99 16 171T125 293T257 343Q301 343 330 321T360 263Q360 217 303 215Q339 204 339 185Q339 178 332 164T316 135Q300 109 291 90T282 53Q282 38 289 28T312 17Q340
17 383 56T468 173L487 154Q450 71 395 21T284 -30Q244 -30 223 -4T201 57Q156 3 124 -22T56 -47Q21 -47 -2 -24ZM112 4T158 54T264 186L284 213Q287 218 292 218L296 217Q301 233 301 254Q301 306 259 306Q215 306 167 259T87 147T54 36Q54 19 59 12T77 4Q112
4 158 54ZM282 467T214 519Q215 538 224 548T246 558Q265 558 291 536T336 486T356 445Q356 436 349 425T331 409Q282 467 214 519Z" />
<glyph unicode="&#xe1;" glyph-name="aacute" horiz-adv-x="444" d="M21 -47T-2 -24T-26 41Q-26 99 16 171T125 293T257 343Q301 343 330 321T360 263Q360 217 303 215Q339 204 339 185Q339 178 332 164T316 135Q300 109 291 90T282 53Q282 38 289 28T312 17Q340
17 383 56T468 173L487 154Q450 71 395 21T284 -30Q244 -30 223 -4T201 57Q156 3 124 -22T56 -47Q21 -47 -2 -24ZM112 4T158 54T264 186L284 213Q287 218 292 218L296 217Q301 233 301 254Q301 306 259 306Q215 306 167 259T87 147T54 36Q54 19 59 12T77 4Q112
4 158 54ZM295 415T289 425T282 443Q282 455 300 483T342 535T385 558Q411 558 415 523Q415 523 399 507Q371 481 347 457T306 410Q295 415 289 425Z" />
<glyph unicode="&#xe2;" glyph-name="acircumflex" horiz-adv-x="444" d="M21 -47T-2 -24T-26 41Q-26 99 16 171T125 293T257 343Q301 343 330 321T360 263Q360 217 303 215Q339 204 339 185Q339 178 332 164T316 135Q300 109 291 90T282 53Q282 38 289 28T312
17Q340 17 383 56T468 173L487 154Q450 71 395 21T284 -30Q244 -30 223 -4T201 57Q156 3 124 -22T56 -47Q21 -47 -2 -24ZM112 4T158 54T264 186L284 213Q287 218 292 218L296 217Q301 233 301 254Q301 306 259 306Q215 306 167 259T87 147T54 36Q54 19 59 12T77
4Q112 4 158 54ZM381 427T365 445T323 485Q277 470 221 433Q214 437 211 445T208 461Q208 479 230 499T280 533T324 547Q340 547 363 529T403 486T420 441Q420 430 414 419T395 402Q381 427 365 445Z" />
<glyph unicode="&#xe3;" glyph-name="atilde" horiz-adv-x="444" d="M21 -47T-2 -24T-26 41Q-26 99 16 171T125 293T257 343Q301 343 330 321T360 263Q360 217 303 215Q339 204 339 185Q339 178 332 164T316 135Q300 109 291 90T282 53Q282 38 289 28T312 17Q340
17 383 56T468 173L487 154Q450 71 395 21T284 -30Q244 -30 223 -4T201 57Q156 3 124 -22T56 -47Q21 -47 -2 -24ZM112 4T158 54T264 186L284 213Q287 218 292 218L296 217Q301 233 301 254Q301 306 259 306Q215 306 167 259T87 147T54 36Q54 19 59 12T77 4Q112
4 158 54ZM383 397T363 403T313 422Q308 424 290 431T257 441T230 445Q195 445 165 432Q189 491 255 491Q274 491 294 485T342 467Q373 455 391 449T428 443Q458 443 487 453Q472 425 453 411T403 397Q383 397 363 403Z" />
<glyph unicode="&#xe4;" glyph-name="adieresis" horiz-adv-x="444" d="M21 -47T-2 -24T-26 41Q-26 99 16 171T125 293T257 343Q301 343 330 321T360 263Q360 217 303 215Q339 204 339 185Q339 178 332 164T316 135Q300 109 291 90T282 53Q282 38 289 28T312 17Q340
17 383 56T468 173L487 154Q450 71 395 21T284 -30Q244 -30 223 -4T201 57Q156 3 124 -22T56 -47Q21 -47 -2 -24ZM112 4T158 54T264 186L284 213Q287 218 292 218L296 217Q301 233 301 254Q301 306 259 306Q215 306 167 259T87 147T54 36Q54 19 59 12T77 4Q112
4 158 54ZM213 437T201 445T188 471Q188 489 210 504T255 519Q291 519 291 487Q291 469 272 453T231 437Q213 437 201 445ZM358 417T346 426T333 451Q333 470 354 484T400 499Q437 499 437 466Q437 449 418 433T375 417Q358 417 346 426Z" />
<glyph unicode="&#xe5;" glyph-name="aring" horiz-adv-x="444" d="M21 -47T-2 -24T-26 41Q-26 99 16 171T125 293T257 343Q301 343 330 321T360 263Q360 217 303 215Q339 204 339 185Q339 178 332 164T316 135Q300 109 291 90T282 53Q282 38 289 28T312 17Q340
17 383 56T468 173L487 154Q450 71 395 21T284 -30Q244 -30 223 -4T201 57Q156 3 124 -22T56 -47Q21 -47 -2 -24ZM112 4T158 54T264 186L284 213Q287 218 292 218L296 217Q301 233 301 254Q301 306 259 306Q215 306 167 259T87 147T54 36Q54 19 59 12T77 4Q112
4 158 54ZM282 398T263 414T243 455Q243 478 259 504T304 547T367 564Q408 564 428 548T449 507Q449 483 432 458T385 415T321 398Q282 398 263 414ZM354 433T376 455T398 500Q398 511 389 518T363 526Q338 526 317 505T295 461Q296 450 304 442T329 433Q354 433
376 455Z" />
<glyph unicode="&#xe6;" glyph-name="ae" horiz-adv-x="556" d="M22 -47T-2 -24T-26 41Q-26 99 17 171T126 294T259 344Q286 344 304 335T332 307Q364 331 398 345T464 360Q535 360 535 294Q535 246 498 204T403 134T283 100Q281 90 281 72Q283 41 300 20T358
-1Q419 -1 481 48T582 172L601 156Q560 65 488 11T337 -44Q281 -44 247 -16T205 56Q162 4 128 -21T58 -47Q22 -47 -2 -24ZM362 163T420 207T478 301Q478 315 462 315Q433 315 400 289T337 222T293 137Q362 163 420 207ZM126 8T204 105Q211 148 236 194T299 276Q291
303 257 303Q213 303 167 257T89 148T58 39Q58 23 63 16T80 8Q126 8 204 105Z" />
<glyph unicode="&#xe7;" glyph-name="ccedilla" horiz-adv-x="333" d="M291 -63T306 -76T321 -113Q321 -140 303 -168T254 -214T189 -233Q161 -233 142 -220T123 -192Q123 -183 131 -172T155 -149Q168 -194 195 -194Q211 -194 230 -180T262 -146T276 -111Q276
-95 260 -95Q251 -95 239 -101T214 -116Q212 -117 200 -124T181 -132Q173 -132 167 -124T160 -107Q160 -104 180 -77T219 -27Q166 -56 113 -56Q59 -56 27 -23T-6 76Q-6 140 26 201T111 300T216 338Q256 338 275 318T295 268Q295 238 281 213T245 187Q226 187 214
206Q226 214 236 234T246 281Q246 298 227 298Q195 298 158 260T96 168T71 70Q71 38 87 17T142 -5Q180 -5 221 17T299 79T356 173L376 155Q358 109 328 69T260 0L213 -75Q246 -63 267 -63Q291 -63 306 -76Z" />
<glyph unicode="&#xe8;" glyph-name="egrave" horiz-adv-x="341" d="M53 -44T18 -10T-17 77Q-17 135 22 202T122 315T242 361Q273 361 294 346T315 294Q315 246 278 204T183 134T63 100Q61 90 61 77Q61 51 75 25T138 -1Q199 -1 262 48T365 172L385 156Q345 66
271 11T116 -44Q53 -44 18 -10ZM110 141T154 166T230 227T261 299Q261 310 257 314T244 318Q215 318 181 291T117 221T74 137Q110 141 154 166ZM264 476T196 528Q197 547 206 557T228 567Q247 567 273 545T318 495T338 454Q338 445 331 434T313 418Q264 476 196
528Z" />
<glyph unicode="&#xe9;" glyph-name="eacute" horiz-adv-x="341" d="M53 -44T18 -10T-17 77Q-17 135 22 202T122 315T242 361Q273 361 294 346T315 294Q315 246 278 204T183 134T63 100Q61 90 61 77Q61 51 75 25T138 -1Q199 -1 262 48T365 172L385 156Q345 66
271 11T116 -44Q53 -44 18 -10ZM110 141T154 166T230 227T261 299Q261 310 257 314T244 318Q215 318 181 291T117 221T74 137Q110 141 154 166ZM277 424T271 434T264 452Q264 464 282 492T324 544T367 567Q393 567 397 532Q397 532 381 516Q353 490 329 466T288
419Q277 424 271 434Z" />
<glyph unicode="&#xea;" glyph-name="ecircumflex" horiz-adv-x="341" d="M53 -44T18 -10T-17 77Q-17 135 22 202T122 315T242 361Q273 361 294 346T315 294Q315 246 278 204T183 134T63 100Q61 90 61 77Q61 51 75 25T138 -1Q199 -1 262 48T365 172L385 156Q345
66 271 11T116 -44Q53 -44 18 -10ZM110 141T154 166T230 227T261 299Q261 310 257 314T244 318Q215 318 181 291T117 221T74 137Q110 141 154 166ZM363 436T347 454T305 494Q259 479 203 442Q196 446 193 454T190 470Q190 488 212 508T262 542T306 556Q322 556
345 538T385 495T402 450Q402 439 396 428T377 411Q363 436 347 454Z" />
<glyph unicode="&#xeb;" glyph-name="edieresis" horiz-adv-x="341" d="M53 -44T18 -10T-17 77Q-17 135 22 202T122 315T242 361Q273 361 294 346T315 294Q315 246 278 204T183 134T63 100Q61 90 61 77Q61 51 75 25T138 -1Q199 -1 262 48T365 172L385 156Q345
66 271 11T116 -44Q53 -44 18 -10ZM110 141T154 166T230 227T261 299Q261 310 257 314T244 318Q215 318 181 291T117 221T74 137Q110 141 154 166ZM195 446T183 454T170 480Q170 498 192 513T237 528Q273 528 273 496Q273 478 254 462T213 446Q195 446 183 454ZM340
426T328 435T315 460Q315 479 336 493T382 508Q419 508 419 475Q419 458 400 442T357 426Q340 426 328 435Z" />
<glyph unicode="&#xec;" glyph-name="igrave" horiz-adv-x="244" d="M38 -30T15 -5T-8 59Q-8 99 14 167T71 288T141 340Q154 340 162 333T171 311Q171 302 163 287T137 242Q105 189 87 149T68 72Q68 41 79 30T113 19Q192 19 270 172L285 156Q250 68 196 19T80
-30Q38 -30 15 -5ZM156 473T88 525Q89 544 98 554T120 564Q139 564 165 542T210 492T230 451Q230 442 223 431T205 415Q156 473 88 525Z" />
<glyph unicode="&#xed;" glyph-name="iacute" horiz-adv-x="229" d="M38 -30T15 -5T-8 59Q-8 99 14 167T71 288T141 340Q154 340 162 333T171 311Q171 302 163 287T137 242Q105 189 87 149T68 72Q68 41 79 30T113 19Q192 19 270 172L285 156Q250 68 196 19T80
-30Q38 -30 15 -5ZM182 415T176 425T169 443Q169 455 187 483T229 535T272 558Q298 558 302 523Q302 523 286 507Q258 481 234 457T193 410Q182 415 176 425Z" />
<glyph unicode="&#xee;" glyph-name="icircumflex" horiz-adv-x="270" d="M38 -30T15 -5T-8 59Q-8 99 14 167T71 288T141 340Q154 340 162 333T171 311Q171 302 163 287T137 242Q105 189 87 149T68 72Q68 41 79 30T113 19Q192 19 270 172L285 156Q250 68 196 19T80
-30Q38 -30 15 -5ZM272 427T256 445T214 485Q168 470 112 433Q105 437 102 445T99 461Q99 479 121 499T171 533T215 547Q231 547 254 529T294 486T311 441Q311 430 305 419T286 402Q272 427 256 445Z" />
<glyph unicode="&#xef;" glyph-name="idieresis" horiz-adv-x="228" d="M38 -30T15 -5T-8 59Q-8 99 14 167T71 288T141 340Q154 340 162 333T171 311Q171 302 163 287T137 242Q105 189 87 149T68 72Q68 41 79 30T113 19Q192 19 270 172L285 156Q250 68 196 19T80
-30Q38 -30 15 -5ZM84 435T72 443T59 469Q59 487 81 502T126 517Q162 517 162 485Q162 467 143 451T102 435Q84 435 72 443ZM229 415T217 424T204 449Q204 468 225 482T271 497Q308 497 308 464Q308 447 289 431T246 415Q229 415 217 424Z" />
<glyph unicode="&#xf0;" glyph-name="eth" horiz-adv-x="488" d="M28 -30T5 -7T-19 58Q-19 114 23 188T130 314T255 367Q284 367 300 355T316 326Q316 316 308 300Q290 323 259 323Q212 323 167 278T93 171T64 69Q64 49 72 38T95 27Q135 27 199 100T312 278T360
478Q360 496 356 521Q327 516 293 509T232 495Q232 531 261 546T344 568Q320 637 249 692Q260 706 272 712T300 719Q345 719 379 678T431 577Q504 584 537 594Q515 558 497 548T441 532Q445 502 445 489Q445 445 431 393T388 261Q362 186 350 143T337 65Q337 46
342 37T361 28Q382 28 410 47T467 100T516 178L535 166Q499 81 442 28T328 -26Q290 -26 273 -2T255 62Q255 87 264 136Q215 65 159 18T59 -30Q28 -30 5 -7Z" />
<glyph unicode="&#xf1;" glyph-name="ntilde" horiz-adv-x="473" d="M299 -20T278 -1T257 49Q257 62 261 79T271 113Q285 159 285 181Q285 201 275 210T250 220Q197 220 143 154T27 -15Q-16 -15 -38 14L-29 39Q30 182 30 251Q38 260 53 267T82 275Q99 275 108
267T117 245Q117 218 100 156Q145 216 193 254T289 292Q329 292 351 265T373 199Q373 177 368 157T351 112Q334 70 334 49Q334 34 341 27T358 20Q391 20 429 65T499 173L516 159Q480 76 437 28T337 -20Q299 -20 278 -1ZM349 351T329 357T279 376Q274 378 256 385T223
395T196 399Q161 399 131 386Q155 445 221 445Q240 445 260 439T308 421Q339 409 357 403T394 397Q424 397 453 407Q438 379 419 365T369 351Q349 351 329 357Z" />
<glyph unicode="&#xf2;" glyph-name="ograve" horiz-adv-x="372" d="M25 -32T7 -5T-12 62Q-12 104 5 149T51 224T108 254Q120 254 139 246Q145 292 171 322T246 352Q286 352 305 330T324 271Q324 236 306 191T258 101Q270 95 286 95Q314 95 346 113T395 170L413
157Q392 109 357 84T283 59Q260 59 233 68Q196 24 152 -4T66 -32Q25 -32 7 -5ZM249 159T265 199T282 271Q282 315 254 315Q241 315 227 302T204 268T195 220Q195 197 203 168T224 122Q249 159 265 199ZM120 19T146 39T198 90Q141 140 138 237Q126 231 109 200T80
131T68 65Q68 19 102 19Q120 19 146 39ZM259 481T191 533Q192 552 201 562T223 572Q242 572 268 550T313 500T333 459Q333 450 326 439T308 423Q259 481 191 533Z" />
<glyph unicode="&#xf3;" glyph-name="oacute" horiz-adv-x="372" d="M25 -32T7 -5T-12 62Q-12 104 5 149T51 224T108 254Q120 254 139 246Q145 292 171 322T246 352Q286 352 305 330T324 271Q324 236 306 191T258 101Q270 95 286 95Q314 95 346 113T395 170L413
157Q392 109 357 84T283 59Q260 59 233 68Q196 24 152 -4T66 -32Q25 -32 7 -5ZM249 159T265 199T282 271Q282 315 254 315Q241 315 227 302T204 268T195 220Q195 197 203 168T224 122Q249 159 265 199ZM120 19T146 39T198 90Q141 140 138 237Q126 231 109 200T80
131T68 65Q68 19 102 19Q120 19 146 39ZM272 429T266 439T259 457Q259 469 277 497T319 549T362 572Q388 572 392 537Q392 537 376 521Q348 495 324 471T283 424Q272 429 266 439Z" />
<glyph unicode="&#xf4;" glyph-name="ocircumflex" horiz-adv-x="372" d="M25 -32T7 -5T-12 62Q-12 104 5 149T51 224T108 254Q120 254 139 246Q145 292 171 322T246 352Q286 352 305 330T324 271Q324 236 306 191T258 101Q270 95 286 95Q314 95 346 113T395 170L413
157Q392 109 357 84T283 59Q260 59 233 68Q196 24 152 -4T66 -32Q25 -32 7 -5ZM249 159T265 199T282 271Q282 315 254 315Q241 315 227 302T204 268T195 220Q195 197 203 168T224 122Q249 159 265 199ZM120 19T146 39T198 90Q141 140 138 237Q126 231 109 200T80
131T68 65Q68 19 102 19Q120 19 146 39ZM358 441T342 459T300 499Q254 484 198 447Q191 451 188 459T185 475Q185 493 207 513T257 547T301 561Q317 561 340 543T380 500T397 455Q397 444 391 433T372 416Q358 441 342 459Z" />
<glyph unicode="&#xf5;" glyph-name="otilde" horiz-adv-x="372" d="M25 -32T7 -5T-12 62Q-12 104 5 149T51 224T108 254Q120 254 139 246Q145 292 171 322T246 352Q286 352 305 330T324 271Q324 236 306 191T258 101Q270 95 286 95Q314 95 346 113T395 170L413
157Q392 109 357 84T283 59Q260 59 233 68Q196 24 152 -4T66 -32Q25 -32 7 -5ZM249 159T265 199T282 271Q282 315 254 315Q241 315 227 302T204 268T195 220Q195 197 203 168T224 122Q249 159 265 199ZM120 19T146 39T198 90Q141 140 138 237Q126 231 109 200T80
131T68 65Q68 19 102 19Q120 19 146 39ZM360 411T340 417T290 436Q285 438 267 445T234 455T207 459Q172 459 142 446Q166 505 232 505Q251 505 271 499T319 481Q350 469 368 463T405 457Q435 457 464 467Q449 439 430 425T380 411Q360 411 340 417Z" />
<glyph unicode="&#xf6;" glyph-name="odieresis" horiz-adv-x="350" d="M25 -32T7 -5T-12 62Q-12 104 5 149T51 224T108 254Q120 254 139 246Q145 292 171 322T246 352Q286 352 305 330T324 271Q324 236 306 191T258 101Q270 95 286 95Q314 95 346 113T395 170L413
157Q392 109 357 84T283 59Q260 59 233 68Q196 24 152 -4T66 -32Q25 -32 7 -5ZM249 159T265 199T282 271Q282 315 254 315Q241 315 227 302T204 268T195 220Q195 197 203 168T224 122Q249 159 265 199ZM120 19T146 39T198 90Q141 140 138 237Q126 231 109 200T80
131T68 65Q68 19 102 19Q120 19 146 39ZM192 431T180 439T167 465Q167 483 189 498T234 513Q270 513 270 481Q270 463 251 447T210 431Q192 431 180 439ZM337 411T325 420T312 445Q312 464 333 478T379 493Q416 493 416 460Q416 443 397 427T354 411Q337 411 325
420Z" />
<glyph unicode="&#xf7;" glyph-name="divide" horiz-adv-x="491" d="M226 234T214 242T202 267Q202 285 223 299T267 314Q301 314 301 283Q301 266 283 250T243 234Q226 234 214 242ZM37 156T89 167T235 179Q305 179 428 169Q394 146 352 137T228 128Q120 128
26 116Q37 156 89 167ZM168 -15T156 -7T144 18Q144 36 165 50T209 65Q243 65 243 34Q243 17 225 1T185 -15Q168 -15 156 -7Z" />
<glyph unicode="&#xf8;" glyph-name="oslash" horiz-adv-x="372" d="M-36 -51T-45 -48Q-23 -35 6 -5Q-12 20 -12 62Q-12 104 5 149T51 224T108 254Q120 254 139 246Q145 292 171 322T246 352Q270 352 288 342L312 374Q317 381 328 385T356 389Q368 389 380 386Q369
370 319 305Q324 288 324 271Q324 236 306 191T258 101Q275 91 295 91Q324 91 350 111T395 170L413 157Q392 109 357 84T283 59Q260 59 233 68Q196 24 152 -4T66 -32Q49 -32 40 -28Q5 -51 -26 -51Q-36 -51 -45 -48ZM266 312Q262 315 254 315Q241 315 227 302T204
267T195 218L266 312ZM247 154T262 190T281 258L205 160Q211 136 224 122Q247 154 262 190ZM129 134T150 162Q140 192 138 237Q126 230 109 200T80 131T68 62Q129 134 150 162ZM120 19T146 39T198 90Q180 106 172 119L148 89Q109 41 101 29L93 20Q96 19 102 19Q120
19 146 39Z" />
<glyph unicode="&#xf9;" glyph-name="ugrave" horiz-adv-x="441" d="M43 -30T21 1T-1 74Q-1 110 15 164T52 258T90 298Q97 298 111 291T137 272Q116 241 94 183T71 83Q71 64 76 44T101 23Q138 23 189 105T278 273Q338 263 338 239Q338 237 326 210Q305 161 290
119T275 46Q275 11 302 11Q323 11 352 30T413 86T467 171L482 159Q460 105 425 62T350 -5T272 -30Q228 -30 216 0T203 82Q169 30 139 0T76 -30Q43 -30 21 1ZM221 427T153 479Q154 498 163 508T185 518Q204 518 230 496T275 446T295 405Q295 396 288 385T270 369Q221
427 153 479Z" />
<glyph unicode="&#xfa;" glyph-name="uacute" horiz-adv-x="441" d="M43 -30T21 1T-1 74Q-1 110 15 164T52 258T90 298Q97 298 111 291T137 272Q116 241 94 183T71 83Q71 64 76 44T101 23Q138 23 189 105T278 273Q338 263 338 239Q338 237 326 210Q305 161 290
119T275 46Q275 11 302 11Q323 11 352 30T413 86T467 171L482 159Q460 105 425 62T350 -5T272 -30Q228 -30 216 0T203 82Q169 30 139 0T76 -30Q43 -30 21 1ZM234 375T228 385T221 403Q221 415 239 443T281 495T324 518Q350 518 354 483Q354 483 338 467Q310 441
286 417T245 370Q234 375 228 385Z" />
<glyph unicode="&#xfb;" glyph-name="ucircumflex" horiz-adv-x="441" d="M43 -30T21 1T-1 74Q-1 110 15 164T52 258T90 298Q97 298 111 291T137 272Q116 241 94 183T71 83Q71 64 76 44T101 23Q138 23 189 105T278 273Q338 263 338 239Q338 237 326 210Q305 161
290 119T275 46Q275 11 302 11Q323 11 352 30T413 86T467 171L482 159Q460 105 425 62T350 -5T272 -30Q228 -30 216 0T203 82Q169 30 139 0T76 -30Q43 -30 21 1ZM320 387T304 405T262 445Q216 430 160 393Q153 397 150 405T147 421Q147 439 169 459T219 493T263
507Q279 507 302 489T342 446T359 401Q359 390 353 379T334 362Q320 387 304 405Z" />
<glyph unicode="&#xfc;" glyph-name="udieresis" horiz-adv-x="441" d="M43 -30T21 1T-1 74Q-1 110 15 164T52 258T90 298Q97 298 111 291T137 272Q116 241 94 183T71 83Q71 64 76 44T101 23Q138 23 189 105T278 273Q338 263 338 239Q338 237 326 210Q305 161
290 119T275 46Q275 11 302 11Q323 11 352 30T413 86T467 171L482 159Q460 105 425 62T350 -5T272 -30Q228 -30 216 0T203 82Q169 30 139 0T76 -30Q43 -30 21 1ZM152 397T140 405T127 431Q127 449 149 464T194 479Q230 479 230 447Q230 429 211 413T170 397Q152
397 140 405ZM297 377T285 386T272 411Q272 430 293 444T339 459Q376 459 376 426Q376 409 357 393T314 377Q297 377 285 386Z" />
<glyph unicode="&#xfd;" glyph-name="yacute" horiz-adv-x="400" d="M20 -280T0 -264T-20 -215Q-20 -176 9 -144T78 -90T179 -39Q196 4 227 117Q191 66 157 37T83 8Q50 8 24 28T-2 91Q-2 125 14 177T52 269T90 309Q100 309 120 299T144 276Q125 250 103 189T80
93Q80 56 109 56Q139 56 174 91T241 177Q243 184 247 210T265 255T305 275Q309 275 337 271Q336 246 314 162T261 -2Q310 18 353 59T422 167L439 153Q418 84 367 37T248 -40Q201 -151 153 -215T48 -280Q20 -280 0 -264ZM59 -243T93 -201T160 -83Q102 -112 61 -147T19
-215Q19 -226 23 -234T38 -243Q59 -243 93 -201ZM226 386T220 396T213 414Q213 426 231 454T273 506T316 529Q342 529 346 494Q346 494 330 478Q302 452 278 428T237 381Q226 386 220 396Z" />
<glyph unicode="&#xfe;" glyph-name="thorn" horiz-adv-x="415" d="M-62 -280T-71 -271T-86 -250T-92 -234Q-34 -42 0 112T58 500Q60 515 64 519T85 523Q114 523 126 511T139 465Q139 416 107 226Q139 276 180 309T271 342Q320 342 352 309T385 222Q385 168 353
109T265 9T139 -31Q108 -31 89 -23T70 -5Q70 2 78 4T103 6Q155 6 201 37T276 115T305 211Q305 242 292 262T250 282Q218 282 185 257T126 195T87 129Q39 -74 5 -177T-54 -280Q-62 -280 -71 -271Z" />
<glyph unicode="&#xff;" glyph-name="ydieresis" horiz-adv-x="400" d="M20 -280T0 -264T-20 -215Q-20 -176 9 -144T78 -90T179 -39Q196 4 227 117Q191 66 157 37T83 8Q50 8 24 28T-2 91Q-2 125 14 177T52 269T90 309Q100 309 120 299T144 276Q125 250 103 189T80
93Q80 56 109 56Q139 56 174 91T241 177Q243 184 247 210T265 255T305 275Q309 275 337 271Q336 246 314 162T261 -2Q310 18 353 59T422 167L439 153Q418 84 367 37T248 -40Q201 -151 153 -215T48 -280Q20 -280 0 -264ZM59 -243T93 -201T160 -83Q102 -112 61 -147T19
-215Q19 -226 23 -234T38 -243Q59 -243 93 -201ZM144 408T132 416T119 442Q119 460 141 475T186 490Q222 490 222 458Q222 440 203 424T162 408Q144 408 132 416ZM289 388T277 397T264 422Q264 441 285 455T331 470Q368 470 368 437Q368 420 349 404T306 388Q289
388 277 397Z" />
<glyph unicode="&#x2013;" glyph-name="endash" horiz-adv-x="755" d="M56 144T81 164T158 191T307 199Q426 199 527 188Q539 187 577 184T658 180Q610 149 565 135T485 120Q410 120 322 125Q288 128 255 128Q183 128 156 126T91 114Q73 109 50 105Q56 144 81 164Z" />
<glyph unicode="&#x2014;" glyph-name="emdash" horiz-adv-x="917" d="M71 160T149 179T381 199Q454 199 527 196T664 188Q757 181 821 180Q772 148 728 133T651 118Q573 118 417 125Q389 126 362 127T312 128Q220 128 175 124T63 105Q71 160 149 179Z" />
<glyph unicode="&#x2018;" glyph-name="quoteleft" horiz-adv-x="183" d="M220 575T195 608Q171 639 160 657T147 689Q147 702 159 713T185 724Q191 707 220 672Q238 651 246 638T255 614Q255 603 245 592T221 573Q220 575 195 608Z" />
<glyph unicode="&#x2019;" glyph-name="quoteright" horiz-adv-x="164" d="M163 579T153 590T143 612Q143 623 151 636T178 670Q207 705 213 722Q227 722 239 711T251 687Q250 674 239 656T203 606Q178 573 177 571Q163 579 153 590Z" />
<glyph unicode="&#x201a;" glyph-name="quotesinglbase" horiz-adv-x="216" d="M5 -72T5 -44Q5 -24 14 0T37 42T68 59Q81 59 90 49T100 26Q81 5 70 -15T47 -57T32 -88Q5 -72 5 -44Z" />
<glyph unicode="&#x201c;" glyph-name="quotedblleft" horiz-adv-x="307" d="M220 575T195 608Q171 639 160 657T147 689Q147 702 159 713T185 724Q191 707 220 672Q238 651 246 638T255 614Q255 603 245 592T221 573Q220 575 195 608ZM344 575T319 608Q295 639
284 657T271 689Q271 702 283 713T309 724Q315 707 344 672Q362 651 370 638T379 614Q379 603 369 592T345 573Q344 575 319 608Z" />
<glyph unicode="&#x201d;" glyph-name="quotedblright" horiz-adv-x="290" d="M164 581T154 592T144 614Q144 625 152 638T179 672Q208 707 214 724Q228 724 240 713T252 689Q251 676 240 658T204 608Q179 575 178 573Q164 581 154 592ZM288 581T278 592T268 614Q268
625 276 638T303 672Q332 707 338 724Q352 724 364 713T376 689Q375 676 364 658T328 608Q303 575 302 573Q288 581 278 592Z" />
<glyph unicode="&#x201e;" glyph-name="quotedblbase" horiz-adv-x="326" d="M5 -72T5 -44Q5 -24 14 0T37 42T68 59Q81 59 90 49T100 26Q81 5 70 -15T47 -57T32 -88Q5 -72 5 -44ZM115 -72T115 -44Q115 -24 124 0T147 42T178 59Q191 59 200 49T210 26Q191 5 180
-15T157 -57T142 -88Q115 -72 115 -44Z" />
<glyph unicode="&#x2022;" glyph-name="bullet" horiz-adv-x="272" d="M89 113T75 125T61 158Q61 182 82 206T129 230Q154 230 170 215T187 177Q187 164 175 149T145 124T109 113Q89 113 75 125Z" />
<glyph unicode="&#x2039;" glyph-name="guilsinglleft" horiz-adv-x="324" d="M171 41T133 61T63 110T25 158Q76 178 131 226T221 321Q228 313 231 303T235 287Q235 251 190 217T76 147Q109 123 141 107T239 67Q215 41 195 41Q171 41 133 61Z" />
<glyph unicode="&#x203a;" glyph-name="guilsinglright" horiz-adv-x="338" d="M91 41T67 67Q133 91 165 107T230 147Q162 181 117 215T71 285Q71 303 85 321Q119 275 174 227T281 158Q275 138 243 110T173 62T111 41Q91 41 67 67Z" />
</font>
</defs>
</svg>
