<?xml version="1.0" standalone="no"?>
<!DOCTYPE svg PUBLIC "-//W3C//DTD SVG 1.1//EN" "http://www.w3.org/Graphics/SVG/1.1/DTD/svg11.dtd">
<svg xmlns="http://www.w3.org/2000/svg">
<defs >
<font id="DancingScript" horiz-adv-x="497" ><font-face
    font-family="Dancing Script"
    units-per-em="1000"
    panose-1="3 8 6 0 4 5 7 0 13 0"
    ascent="920"
    descent="-280"
    alphabetic="0" />
<glyph unicode=" " glyph-name="space" horiz-adv-x="260" />
<glyph unicode="!" glyph-name="exclam" horiz-adv-x="260" d="M40 134T55 181T95 293Q173 495 225 607T314 720Q322 720 328 714T334 697Q334 671 278 549T149 292T40 103Q40 134 55 181ZM-3 -10T-12 -3T-21 17Q-21 33 -2 45T37 58Q63 58 63 34Q63 19 47 5T11
-10Q-3 -10 -12 -3Z" />
<glyph unicode="&quot;" glyph-name="quotedbl" horiz-adv-x="245" d="M131 586T131 613Q131 646 151 683T192 720Q202 720 209 712T217 692Q196 670 183 648T161 605T148 576Q131 586 131 613ZM251 586T251 613Q251 646 271 683T312 720Q322 720 329 712T337
692Q316 670 303 648T281 605T268 576Q251 586 251 613Z" />
<glyph unicode="#" glyph-name="numbersign" horiz-adv-x="668" d="M148 -106T212 170Q148 167 65 160L9 155Q12 191 69 207T225 225Q234 271 239 289L202 286Q152 284 103 279L46 274Q51 338 251 343Q275 453 293 553L318 675Q322 693 330 703T363 720L343 615Q315
462 292 344H296Q340 344 420 340Q435 410 463 553L488 675Q492 693 500 703T533 720L515 627L460 338Q491 337 539 333Q629 327 662 327Q638 306 615 301T561 295L452 294Q451 290 450 286T448 274Q439 230 437 218L501 214Q591 208 624 208Q600 187 577 182T524
176Q457 176 428 175Q402 48 383 -20T338 -125T272 -162Q318 -106 383 172H257Q230 42 212 -24T168 -126T102 -162Q148 -106 212 170ZM410 293Q355 293 281 291L268 225Q314 225 394 221L410 293Z" />
<glyph unicode="$" glyph-name="dollar" horiz-adv-x="531" d="M157 -134T184 -56Q105 -51 53 -13T1 95Q1 137 20 166T70 211T129 226Q102 197 88 162T74 93Q74 42 105 12T194 -24Q226 84 266 263Q220 289 194 309T148 360T129 433Q129 486 158 533T238 611T346
652Q347 657 350 673T365 702T396 720Q389 685 384 655Q447 655 472 628T497 551Q497 512 485 471T449 390Q432 394 423 405T414 432Q414 449 431 498Q433 503 442 532T451 582Q451 606 434 618T379 631L320 319Q365 295 393 274T441 221T461 143Q461 85 430 42T347
-26T235 -56Q215 -109 191 -135T135 -162Q157 -134 184 -56ZM299 414T324 543L341 627Q298 618 264 592T211 529T192 458Q192 417 215 391T283 339Q299 414 324 543ZM313 -17T352 20T392 113Q392 156 369 185T304 241Q260 21 245 -24Q313 -17 352 20Z" />
<glyph unicode="%" glyph-name="percent" horiz-adv-x="698" d="M122 -43T211 104T386 417T508 675Q513 690 541 705T592 720Q573 672 448 433T263 97Q206 6 162 -40T78 -87Q122 -43 211 104ZM140 347T119 378T98 455Q98 501 117 551T169 635T243 669Q281 669
304 641T327 565Q327 521 308 470T254 383T180 347Q140 347 119 378ZM209 385T229 415T262 490T275 573Q275 633 243 633Q216 633 196 602T164 526T153 447Q153 419 161 402T186 385Q209 385 229 415ZM463 0T442 31T421 108Q421 154 440 204T492 288T566 322Q604
322 627 294T650 218Q650 174 631 123T577 36T503 0Q463 0 442 31ZM532 38T552 68T585 143T598 226Q598 286 566 286Q539 286 519 255T487 179T476 101Q476 72 484 55T509 38Q532 38 552 68Z" />
<glyph unicode="&amp;" glyph-name="ampersand" horiz-adv-x="616" d="M134 -87T90 -63T21 3T-3 95Q-3 156 32 213T126 308T256 354Q218 385 199 426T180 512Q180 565 207 613T281 690T387 719Q441 719 468 692T496 613Q496 577 484 542T454 483T420 460Q409 460
399 469T383 492Q422 526 443 559T465 629Q465 661 448 680T397 699Q330 699 292 640T253 495Q253 394 311 344Q247 333 197 294T118 201T90 92Q90 35 121 -9T218 -53Q287 -53 351 -8T458 111T510 264Q481 263 456 260T403 250L379 245Q380 284 408 299T483 315Q520
315 576 305Q585 304 604 301T636 298Q626 277 617 272T594 266Q571 265 536 265Q527 174 477 93T351 -37T192 -87Q134 -87 90 -63Z" />
<glyph unicode="&apos;" glyph-name="quotesingle" horiz-adv-x="125" d="M131 586T131 613Q131 646 151 683T192 720Q202 720 209 712T217 692Q196 670 183 648T161 605T148 576Q131 586 131 613Z" />
<glyph unicode="(" glyph-name="parenleft" horiz-adv-x="258" d="M105 -65T81 13T57 189Q57 336 112 457T241 649T364 720Q239 631 177 479T115 162Q115 88 127 30T162 -66Q156 -80 142 -87Q105 -65 81 13Z" />
<glyph unicode=")" glyph-name="parenright" horiz-adv-x="268" d="M-51 -84T-61 -63Q51 16 123 156T196 475Q196 545 181 604T125 720Q154 713 182 676T228 577T247 435Q247 297 194 178T70 -14T-39 -87Q-51 -84 -61 -63Z" />
<glyph unicode="*" glyph-name="asterisk" horiz-adv-x="391" d="M338 424T266 532Q235 472 211 440T163 408Q180 432 190 451T213 501Q218 510 222 520T231 539H205Q170 539 146 545T116 572Q136 573 156 574T199 576L233 577Q185 656 185 692Q185 702 191 709T199
718Q203 710 216 682T242 631T267 588L276 607Q299 659 317 685T362 718Q356 702 344 676T326 640Q300 588 295 577Q340 580 347 580Q407 580 433 551L303 539L314 522Q334 492 344 468T355 404Q338 424 266 532Z" />
<glyph unicode="+" glyph-name="plus" horiz-adv-x="408" d="M158 33T160 66T162 155Q111 155 79 153T3 144Q12 169 53 180T162 193V243Q162 306 191 346Q199 277 200 193Q288 192 360 184Q320 155 257 155H200Q198 83 188 41T151 -11Q158 33 160 66Z" />
<glyph unicode="," glyph-name="comma" horiz-adv-x="196" d="M-10 -78T-10 -51Q-10 -18 10 19T51 56Q61 56 68 48T76 28Q55 6 42 -16T20 -59T7 -88Q-10 -78 -10 -51Z" />
<glyph unicode="-" glyph-name="hyphen" horiz-adv-x="484" d="M46 172T95 182T225 193Q306 193 393 184Q353 155 290 155H195Q142 155 112 153T36 144Q46 172 95 182Z" />
<glyph unicode="." glyph-name="period" horiz-adv-x="214" d="M26 -10T17 -3T8 17Q8 33 27 45T66 58Q92 58 92 34Q92 19 76 5T40 -10Q26 -10 17 -3Z" />
<glyph unicode="/" glyph-name="slash" horiz-adv-x="330" d="M25 -69T312 675Q317 690 345 705T396 720Q381 681 278 431T107 22Q70 -65 23 -113T-68 -162Q25 -69 312 675Z" />
<glyph unicode="0" glyph-name="zero" horiz-adv-x="630" d="M150 -87T102 -13T53 174Q53 291 100 419T231 634T415 720Q475 720 519 690T588 604T613 474Q613 338 564 208T430 -5T244 -87Q150 -87 102 -13ZM330 -53T394 35T498 253T537 495Q537 586 508 639T416
693Q332 693 269 602T171 382T137 153Q137 59 169 3T258 -53Q330 -53 394 35Z" />
<glyph unicode="1" glyph-name="one" horiz-adv-x="365" d="M11 -87T-11 -76T-46 -46Q-26 -48 -14 -48Q30 -48 94 -37Q121 25 144 127T198 389Q220 511 238 584Q145 518 123 518Q110 518 104 524T98 547Q131 564 195 615T308 720Q317 712 317 689Q317 671 305
627Q298 597 294 577Q270 411 230 242T142 -30Q163 -27 182 -27Q224 -27 248 -39T279 -83Q234 -78 200 -78Q156 -78 108 -83Q56 -87 30 -87Q11 -87 -11 -76Z" />
<glyph unicode="2" glyph-name="two" horiz-adv-x="559" d="M364 -87T317 -72T206 -29Q197 -25 186 -21T163 -11Q96 -54 49 -54Q19 -54 0 -39T-19 0Q-19 48 56 48Q91 48 161 34Q224 90 286 179T389 367T429 551Q429 623 400 658T323 693Q259 693 223 636T186 491Q186
471 188 457T198 423H193Q157 432 140 452T123 512Q123 566 150 614T227 691T339 720Q387 720 423 696T479 631T499 538Q499 445 452 341Q413 254 347 168T209 23L237 17Q371 -14 424 -14Q443 -14 459 -9T500 11Q487 -40 463 -63T398 -87Q364 -87 317 -72ZM77 -27T123
4Q72 22 47 22Q29 22 21 15T12 -2Q12 -13 23 -20T48 -27Q77 -27 123 4Z" />
<glyph unicode="3" glyph-name="three" horiz-adv-x="510" d="M112 -87T76 -66T23 -12T6 55Q6 97 28 130T87 163Q100 163 105 162Q91 150 82 123T73 69Q73 19 102 -18T179 -55Q219 -55 256 -27T317 53T341 168Q341 234 315 285T230 351Q277 372 314 413T371 504T392
596Q392 646 366 669T302 693Q257 693 223 664T188 585Q188 551 204 518Q199 507 187 499T164 490Q147 490 137 515T127 569Q127 615 154 649T224 702T314 720Q379 720 423 687T468 591Q468 547 445 498T381 412T293 361Q371 341 407 286T443 168Q443 105 407 46T308
-50T170 -87Q112 -87 76 -66Z" />
<glyph unicode="4" glyph-name="four" horiz-adv-x="478" d="M220 -80T220 -40Q221 -32 227 7T248 130Q249 138 270 236L187 237Q69 237 -8 221Q-8 248 10 263Q53 313 160 414Q265 513 329 582T432 720Q436 718 439 712T443 694Q443 671 424 639Q396 521 352 288H394Q432
288 454 294Q436 268 410 252T364 235H342Q334 195 331 175Q321 122 309 32T297 -87Q220 -80 220 -40ZM116 293T181 293Q222 293 282 291Q322 468 345 545Q320 520 235 441Q143 355 107 317Q99 308 93 301T80 288Q116 293 181 293Z" />
<glyph unicode="5" glyph-name="five" horiz-adv-x="483" d="M105 -87T68 -66T14 -12T-3 54Q-3 97 19 130T78 163Q91 163 96 162Q82 150 73 123T64 65Q64 14 89 -20T166 -55Q216 -55 254 -21T313 66T334 174Q334 242 301 286T200 330Q163 330 108 319Q119 391
187 624L212 713Q264 700 318 700Q355 700 389 705T473 720Q477 705 477 693Q477 653 441 636T354 618Q321 618 281 626Q258 631 245 631Q236 631 232 628T222 611Q208 579 192 521T154 378L146 348Q193 358 233 358Q330 358 380 306T431 169Q431 98 397 40T303
-53T166 -87Q105 -87 68 -66Z" />
<glyph unicode="6" glyph-name="six" horiz-adv-x="561" d="M147 -87T98 -19T49 160Q49 278 98 410T236 631T434 720Q477 720 502 706T528 662Q528 628 482 614Q482 621 483 627T484 642Q484 667 472 682T429 697Q369 697 316 640T223 495T160 309Q193 340 237
357T329 374Q409 374 460 325T512 180Q512 105 479 44T387 -52T253 -87Q147 -87 98 -19ZM307 -55T345 -20T404 72T425 186Q425 262 390 301T300 340Q215 340 177 284T138 140Q138 66 164 6T258 -55Q307 -55 345 -20Z" />
<glyph unicode="7" glyph-name="seven" horiz-adv-x="403" d="M81 -87T71 -75T61 -42Q61 -2 97 85T195 299Q163 298 123 295T59 289Q60 329 98 341T200 354H224Q261 424 332 539L389 635Q358 635 316 632Q299 631 276 630T228 629Q126 629 126 676Q126 694 139
718L170 712Q212 705 243 702T322 698Q431 698 490 718Q459 668 436 643Q355 524 276 351L309 349Q344 346 375 346Q395 346 407 349Q372 298 328 298Q285 298 252 299L237 264Q202 180 183 121T163 11Q163 -18 175 -27Q161 -57 137 -72T95 -87Q81 -87 71 -75Z"
/>
<glyph unicode="8" glyph-name="eight" horiz-adv-x="527" d="M141 -87T102 -62T46 1T29 77Q29 124 53 164T113 235T210 310L245 336Q191 395 162 444T133 554Q133 610 160 647T229 701T318 719Q387 719 428 682T469 575Q469 508 432 456T326 349Q368 303 392
273T434 204T452 122Q452 60 417 13T324 -61T204 -87Q141 -87 102 -62ZM353 423T382 470T411 576Q411 632 385 662T319 692Q294 692 269 679T228 638T211 567Q211 516 234 472T300 379Q353 423 382 470ZM251 -48T287 -27T347 32T370 118Q370 169 345 211T271 307Q210
263 175 232T115 163T90 80Q90 42 107 13T153 -32T214 -48Q251 -48 287 -27Z" />
<glyph unicode="9" glyph-name="nine" horiz-adv-x="566" d="M139 -87T113 -72T87 -27Q87 5 131 19L130 -6Q130 -32 142 -48T187 -64Q247 -64 298 -7T386 138T442 324Q411 293 367 276T276 259Q194 259 140 310T86 462Q86 535 117 593T206 686T336 720Q446 720
497 648T549 458Q549 340 503 213T374 -1T183 -87Q139 -87 113 -72ZM381 293T419 340T457 469Q457 560 429 624T332 688Q285 688 249 654T193 567T173 456Q173 375 210 334T304 293Q381 293 419 340Z" />
<glyph unicode=":" glyph-name="colon" horiz-adv-x="216" d="M88 240T79 247T70 267Q70 283 89 295T128 308Q154 308 154 284Q154 269 138 255T102 240Q88 240 79 247ZM28 -10T19 -3T10 17Q10 33 29 45T68 58Q94 58 94 34Q94 19 78 5T42 -10Q28 -10 19 -3Z" />
<glyph unicode=";" glyph-name="semicolon" horiz-adv-x="213" d="M88 240T79 247T70 267Q70 283 89 295T128 308Q154 308 154 284Q154 269 138 255T102 240Q88 240 79 247ZM1 -78T1 -51Q1 -18 21 19T62 56Q72 56 79 48T87 28Q66 6 53 -16T31 -59T18 -88Q1 -78 1 -51Z" />
<glyph unicode="&lt;" glyph-name="less" horiz-adv-x="310" d="M157 44T121 64T56 111T21 158Q70 179 124 225T211 316Q213 312 214 306T216 294Q216 258 167 221T47 147Q87 118 117 101T209 60Q195 44 180 44Q157 44 121 64Z" />
<glyph unicode="=" glyph-name="equal" horiz-adv-x="503" d="M62 234T111 244T241 255Q322 255 409 246Q369 217 306 217H205Q155 217 125 215T52 206Q62 234 111 244ZM62 134T111 144T241 155Q322 155 409 146Q369 117 306 117H205Q155 117 125 115T52 106Q62
134 111 144Z" />
<glyph unicode="&gt;" glyph-name="greater" horiz-adv-x="324" d="M82 44T68 60Q130 84 160 101T230 147Q159 184 110 221T61 294Q61 300 62 306T66 316Q98 271 152 225T256 158Q251 139 222 112T156 64T97 44Q82 44 68 60Z" />
<glyph unicode="?" glyph-name="question" horiz-adv-x="437" d="M214 134T208 142T202 171Q202 223 225 264T294 363Q327 405 346 434T379 500T393 579Q393 633 371 662T314 692Q279 692 244 663T186 585T163 480Q163 456 170 423Q134 429 121 448T108 500Q108
557 135 607T210 689T318 720Q381 720 417 686T453 587Q453 534 430 495T361 403Q320 356 296 320T258 237Q251 213 247 181Q241 143 233 124Q214 134 208 142ZM179 -10T170 -3T160 16Q160 33 178 45T218 58Q244 58 244 36Q244 19 228 5T192 -10Q179 -10 170 -3Z"
/>
<glyph unicode="@" glyph-name="at" horiz-adv-x="583" d="M144 -121T97 -92T26 -16T3 88Q3 165 44 236T158 351T322 395Q392 395 439 370T510 303T533 214Q533 165 509 118T445 40T359 9Q327 9 311 24T295 68Q295 74 297 88Q228 -5 166 -5Q140 -5 124 12T107
61Q107 109 141 167T227 266T329 307Q360 307 381 291T402 247Q402 213 362 213Q366 224 366 240Q366 260 357 272T328 285Q292 285 253 246T188 153T162 60Q162 28 184 28Q216 28 259 78T352 202Q362 201 373 196T384 182Q384 173 368 146Q338 97 338 69Q338 36
372 36Q403 36 433 61T482 126T501 208Q501 248 482 284T423 342T322 365Q240 365 176 324T75 218T39 84Q39 8 84 -44T222 -96Q277 -96 332 -75T436 -11L442 -19Q401 -65 344 -93T216 -121Q144 -121 97 -92Z" />
<glyph unicode="A" glyph-name="A" horiz-adv-x="592" d="M-17 -68T-17 -35Q-17 4 24 87T135 278Q74 283 27 283H-8Q11 335 96 335Q123 335 168 328Q245 444 324 546T450 692Q479 720 498 720Q519 720 551 688Q531 672 493 559T425 311T395 94Q395 54 403 34T432
14Q487 14 563 162L573 152Q542 70 496 20T400 -30Q360 -30 341 5T322 104Q322 168 339 253Q275 263 191 273Q93 93 17 -87Q-17 -68 -17 -35ZM367 382T400 483T466 657Q421 629 356 539T217 319Q257 311 301 299L346 288Q367 382 400 483Z" />
<glyph unicode="B" glyph-name="B" horiz-adv-x="608" d="M74 -87T47 -68T19 -7Q19 -4 24 -4Q28 -4 48 -9T118 -14Q229 -14 320 19T464 108T516 223Q516 296 444 322T264 349L189 348Q174 297 146 195Q125 117 99 26Q74 26 57 40T40 74Q40 87 46 106T54 131Q85
235 147 408T266 692Q207 682 150 648Q132 638 128 638Q120 638 108 648T96 665Q162 692 212 706T333 720Q425 720 494 687T564 561Q564 472 498 427T335 366Q563 352 563 205Q563 115 490 49T315 -52T130 -87Q74 -87 47 -68ZM324 375T414 422T504 569Q504 699
335 699Q322 699 316 698Q257 583 195 371Q324 375 414 422Z" />
<glyph unicode="C" glyph-name="C" horiz-adv-x="534" d="M152 -87T108 -53T43 36T22 157Q22 285 85 416T244 633T433 719Q476 719 500 698T525 633Q525 594 507 543T462 456T409 420Q389 420 378 443Q415 485 450 545T485 644Q485 665 473 677T436 689Q367 689
288 600T156 380T102 140Q102 58 137 3T243 -53Q294 -53 347 -24T444 55T515 162L529 152Q475 46 395 -20T219 -87Q152 -87 108 -53Z" />
<glyph unicode="D" glyph-name="D" horiz-adv-x="653" d="M127 -87T101 -78T56 -42Q82 83 139 268T229 538Q241 570 261 601T307 632Q321 632 335 622Q275 483 214 288T119 -57Q143 -61 162 -61Q265 -61 359 16T511 213T569 457Q569 574 514 633T364 693Q300 693
248 668T165 597T135 498Q135 476 140 461Q109 461 95 476T80 517Q80 564 123 611T238 689T394 720Q521 720 582 645T643 446Q643 306 573 183T391 -13T163 -87Q127 -87 101 -78Z" />
<glyph unicode="E" glyph-name="E" horiz-adv-x="498" d="M122 -87T78 -63T9 3T-15 95Q-15 156 20 213T114 308T244 354Q206 385 187 426T168 512Q168 565 195 613T269 690T374 719Q429 719 458 691T488 611Q488 575 475 540T443 483T408 460Q397 460 387 469T371
492Q455 565 455 631Q455 662 437 679T384 696Q317 696 279 639T241 495Q241 394 299 344Q235 333 185 294T106 201T78 92Q78 35 109 -9T206 -53Q257 -53 310 -24T407 55T478 162L492 152Q436 44 356 -21T180 -87Q122 -87 78 -63Z" />
<glyph unicode="F" glyph-name="F" horiz-adv-x="482" d="M110 -84T97 -65T84 -8Q84 34 104 98T166 277Q172 291 182 319Q157 317 105 310L71 305Q75 371 202 375Q267 554 318 660Q292 662 279 662Q215 662 181 649T133 610T119 540Q119 499 132 461Q66 472 66
539Q66 590 102 630T202 692T341 715Q378 715 446 707Q456 706 486 703T540 700Q580 700 614 710Q579 670 554 655T501 640Q482 640 433 647Q408 652 359 657Q331 589 263 374Q311 371 353 365Q416 359 438 358Q427 342 412 336T364 327T248 323L204 174Q154 6
152 -87Q110 -84 97 -65Z" />
<glyph unicode="G" glyph-name="G" horiz-adv-x="554" d="M156 -87T114 -58T47 28T22 161Q22 286 85 417T244 633T433 719Q486 719 511 687T537 606Q537 571 525 537T493 482T449 460Q429 460 418 483Q433 493 451 520T483 579T496 636Q496 660 482 674T436 689Q367
689 288 599T156 379T102 141Q102 52 139 0T236 -53Q286 -53 330 -6T402 112T436 250Q378 263 333 263L272 262Q284 314 340 314Q364 314 388 307T456 285Q481 274 509 267L502 235Q467 143 454 88T441 -9Q441 -25 443 -55Q445 -75 445 -87Q391 -66 391 -15Q391
7 398 31Q313 -87 209 -87Q156 -87 114 -58Z" />
<glyph unicode="H" glyph-name="H" horiz-adv-x="617" d="M68 -14T91 72T165 314L99 307Q100 351 182 368Q219 481 267 619Q268 622 274 641T281 678Q281 686 279 689T267 692Q236 692 208 660T161 583T143 504Q143 485 148 470Q117 470 103 485T88 527Q88 570
121 615T203 690T288 720Q313 720 323 707T334 672Q334 655 326 629L248 375Q284 377 306 377Q384 377 476 368Q507 471 535 556T577 668Q601 720 632 720Q612 667 584 569T527 364Q537 364 559 362Q589 360 602 360Q582 339 563 334T518 328Q497 242 487 191Q454
34 454 -51Q454 -69 456 -87Q418 -83 403 -66T387 -9Q387 49 411 142Q427 208 464 327Q384 327 329 326T231 320Q145 49 124 -23Q114 -55 94 -71T55 -87Q68 -14 91 72Z" />
<glyph unicode="I" glyph-name="I" horiz-adv-x="459" d="M-33 -38T8 -23T125 -8Q155 56 183 162T249 434Q254 456 273 539T307 661Q228 659 183 655T82 641Q89 680 137 699T286 718Q351 718 424 711T548 697Q527 676 503 669T451 662Q373 662 342 661L335 625Q273
281 243 162Q226 94 206 52T159 -9Q206 -12 256 -18Q329 -27 376 -28Q333 -71 263 -71H214Q122 -72 69 -74T-38 -88Q-33 -38 8 -23Z" />
<glyph unicode="J" glyph-name="J" horiz-adv-x="411" d="M-31 -86T-31 44Q-31 107 -10 159T45 212Q57 212 73 204Q37 113 37 44Q37 -1 53 -26T100 -51Q127 -51 147 -28T189 54Q224 151 269 343T340 667Q266 666 226 662T138 647Q149 718 301 718Q353 718 412
711T510 697Q500 680 478 674T433 668L362 667Q372 659 377 646T383 620Q383 594 363 488T310 261T241 61Q204 -23 165 -54T77 -86Q-31 -86 -31 44Z" />
<glyph unicode="K" glyph-name="K" horiz-adv-x="590" d="M461 -87T408 -24T302 129T216 291L119 -23Q110 -53 88 -61T30 -69Q53 -17 84 69T188 370L273 619Q274 621 280 637T286 668Q286 692 262 692Q231 692 203 660T156 583T138 504Q138 485 143 470Q112 470
98 485T83 527Q83 570 116 615T198 690T283 720Q308 720 318 707T329 672Q329 655 321 629L237 357Q247 370 264 385T300 415L323 433Q398 493 475 572T596 720Q600 715 602 701T605 676Q605 567 241 322Q295 231 328 180T415 71T549 -54Q542 -68 527 -77T495 -87Q461
-87 408 -24Z" />
<glyph unicode="L" glyph-name="L" horiz-adv-x="570" d="M358 -87T312 -70T189 -18L137 6Q84 -53 26 -53Q-4 -53 -27 -39T-62 -5T-74 34Q-74 54 -57 66T-1 78Q43 78 122 57Q147 101 169 161T223 324L247 400Q201 415 175 444T148 507Q148 536 165 561T210 586Q203
577 200 559T197 524Q197 487 212 461T254 421Q300 562 350 641T469 720Q506 720 536 696T566 618Q566 568 539 515T458 425T326 388H310Q269 264 237 183T166 44Q174 41 183 39T201 33Q286 7 337 -5T431 -18Q471 -18 502 -2Q486 -47 460 -67T397 -87Q358 -87 312
-70ZM372 407T417 448T487 545T512 645Q512 672 502 683T476 695Q434 695 399 624T316 407Q372 407 417 448ZM64 -24T99 22Q25 52 -15 52Q-48 52 -48 33Q-48 14 -28 -5T22 -24Q64 -24 99 22Z" />
<glyph unicode="M" glyph-name="M" horiz-adv-x="763" d="M15 -16Q34 25 119 212T300 616Q310 639 310 657Q310 670 303 676T276 683Q236 683 208 656T166 586T152 501Q152 488 154 470Q128 470 115 496T101 552Q101 594 131 633T206 696T296 720Q331 720 352
701T385 633T397 496Q397 415 385 253Q379 176 376 102Q410 233 502 401T661 666Q677 690 686 698T711 707Q725 707 743 700Q718 640 698 560Q664 428 636 257T607 -5Q607 -29 609 -41T616 -67L622 -87Q588 -87 571 -76T547 -42T540 25Q540 132 565 253T640 564Q596
507 542 401T442 183T372 3Q361 -1 357 -1Q332 -1 323 28T313 121Q313 177 321 337Q329 495 329 546Q329 574 327 602Q255 435 203 306Q134 140 100 65T38 -48T-17 -87L15 -16Z" />
<glyph unicode="N" glyph-name="N" horiz-adv-x="640" d="M63 -24T120 163Q181 360 258 619Q265 644 265 660Q265 683 250 683Q219 683 193 653T150 581T134 505Q134 485 139 470Q108 470 94 485T79 527Q79 570 112 615T193 690T279 720Q316 720 338 679T372 575T395
408Q416 221 439 72Q452 157 485 287T554 532T600 671Q607 687 625 703T663 720Q627 625 580 460T499 141T464 -87Q432 -87 413 -69T386 -6Q373 64 344 260T295 589Q202 254 165 132T103 -38T46 -87Q63 -24 120 163Z" />
<glyph unicode="O" glyph-name="O" horiz-adv-x="623" d="M156 -87T113 -57T45 30T21 161Q21 286 84 417T245 633T435 719Q473 719 495 707H484Q401 707 313 619T167 398T109 147Q109 60 142 4T243 -53Q332 -53 405 34T521 253T564 505Q564 556 553 599T519 643Q496
643 468 607T416 519T384 429Q360 435 348 448T336 478Q336 512 367 558T442 637T517 670Q563 670 582 611T602 477Q602 306 541 178T389 -19T213 -87Q156 -87 113 -57Z" />
<glyph unicode="P" glyph-name="P" horiz-adv-x="527" d="M60 -87T39 -73T18 -37Q18 -22 32 18Q108 254 158 394T278 693Q223 682 162 648Q142 638 139 638Q132 638 120 648T108 665Q236 720 329 720Q391 720 450 698T548 632T586 527Q586 433 512 382T351 313T205
296H195Q190 279 135 82Q100 -45 87 -87Q60 -87 39 -73ZM278 316T351 343T471 421T519 544Q519 620 467 659T338 699Q277 578 199 312Q278 316 351 343Z" />
<glyph unicode="Q" glyph-name="Q" horiz-adv-x="693" d="M475 -119T439 -98T356 -37Q304 -63 256 -63Q214 -63 190 -47T156 -11T146 25Q146 45 164 61T219 77Q256 77 290 62T378 13Q434 64 476 152T541 338T564 509Q564 595 532 644T432 693Q341 693 266 607T147
391T104 144Q104 97 112 60Q35 60 35 199Q35 323 89 444T235 643T431 720Q526 720 580 655T634 477Q634 394 605 301T524 127T408 -4Q447 -26 482 -38T556 -50Q578 -50 593 -45T614 -38Q590 -119 516 -119Q475 -119 439 -98ZM295 -38T334 -17Q296 16 268 33T209
51Q188 51 180 43T172 24Q172 4 191 -17T256 -38Q295 -38 334 -17Z" />
<glyph unicode="R" glyph-name="R" horiz-adv-x="577" d="M429 -121T376 -55T271 105T185 277Q162 200 131 87Q114 23 82 -87Q56 -87 36 -73T16 -37Q16 -22 30 18Q97 226 153 376T283 695Q245 689 218 678T158 649Q139 638 134 638Q127 638 115 648T103 665Q231
720 328 720Q390 720 448 700T543 638T581 533Q581 444 510 396T354 332T208 316Q218 298 226 283T242 256Q285 179 317 129T398 24T515 -88Q509 -101 494 -111T464 -121Q429 -121 376 -55ZM280 337T351 362T468 435T514 554Q514 630 463 664T335 699Q275 579 201
332Q280 337 351 362Z" />
<glyph unicode="S" glyph-name="S" horiz-adv-x="536" d="M147 -87T99 -67T23 -7T-6 92Q-6 163 33 194T122 226Q95 197 81 162T67 92Q67 32 106 -8T220 -48Q267 -48 309 -31T379 19T406 98Q406 138 386 168T336 220T256 272Q205 302 175 324T123 379T102 453Q102
511 138 573T239 678T387 720Q442 720 467 693T492 620Q492 570 468 508T415 400Q382 407 382 443Q382 462 389 486T411 546Q426 585 433 609T441 653Q441 674 429 685T385 696Q326 696 276 660T195 571T165 476Q165 444 182 419T226 376T297 332Q351 301 384 277T440
215T464 126Q464 60 426 12T327 -61T203 -87Q147 -87 99 -67Z" />
<glyph unicode="T" glyph-name="T" horiz-adv-x="490" d="M144 -87T126 -69T108 -16Q108 10 117 44T145 130Q187 251 244 400T349 652Q241 650 187 647T69 632Q73 679 137 699T313 720Q394 720 506 708Q539 704 573 701T635 698Q603 670 562 661T464 651L393 652Q311
447 236 175L227 142Q204 58 195 17T186 -65Q186 -80 187 -87Q144 -87 126 -69Z" />
<glyph unicode="U" glyph-name="U" horiz-adv-x="706" d="M505 -99T483 -68T460 7Q460 38 469 98Q384 -87 253 -87Q191 -87 157 -49T123 49Q123 90 137 148T182 307Q215 418 231 485T248 604Q248 692 192 692Q158 692 134 664T98 596T86 519Q86 489 94 470Q58
470 42 489T25 539Q25 581 51 623T122 692T216 720Q269 720 294 688T319 599Q319 549 304 488T256 325Q226 228 211 170T196 65Q196 15 216 -16T280 -47Q331 -47 373 -5T443 100T487 224Q541 446 583 583T661 720Q669 720 683 712T711 688Q693 676 647 550T564
276T527 42Q527 -25 545 -50T607 -75Q572 -99 541 -99Q505 -99 483 -68Z" />
<glyph unicode="V" glyph-name="V" horiz-adv-x="632" d="M179 -87T152 -69T124 -7Q124 20 135 62T170 181Q209 305 229 389T250 552Q250 599 247 627T231 673T190 692Q156 692 133 666T98 600T87 524Q87 491 96 470Q59 470 42 490T25 542Q25 583 50 624T118 693T208
720Q269 720 300 673T331 542Q331 469 311 388T254 193Q228 114 215 65T202 -17Q202 -36 208 -46T230 -56Q285 -56 370 49T518 297T582 544Q582 591 568 615T527 648Q541 671 556 682T585 694Q609 694 627 665T646 583Q646 476 571 315T393 33T210 -87Q179 -87
152 -69Z" />
<glyph unicode="W" glyph-name="W" horiz-adv-x="906" d="M179 -87T152 -69T124 -7Q124 20 135 62T170 181Q209 305 229 389T250 552Q250 599 247 627T231 673T190 692Q156 692 133 666T98 600T87 524Q87 491 96 470Q59 470 42 490T25 542Q25 583 50 624T118 693T208
720Q269 720 300 673T331 542Q331 469 311 389T254 194Q228 115 215 66T202 -17Q202 -37 208 -46T232 -56Q279 -56 345 26T464 218T526 395Q556 395 571 380T586 346Q586 333 578 311T549 239Q513 155 494 97T475 -14Q475 -35 480 -45T503 -56Q558 -56 643 49T791
297T855 544Q855 591 841 615T800 648Q814 671 829 682T858 694Q882 694 900 665T919 583Q919 476 844 315T666 33T483 -87Q450 -87 424 -68T397 -12Q397 15 417 78Q363 2 310 -42T210 -87Q179 -87 152 -69Z" />
<glyph unicode="X" glyph-name="X" horiz-adv-x="662" d="M28 -82T38 -65T74 -21Q187 101 301 246L298 286Q293 350 291 468Q290 561 287 603T271 669T232 692Q201 692 177 665T141 597T128 519Q128 489 136 470Q100 470 84 489T67 539Q67 580 93 622T163 692T255
720Q310 720 335 681T367 580T374 406Q375 386 375 344Q533 563 597 722Q605 716 612 702T620 674Q620 636 552 531T376 289Q386 -50 470 -50Q498 -50 539 4T640 162L652 152Q590 25 545 -31T443 -87Q369 -87 341 -7T304 198Q217 91 138 3T25 -112Q28 -82 38 -65Z"
/>
<glyph unicode="Y" glyph-name="Y" horiz-adv-x="666" d="M195 -187T156 -162T117 -93Q117 -38 177 -18Q169 -45 169 -72Q169 -114 191 -138T256 -162Q344 -162 392 -76T465 121Q468 134 481 200Q486 225 492 256T507 326Q464 243 411 197T290 151Q233 151 207
182T181 270Q181 306 190 349T217 454Q234 515 241 550T249 614Q249 649 236 670T192 692Q158 692 134 664T97 596T84 519Q84 489 92 470Q56 470 40 489T23 539Q23 581 49 623T120 692T214 720Q267 720 292 690T318 619Q318 596 311 566T289 481Q270 413 261 369T251
287Q251 191 321 191Q384 191 438 263T533 440Q564 567 593 643T653 720Q663 720 679 711T709 688Q673 631 653 582T611 455T544 194Q515 78 486 1T401 -131T255 -187Q195 -187 156 -162Z" />
<glyph unicode="Z" glyph-name="Z" horiz-adv-x="631" d="M406 -87T356 -69T228 -13L195 2Q123 -54 67 -54Q26 -54 1 -29T-25 26Q-25 49 -7 63T52 78Q100 78 188 52Q276 145 383 321Q323 320 253 310L219 305Q221 344 260 359T368 375Q383 375 413 373Q495 519
530 610Q505 616 447 639Q384 664 338 678T252 692Q139 692 139 548Q139 526 143 513Q115 518 102 536T89 585Q89 651 140 685T282 720Q332 720 376 711T480 685Q530 670 562 663T628 656Q650 656 660 658Q633 635 610 623Q562 508 480 367L509 364Q565 358 586
358Q575 342 562 335T527 326T454 323Q342 140 236 38Q325 10 380 -4T481 -18Q521 -18 552 -2Q536 -47 510 -67T447 -87Q406 -87 356 -69ZM99 -27T154 20Q76 52 38 52Q1 52 1 28Q1 9 18 -9T62 -27Q99 -27 154 20Z" />
<glyph unicode="[" glyph-name="bracketleft" horiz-adv-x="393" d="M154 -87T106 -81T29 -67Q34 -58 41 -28T74 136T141 498Q162 612 197 657T271 703L298 702Q326 700 343 700Q408 700 443 720Q440 670 414 655T338 640Q315 640 265 650Q256 652 231 657Q208
590 187 486T133 205Q100 17 86 -32Q199 -31 239 -28T326 -11Q322 -50 291 -68T196 -87Q154 -87 106 -81Z" />
<glyph unicode="\" glyph-name="backslash" horiz-adv-x="560" d="M392 -154T363 -112T308 22Q296 68 274 180T229 407Q209 514 190 607T164 720Q186 720 202 706T225 675Q247 618 271 514T328 243Q367 48 391 -51T435 -162Q392 -154 363 -112Z" />
<glyph unicode="]" glyph-name="bracketright" horiz-adv-x="410" d="M-11 -51T17 -35T91 -18Q108 -18 136 -20T179 -23L215 -26Q239 43 264 160T322 451Q352 611 367 674H304Q244 674 198 670T105 653Q105 693 136 706T234 720Q306 720 401 699L383 589Q324 219
306 132Q296 80 284 39T245 -36T178 -71Q111 -71 65 -74T-14 -88Q-11 -51 17 -35Z" />
<glyph unicode="^" glyph-name="asciicircum" horiz-adv-x="203" d="M174 432T157 452T113 498Q79 486 55 473T10 441Q0 447 0 460Q0 478 22 498T72 533T114 548Q130 548 151 529T188 484T204 437Q204 415 187 406Q174 432 157 452Z" />
<glyph unicode="_" glyph-name="underscore" horiz-adv-x="845" d="M-15 -19T75 -2T332 16Q447 16 563 6Q657 -2 716 -2Q651 -47 553 -47Q432 -47 385 -48Q199 -48 141 -50T-20 -66Q-15 -19 75 -2Z" />
<glyph unicode="`" glyph-name="grave" horiz-adv-x="125" d="M74 456T0 520Q3 551 22 551Q40 551 64 527T107 473T126 430Q126 424 123 416T112 404Q74 456 0 520Z" />
<glyph unicode="a" glyph-name="a" horiz-adv-x="436" d="M15 -47T-5 -26T-26 36Q-26 95 16 168T124 292T251 343Q290 343 316 322T342 268Q342 245 329 235T293 225Q298 243 298 260Q298 285 286 300T249 316Q205 316 157 267T76 150T43 33Q43 -6 70 -6Q110 -6
164 57T280 212Q293 210 306 204T320 187Q320 179 311 162T299 141Q282 112 272 90T262 48Q262 31 270 18T296 4Q325 4 369 45T456 162L466 152Q445 99 412 58T341 -7T268 -30Q233 -30 215 -10T196 40Q196 53 199 69Q154 9 119 -19T48 -47Q15 -47 -5 -26Z" />
<glyph unicode="b" glyph-name="b" horiz-adv-x="394" d="M42 -73T16 -40T-10 53Q-10 148 50 307T185 590T301 714Q316 714 324 695T333 651Q333 604 300 526T214 376T105 270Q92 246 75 180T57 59Q57 -35 112 -35Q141 -35 172 -12T222 49Q187 67 168 102T149
178Q149 225 173 254T233 284Q262 284 279 260T296 192Q296 126 261 56Q273 53 287 53Q334 53 362 83T415 162L427 149Q401 85 365 60T284 35Q267 35 252 38Q222 -12 182 -42T93 -73Q42 -73 16 -40ZM159 343T201 407T271 535T299 625Q299 633 295 633Q284 633 249
582T175 456T116 309Q159 343 201 407ZM255 118T255 170Q255 204 246 224T222 245Q207 245 196 224T184 173Q184 143 196 114T232 69Q255 118 255 170Z" />
<glyph unicode="c" glyph-name="c" horiz-adv-x="323" d="M57 -56T26 -23T-5 72Q-5 137 28 199T112 299T214 338Q252 338 268 317T285 264Q285 234 272 213T235 191Q218 191 206 206Q221 213 232 237T243 285Q243 298 238 304T221 310Q187 310 149 270T84 171T57
65Q57 29 74 6T130 -18Q191 -18 250 32T342 163L355 153Q332 93 292 46T204 -29T107 -56Q57 -56 26 -23Z" />
<glyph unicode="d" glyph-name="d" horiz-adv-x="473" d="M30 -30T7 -9T-16 54Q-16 109 26 182T131 308T253 360Q297 360 297 329Q297 325 295 315Q285 330 257 330Q207 330 160 283T84 171T54 66Q54 44 63 31T90 18Q117 18 156 52T235 150T306 293Q384 495 436
607T525 720Q533 720 539 714T545 697Q545 682 529 646T477 533Q403 379 359 267T315 70Q315 37 318 26T338 14Q359 14 387 32T444 84T492 162L504 153Q485 103 452 62T382 -2T310 -26Q276 -26 260 -4T244 49Q244 83 263 156Q212 72 158 21T59 -30Q30 -30 7 -9Z"
/>
<glyph unicode="e" glyph-name="e" horiz-adv-x="333" d="M49 -44T18 -12T-14 72Q-14 131 25 199T123 313T240 360Q302 360 302 299Q302 250 265 208T170 138T54 105Q50 88 50 69Q50 33 68 9T129 -15Q190 -15 252 36T353 162L365 153Q325 64 254 10T108 -44Q49
-44 18 -12ZM101 139T147 166T225 229T258 306Q258 318 254 323T237 329Q206 329 170 298T103 219T59 124Q101 139 147 166Z" />
<glyph unicode="f" glyph-name="f" horiz-adv-x="312" d="M-34 -280T-51 -261T-68 -192Q-68 -87 7 138T182 542T360 720Q379 720 386 709T394 676Q394 621 355 551T254 414T127 302Q120 286 108 252Q118 250 124 241T133 220Q141 164 149 133T173 83T220 64Q253
64 276 87T331 162L346 152Q322 96 285 67T215 38Q197 38 178 47T141 71Q141 -11 118 -93T60 -227T-13 -280Q-34 -280 -51 -261ZM204 399T252 460T328 569T355 639Q355 653 341 653Q304 653 251 567T143 343Q204 399 252 460ZM31 -232T55 -181T97 -61T115 60Q115
90 108 115T81 177Q42 62 18 -36T-6 -184Q-6 -207 -1 -219T13 -232Q31 -232 55 -181Z" />
<glyph unicode="g" glyph-name="g" horiz-adv-x="389" d="M14 -280T-3 -266T-20 -222Q-20 -185 9 -154T75 -100T175 -46Q203 26 226 119Q137 -9 63 -9Q28 -9 8 17T-12 88Q-12 154 30 214T135 310T253 347Q280 347 293 338T307 315Q307 307 303 302T295 295Q285
310 255 310Q205 310 159 272T83 180T54 83Q54 59 63 47T89 34Q116 34 156 71T237 166L249 219Q253 238 265 254T300 270Q309 270 321 267Q321 240 299 159T244 -7Q296 18 340 62T407 162L420 152Q399 91 345 41T233 -36Q186 -150 138 -215T38 -280Q14 -280 -3
-266ZM58 -248T92 -205T164 -73Q91 -110 51 -142T11 -213Q11 -229 17 -238T35 -248Q58 -248 92 -205Z" />
<glyph unicode="h" glyph-name="h" horiz-adv-x="476" d="M29 -38T18 -7T6 66Q6 158 62 314T191 592T305 714Q321 714 329 695T338 651Q338 604 305 526T218 376T108 270Q90 228 81 173T71 73Q71 57 73 39Q113 155 163 226T276 298Q314 298 333 272T352 208Q352
186 347 166T329 114Q319 87 314 71T309 40Q309 21 317 12T339 2Q373 2 419 49T495 162L508 150Q475 74 424 25T316 -24Q283 -24 265 -7T247 39Q247 61 262 110Q278 164 278 190Q278 215 268 226T240 238Q203 238 176 195T116 72Q92 14 78 -12T47 -38Q29 -38 18
-7ZM164 343T206 407T276 535T304 625Q304 633 300 633Q289 633 255 584T182 459T121 309Q164 343 206 407Z" />
<glyph unicode="i" glyph-name="i" horiz-adv-x="241" d="M174 432T163 440T151 465Q151 485 175 501T224 517Q257 517 257 486Q257 467 237 450T192 432Q174 432 163 440ZM35 -26T15 -3T-5 58Q-5 97 17 166T73 287T139 339Q148 339 154 333T161 317Q161 303 129
250Q96 195 77 152T57 69Q57 34 68 22T106 9Q184 9 260 162L269 152Q241 68 187 21T72 -26Q35 -26 15 -3Z" />
<glyph unicode="j" glyph-name="j" horiz-adv-x="218" d="M118 437T107 445T95 469Q95 490 118 506T168 522Q183 522 192 515T201 494Q201 472 181 455T135 437Q118 437 107 445ZM-165 -280T-178 -266T-192 -229Q-192 -192 -157 -148T-66 -73Q-51 -64 -27 -53Q-12
-47 -2 -41Q41 66 65 205Q59 194 32 149Q22 134 18 126L9 141Q27 175 52 240Q74 296 88 321T119 347Q130 347 136 339T143 317Q143 290 120 190T63 -8L81 3Q134 33 168 63T237 157L250 150Q221 83 181 48T81 -20L53 -36Q14 -142 -35 -211T-140 -280Q-165 -280 -178
-266ZM-127 -246T-89 -200T-15 -73Q-88 -109 -127 -149T-166 -222Q-166 -246 -149 -246Q-127 -246 -89 -200Z" />
<glyph unicode="k" glyph-name="k" horiz-adv-x="446" d="M262 -38T239 -8T206 64T195 142Q214 142 244 153T299 185T323 238Q323 258 308 270T273 283Q209 283 164 201T84 16L73 -13Q68 -22 59 -26T39 -31Q16 -31 10 -7T4 63Q4 161 63 316T197 592T307 714Q320
714 329 695T338 649Q338 603 312 544T238 430T134 341Q102 263 85 186T68 55Q112 166 169 250T292 335Q329 335 355 309T381 246Q381 207 356 181T297 142T239 129Q244 92 263 46T317 0Q392 0 465 163L475 153Q461 104 432 60T367 -11T297 -38Q262 -38 239 -8ZM195
416T230 463T284 554T304 624Q304 633 301 633Q286 633 240 557T151 381Q195 416 230 463Z" />
<glyph unicode="l" glyph-name="l" horiz-adv-x="236" d="M42 -30T23 -2T3 73Q3 163 65 317T203 596T314 720Q328 720 337 696T347 646Q347 600 310 511T211 329T81 180Q68 122 68 79Q68 2 112 2Q149 2 187 49T256 162L271 154Q185 -30 83 -30Q42 -30 23 -2ZM145
269T197 352T283 512T316 623Q316 639 309 639Q295 639 252 571T162 403T90 214Q145 269 197 352Z" />
<glyph unicode="m" glyph-name="m" horiz-adv-x="646" d="M471 -31T454 -11T437 42Q437 69 453 121Q458 138 462 155T467 184Q467 202 459 211T438 220Q415 220 389 188T307 71Q293 49 268 -3L259 -22Q243 -22 226 -17T208 -2Q208 5 225 51Q246 113 258 155T271
228Q271 266 246 266Q218 266 174 221T86 108T19 -27Q4 -27 -15 -20T-35 -6Q-35 -3 -21 41Q2 108 17 164T34 261Q41 269 54 275T80 282Q107 282 107 256Q107 229 81 142Q130 220 186 276T292 332Q321 332 333 311T346 256Q346 222 336 182T315 115Q353 184 394
226T481 269Q511 269 524 251T538 205Q538 186 533 165T518 112Q501 59 501 38Q501 4 531 4Q568 4 601 49T665 162L677 148Q649 74 604 22T504 -31Q471 -31 454 -11Z" />
<glyph unicode="n" glyph-name="n" horiz-adv-x="466" d="M289 -20T271 -3T253 44Q253 57 257 74T267 109Q273 127 277 147T282 183Q282 232 242 232Q204 232 163 192T89 103T15 -15Q-2 -15 -16 -10T-38 7Q-38 12 -25 43Q0 107 16 159T33 253Q40 261 53 267T79
274Q106 274 106 248Q106 233 97 196T74 116Q122 190 176 241T282 292Q319 292 337 266T356 202Q356 180 351 160T334 114Q325 92 320 76T315 44Q315 6 345 6Q379 6 415 51T485 162L496 149Q424 -20 323 -20Q289 -20 271 -3Z" />
<glyph unicode="o" glyph-name="o" horiz-adv-x="365" d="M28 -32T9 -7T-10 59Q-10 100 7 145T51 220T105 250Q114 250 126 245Q114 235 97 201T68 129T55 66Q55 9 91 9Q112 9 141 31T198 89Q170 112 155 149T139 226Q139 278 165 315T237 352Q275 352 290 332T306
275Q306 237 288 190T239 97Q257 87 277 87Q306 87 337 104T384 159L396 149Q377 105 342 84T270 63Q243 63 222 73Q186 26 146 -3T69 -32Q28 -32 9 -7ZM242 154T258 194T274 269Q274 297 266 311T244 325Q230 325 216 312T192 275T182 223Q182 192 190 164T216
115Q242 154 258 194Z" />
<glyph unicode="p" glyph-name="p" horiz-adv-x="391" d="M-71 -280T-78 -272T-90 -254T-94 -242Q-80 -194 -60 -136Q-38 -72 -23 -19T8 124T42 356Q43 366 46 369T61 373Q85 373 97 360T109 327Q109 299 86 192Q117 252 161 295T259 339Q303 339 331 308T360
225Q360 172 329 113T244 14T124 -26Q99 -26 83 -21T66 -8Q66 -5 73 -4T91 -3Q143 -3 190 30T266 114T295 216Q295 250 281 271T238 293Q206 293 173 267T113 203T72 132Q35 -26 1 -142T-51 -275Q-56 -280 -63 -280Q-71 -280 -78 -272Z" />
<glyph unicode="q" glyph-name="q" horiz-adv-x="401" d="M159 -280T159 -207Q159 -153 175 -64T218 98Q176 38 136 4T60 -30Q31 -30 8 -9T-15 56Q-15 114 27 185T135 307T265 357Q299 357 321 343T344 308Q344 294 335 283T311 271Q311 295 297 310T254 326Q203
326 157 280T83 170T55 66Q55 44 64 31T90 18Q125 18 169 73T277 230Q296 261 321 261Q341 261 341 243Q341 234 334 220T318 188Q296 149 280 113T253 29Q301 33 342 63T420 161L432 150Q401 80 353 45T251 5Q268 -49 268 -108Q268 -154 258 -193T232 -256T194
-280Q159 -280 159 -207ZM232 -225T239 -186T246 -99Q246 -58 239 -24Q227 -75 220 -122T213 -197Q213 -225 221 -225Q232 -225 239 -186Z" />
<glyph unicode="r" glyph-name="r" horiz-adv-x="348" d="M139 -26T120 -8T100 39Q100 73 129 137Q142 170 148 189T155 226Q155 251 144 265T118 289T99 302Q77 246 52 193T10 110L1 127Q49 220 82 317Q72 327 72 341Q72 359 79 375T97 400T114 409Q128 409 128
385Q128 381 123 367T117 348Q117 338 125 330T153 308Q184 286 201 265T219 209Q219 187 212 166T191 109Q169 61 169 40Q169 10 199 10Q229 10 263 34T327 93T369 159L382 149Q351 80 292 27T173 -26Q139 -26 120 -8Z" />
<glyph unicode="s" glyph-name="s" horiz-adv-x="345" d="M40 -51T10 -12T-20 80Q-20 120 -6 136T24 160T44 170Q108 240 143 315V327Q143 361 154 378T182 395Q190 395 194 392T198 382Q198 378 195 366T192 338Q192 318 197 296T215 237Q229 194 236 162T244
97Q244 71 238 48Q274 54 305 80T364 161L373 151Q355 99 318 69T233 32Q218 -9 184 -30T105 -51Q40 -51 10 -12ZM179 75T179 96Q179 126 174 156T159 225Q150 265 148 277Q97 193 51 147Q67 112 99 85T175 49Q179 75 179 96ZM153 -16T170 33Q130 41 97 64T47 116Q25
115 25 81Q25 43 47 14T107 -16Q153 -16 170 33Z" />
<glyph unicode="t" glyph-name="t" horiz-adv-x="285" d="M-4 -46T-4 53Q-4 96 11 159T54 294Q30 298 18 302V320Q54 316 62 316Q106 430 156 513T236 597Q244 597 250 591T257 575Q257 562 245 537T202 460Q197 450 171 405T124 313H161Q244 313 304 319V301Q195
289 128 289H113Q58 163 58 71Q58 28 71 10T114 -9Q165 -9 215 36T304 162L317 152Q280 65 217 10T85 -46Q-4 -46 -4 53Z" />
<glyph unicode="u" glyph-name="u" horiz-adv-x="438" d="M42 -30T21 -1T0 71Q0 108 15 162T52 257T88 298Q94 298 105 292T125 278Q104 245 81 184T58 77Q58 54 65 32T94 10Q129 10 170 74T260 238L276 271Q324 262 324 245Q324 243 320 232T311 211Q288 160
273 116T257 40Q257 0 290 0Q312 0 342 19T403 76T457 162L470 153Q449 100 416 59T343 -6T269 -30Q199 -30 199 44Q199 64 206 94Q174 37 142 4T75 -30Q42 -30 21 -1Z" />
<glyph unicode="v" glyph-name="v" horiz-adv-x="407" d="M35 -39T23 -11T10 71Q10 90 16 202Q18 232 23 240T48 249Q65 249 69 243T74 217Q74 197 70 143Q65 95 65 56Q65 26 70 13T88 0Q121 0 168 67T253 219Q255 282 266 307T299 332Q316 332 325 320T335 294Q335
284 325 266Q313 243 307 221T300 160Q300 127 309 106T347 84Q369 84 388 101T426 158L439 148Q403 64 340 64Q306 64 285 88T256 161Q215 79 163 20T65 -39Q35 -39 23 -11Z" />
<glyph unicode="w" glyph-name="w" horiz-adv-x="617" d="M228 -39T228 58Q228 94 235 148Q195 68 156 19T75 -30Q43 -30 22 -1T0 71Q0 108 15 162T52 257T88 298Q96 298 110 292T125 278Q104 246 81 184T58 77Q58 54 65 32T93 10Q124 10 162 63T243 201Q251 243
256 261T267 285T283 291Q296 291 304 286T312 269Q312 266 310 258Q299 221 291 160T282 49Q282 0 304 0Q332 0 377 62T459 205Q459 332 509 332Q526 332 535 320T545 294Q545 284 535 266Q523 243 517 221T510 160Q510 127 519 106T557 84Q579 84 598 101T636
158L649 148Q613 64 550 64Q519 64 498 85T466 148Q424 70 375 16T282 -39Q228 -39 228 58Z" />
<glyph unicode="x" glyph-name="x" horiz-adv-x="418" d="M34 -59T34 -44Q34 -28 77 29T182 156Q175 216 167 244T138 272Q110 272 90 247T38 164L19 129L10 145L31 189Q49 230 63 254T99 294T154 311Q190 311 209 286T237 216Q287 268 323 300T373 332Q379 332
388 329T398 321Q382 321 340 281T243 177L246 137Q251 72 260 41T297 10Q331 10 372 59T438 161L448 151Q433 107 405 66T341 0T272 -26Q232 -26 214 10T187 111Q122 33 56 -52Q50 -59 44 -59Q34 -59 34 -44Z" />
<glyph unicode="y" glyph-name="y" horiz-adv-x="389" d="M16 -280T-2 -266T-20 -227Q-20 -187 5 -157T68 -104T174 -46Q204 31 230 137Q194 78 158 44T84 10Q52 10 28 31T4 91Q4 127 20 179T57 270T92 309Q101 309 118 302T136 286Q116 257 93 193T70 90Q70 50
106 50Q133 50 169 87T239 178Q244 195 249 224Q253 243 265 259T300 275Q309 275 321 272Q321 245 299 161T243 -8Q293 12 337 54T408 162L421 152Q384 35 232 -35Q188 -143 140 -211T43 -280Q16 -280 -2 -266ZM49 -248T69 -230T114 -171T164 -70Q111 -98 81 -117T31
-162T11 -218Q11 -228 18 -238T38 -248Q49 -248 69 -230Z" />
<glyph unicode="z" glyph-name="z" horiz-adv-x="317" d="M-71 -280T-71 -229Q-71 -198 -49 -170T6 -119T97 -60Q139 -36 174 -12Q174 25 159 55T105 115Q138 124 163 149T201 204T214 262Q214 285 204 300T175 315Q144 315 119 292T73 234T23 134L11 144Q37 213
60 257T114 327T189 353Q224 353 248 331T272 271Q272 220 238 178T154 111Q206 71 224 21Q310 86 335 162L346 150Q321 71 230 2Q234 -11 234 -31Q234 -90 200 -148T110 -243T-5 -280Q-71 -280 -71 -229ZM15 -251T57 -224T133 -148T173 -35Q129 -63 107 -75Q53
-107 25 -127T-23 -170T-43 -218Q-43 -235 -35 -243T-12 -251Q15 -251 57 -224Z" />
<glyph unicode="{" glyph-name="braceleft" horiz-adv-x="260" d="M67 -87T52 -69T37 -21Q37 1 45 27T72 97Q92 146 101 176T111 233Q111 267 104 290T75 331Q109 334 126 361T150 427T162 527Q167 593 174 630T200 694T255 720Q277 720 292 708T310 667Q307 669
296 675T277 681Q249 681 237 640T215 515Q204 424 190 376T141 325Q155 310 161 295T167 256Q167 210 156 171T123 82Q107 44 99 19T91 -30Q91 -62 124 -62Q139 -62 149 -54Q148 -71 135 -79T102 -87Q67 -87 52 -69Z" />
<glyph unicode="|" glyph-name="bar" horiz-adv-x="259" d="M78 -71T93 63T127 406Q137 531 144 601T159 697Q174 690 180 674T187 640Q187 554 176 350T154 52Q145 -39 122 -85T55 -132Q78 -71 93 63Z" />
<glyph unicode="}" glyph-name="braceright" horiz-adv-x="256" d="M14 -87T-2 -75T-21 -34Q-3 -46 13 -46Q40 -46 53 -1T78 129Q88 217 104 272T156 347Q131 375 131 419Q131 451 141 485T172 572Q187 610 194 633T202 672Q202 687 195 687Q189 687 177 683T154
670Q158 691 180 705T222 720Q241 720 251 710T262 686Q262 673 256 654T234 600Q212 548 200 509T188 434Q188 401 195 377T223 339Q188 330 169 298T143 223T130 113Q124 45 117 6T91 -60T36 -87Q14 -87 -2 -75Z" />
<glyph unicode="~" glyph-name="asciitilde" horiz-adv-x="435" d="M250 129T230 134T182 148Q152 158 130 163T86 168Q60 168 40 160Q75 206 123 206Q140 206 157 202T207 186Q246 173 268 168T317 162Q332 162 347 165Q315 129 269 129Q250 129 230 134Z" />
<glyph unicode="&#xa0;" glyph-name="uni00A0" horiz-adv-x="260" />
<glyph unicode="&#xa1;" glyph-name="exclamdown" horiz-adv-x="264" d="M192 412T192 436Q192 451 208 465T244 480Q258 480 267 473T276 453Q276 437 257 425T218 412Q192 412 192 436ZM-67 -250T-73 -244T-79 -227Q-79 -201 -23 -79T106 178T215 367Q215 336
200 289T160 177Q82 -25 30 -137T-59 -250Q-67 -250 -73 -244Z" />
<glyph unicode="&#xa2;" glyph-name="cent" horiz-adv-x="403" d="M102 -124T163 114Q113 114 83 147T52 242Q52 298 81 353T157 449T252 502Q274 605 284 675Q287 692 296 703T329 720L289 508Q328 508 345 487T362 434Q362 404 349 383T312 361Q295 361 283
376Q298 383 309 407T320 455Q320 468 315 474T298 480Q288 480 283 479Q244 269 220 155Q288 167 341 214L358 198Q329 170 290 150T213 120Q190 18 173 -39T130 -129T68 -162Q102 -124 163 114ZM206 281T245 465Q210 446 180 407T132 321T114 235Q114 202 127
179T173 152Q206 281 245 465Z" />
<glyph unicode="&#xa3;" glyph-name="sterling" horiz-adv-x="650" d="M227 41T236 39T254 33Q339 7 390 -5T484 -18Q524 -18 555 -2Q539 -47 513 -67T450 -87Q411 -87 365 -70T242 -18L190 6Q137 -53 79 -53Q49 -53 26 -39T-9 -5T-21 34Q-21 54 -4 66T52 78Q96
78 175 57Q207 111 247 233Q190 232 124 221Q130 249 168 264T264 284L300 400Q254 415 228 444T201 507Q201 536 218 561T263 586Q256 577 253 559T250 524Q250 487 265 461T307 421Q353 562 403 641T522 720Q559 720 589 696T619 618Q619 568 592 515T511 425T379
388H363Q343 328 327 284Q363 283 438 274Q468 270 491 268Q480 252 462 245T410 236T309 234Q262 109 219 44Q227 41 236 39ZM487 695T452 624T369 407Q425 407 470 448T540 545T565 645Q565 672 555 683T529 695Q487 695 452 624ZM117 -24T152 22Q78 52 38 52Q5
52 5 33Q5 14 25 -5T75 -24Q117 -24 152 22Z" />
<glyph unicode="&#xa4;" glyph-name="currency" horiz-adv-x="697" d="M591 38T575 55T528 101Q485 142 459 169Q401 96 335 96Q281 96 252 136Q209 88 166 66T83 43Q95 55 119 72Q153 97 178 120T229 180Q220 207 220 247Q220 289 232 336T266 424Q193 503 148
544Q140 551 135 568T130 604Q130 623 136 638Q164 611 293 469Q320 505 353 525T423 546Q458 546 484 528T526 478Q541 496 561 525Q580 553 593 567T627 591T676 601Q682 601 694 599Q681 580 573 456Q573 456 540 417L541 401Q541 358 527 308T487 212Q601 105
601 42Q601 30 599 24Q591 38 575 55ZM376 149T409 192T465 297T488 412Q488 447 468 471T423 496Q385 496 351 452T297 345T277 237Q277 200 298 175T343 149Q376 149 409 192Z" />
<glyph unicode="&#xa5;" glyph-name="yen" horiz-adv-x="810" d="M282 -187T243 -162T204 -93Q204 -38 264 -18Q256 -45 256 -72Q256 -114 278 -138T343 -162Q443 -162 506 -23Q421 -23 355 -34Q365 -8 407 2T521 15Q528 32 541 77H536Q426 77 355 66Q365 94 414
104T544 115H550L552 121Q555 134 568 200Q573 225 579 256T594 326Q551 243 498 197T377 151Q320 151 294 182T268 270Q268 306 277 349T304 454Q321 515 328 550T336 614Q336 649 323 670T279 692Q245 692 221 664T184 596T171 519Q171 489 179 470Q143 470 127
489T110 539Q110 581 136 623T207 692T301 720Q354 720 379 690T405 619Q405 596 398 566T376 481Q357 413 348 369T338 287Q338 191 408 191Q471 191 525 263T620 440Q651 567 680 643T740 720Q750 720 766 711T796 688Q760 631 740 582T698 455T631 194L624 167Q620
149 610 113Q668 110 712 106Q672 77 609 77H600Q590 45 578 14Q626 13 712 6Q672 -23 609 -23H562Q526 -100 474 -143T342 -187Q282 -187 243 -162Z" />
<glyph unicode="&#xa6;" glyph-name="brokenbar" horiz-adv-x="260" d="M127 409Q137 532 144 601T159 697Q174 690 180 674T187 640Q187 624 183 554Q177 454 177 382Q177 368 170 348T145 316L117 296L127 409ZM71 -90T83 -7T108 197Q116 205 128 211T154 217Q166
217 166 194Q158 75 148 9T117 -95T55 -132Q71 -90 83 -7Z" />
<glyph unicode="&#xa7;" glyph-name="section" horiz-adv-x="416" d="M84 -87T46 -57T7 28Q7 73 31 93T88 113Q71 95 62 73T53 28Q53 -10 78 -36T151 -62Q198 -62 234 -37T270 31Q270 66 248 90T179 145Q144 169 123 187T87 231T72 290Q72 326 90 358T145 410T232
430Q248 430 256 429Q204 458 178 483T152 549Q152 585 175 625T239 692T330 719Q401 719 401 656Q401 624 386 585T352 515Q331 519 331 542Q331 554 336 572T349 609Q368 655 368 677Q368 691 360 697T333 704Q295 704 263 681T211 624T192 562Q192 534 209 516T265
475Q299 453 320 436T356 390T371 320Q371 256 335 224T234 191Q218 191 210 193T191 200Q181 205 166 210Q173 202 187 194T206 183Q256 154 285 125T314 50Q314 10 288 -21T222 -70T140 -87Q84 -87 46 -57ZM265 231T289 253T314 316Q314 355 292 378T227 401Q185
401 157 379T128 310Q128 280 146 256T219 231Q265 231 289 253Z" />
<glyph unicode="&#xa8;" glyph-name="dieresis" horiz-adv-x="239" d="M21 430T11 437T0 460Q0 478 21 492T66 507Q96 507 96 479Q96 462 78 446T37 430Q21 430 11 437ZM165 409T155 416T144 439Q144 457 165 471T210 486Q240 486 240 458Q240 441 222 425T181
409Q165 409 155 416Z" />
<glyph unicode="&#xa9;" glyph-name="copyright" horiz-adv-x="592" d="M264 100T208 129T115 217T79 358Q79 442 116 501T211 590T327 620Q386 620 442 591T535 503T571 362Q571 278 534 219T439 130T323 100Q264 100 208 129ZM386 128T436 157T514 240T543 362Q543
428 516 480T440 562T327 592Q264 592 214 563T136 480T107 358Q107 292 134 240T210 158T323 128Q386 128 436 157ZM289 209T267 231T245 299V431Q245 478 267 500T326 522Q355 522 373 510T399 482T408 451Q408 434 393 434Q384 434 382 437T378 446Q370 495
327 495Q302 495 289 479T275 431V299Q275 235 329 235Q354 235 366 252T378 284Q378 290 382 293T391 296Q408 296 408 282Q406 250 385 230T326 209Q289 209 267 231Z" />
<glyph unicode="&#xaa;" glyph-name="ordfeminine" horiz-adv-x="383" d="M134 447T120 462T105 506Q105 547 135 598T210 684T299 720Q326 720 344 706T362 668Q362 638 328 638Q332 654 332 662Q332 679 324 690T297 702Q266 702 232 668T176 585T153 503Q153
476 172 476Q217 476 319 629Q347 622 347 611Q347 605 341 594T332 579Q306 536 306 514Q306 502 312 493T330 483Q350 483 381 512T442 594L449 587Q428 531 388 495T311 459Q286 459 273 473T260 508Q260 513 262 529Q231 487 207 467T157 447Q134 447 120 462Z"
/>
<glyph unicode="&#xab;" glyph-name="guillemotleft" horiz-adv-x="436" d="M142 44T106 64T41 111T6 158Q55 179 109 225T196 316Q198 312 199 306T201 294Q201 258 152 221T32 147Q72 118 102 101T194 60Q180 44 165 44Q142 44 106 64ZM292 44T256 64T191 111T156
158Q205 179 259 225T346 316Q348 312 349 306T351 294Q351 258 302 221T182 147Q222 118 252 101T344 60Q330 44 315 44Q292 44 256 64Z" />
<glyph unicode="&#xac;" glyph-name="logicalnot" horiz-adv-x="667" d="M496 65T498 89T500 154V197Q482 195 450 195Q390 194 304 194Q210 194 162 193T44 184Q61 212 139 222T346 233Q432 233 501 230Q506 261 529 282Q530 275 531 262T535 228Q552 228 615
224Q585 210 537 201L538 165Q538 108 528 74T489 33Q496 65 498 89Z" />
<glyph unicode="&#xad;" glyph-name="uni00AD" horiz-adv-x="485" d="M45 172T94 182T224 193Q305 193 392 184Q368 168 328 162T188 155Q138 155 108 153T35 144Q45 172 94 182Z" />
<glyph unicode="&#xae;" glyph-name="registered" horiz-adv-x="592" d="M264 100T208 129T115 217T79 358Q79 442 116 501T211 590T327 620Q386 620 442 591T535 503T571 362Q571 278 534 219T439 130T323 100Q264 100 208 129ZM386 128T436 157T514 240T543
362Q543 428 516 480T440 562T327 592Q264 592 214 563T136 480T107 358Q107 292 134 240T210 158T323 128Q386 128 436 157ZM261 210T256 214T251 224V508Q251 513 255 517T266 521H329Q367 521 391 502T415 437Q415 401 399 381T355 355L413 231Q415 227 415
224Q415 218 412 214T401 210Q391 210 384 223T376 239L323 353H282V224Q282 218 278 214T267 210Q261 210 256 214ZM329 379Q384 379 384 437Q384 494 329 494H282V379H329Z" />
<glyph unicode="&#xaf;" glyph-name="overscore" horiz-adv-x="407" d="M286 418T244 425T161 441Q82 457 60 459Q70 485 106 485Q188 485 347 438Q333 418 309 418Q286 418 244 425Z" />
<glyph unicode="&#xb0;" glyph-name="degree" horiz-adv-x="265" d="M127 396T110 411T92 450Q92 474 108 500T153 544T214 562Q253 562 271 547T290 508Q290 484 273 458T226 414T164 396Q127 396 110 411ZM190 413T211 428T246 467T260 509Q260 545 214 545Q193
545 172 530T138 492T124 450Q124 433 135 423T169 413Q190 413 211 428Z" />
<glyph unicode="&#xb1;" glyph-name="plusminus" horiz-adv-x="449" d="M193 149T195 176T197 247Q146 247 120 246T54 239Q62 259 99 267T197 278V318Q197 369 223 400Q230 352 231 278Q302 277 375 271Q339 247 282 247H231Q229 190 220 157T187 115Q193 149
195 176ZM63 56T107 64T224 73Q314 73 375 66Q354 53 322 48T222 43Q119 43 54 34Q63 56 107 64Z" />
<glyph unicode="&#xb2;" glyph-name="uni00B2" horiz-adv-x="355" d="M264 304T241 311T185 333L166 341Q135 320 110 320Q93 320 83 328T72 349Q72 375 113 375Q129 375 164 368Q213 411 253 486T294 623Q294 657 281 674T245 691Q216 691 199 663T181 593Q181
577 188 557H180Q160 563 151 573T142 603Q142 645 174 676T253 708Q290 708 313 682T337 616Q337 553 295 481T196 362L204 360Q272 344 295 344Q311 344 339 362Q331 332 318 318T282 304Q264 304 241 311ZM119 338T140 351Q122 358 109 358Q102 358 99 355T95
348Q95 344 99 341T109 338Q119 338 140 351Z" />
<glyph unicode="&#xb3;" glyph-name="uni00B3" horiz-adv-x="295" d="M123 314T102 336T81 387Q81 408 93 425T126 442Q134 442 140 440Q132 434 128 421T123 393Q123 369 136 352T171 334Q190 334 207 348T236 386T248 442Q248 475 234 500T189 533Q226 549 249
585T273 654Q273 678 262 689T232 701Q211 701 195 687T179 649Q179 635 187 616Q184 610 177 605T163 600Q153 600 148 613T142 641Q142 676 171 697T238 718Q271 718 294 701T318 652Q318 619 295 585T236 538Q272 526 289 499T306 442Q306 410 288 381T237 333T166
314Q123 314 102 336Z" />
<glyph unicode="&#xb4;" glyph-name="acute" horiz-adv-x="125" d="M95 407T92 415T88 430Q88 442 106 472T149 527T192 551Q211 551 214 520Q140 456 102 404Q95 407 92 415Z" />
<glyph unicode="&#xb5;" glyph-name="uni00B5" horiz-adv-x="585" d="M-21 -280T-30 -264T-40 -242Q-28 -202 -1 -126Q22 -63 38 -11T71 130T105 356Q106 366 109 369T124 373Q148 373 160 360T172 327Q146 212 135 153T124 60Q124 10 153 10Q188 10 229 74T319
238L335 271Q383 262 383 245Q383 243 379 232T370 211Q347 160 332 116T316 40Q316 0 349 0Q371 0 401 19T462 76T516 162L529 153Q508 100 475 59T402 -6T328 -30Q258 -30 258 44Q258 64 265 94Q233 37 201 4T134 -30Q109 -30 92 -13Q17 -280 -9 -280Q-21 -280
-30 -264Z" />
<glyph unicode="&#xb6;" glyph-name="paragraph" horiz-adv-x="644" d="M340 37L350 156Q249 161 155 200T61 336Q61 406 108 459T227 542T372 579Q370 653 363 708Q379 716 392 716Q416 716 422 688T429 609Q429 587 430 578Q444 577 454 575T472 572Q470 661
466 708Q478 716 492 716Q520 716 528 558Q576 542 611 525Q608 518 592 508T570 498Q566 498 549 508L529 519Q530 502 530 468Q530 260 525 122T514 -37Q506 -60 487 -73T446 -87Q449 -81 455 30T467 285T472 541V545Q455 550 431 555Q434 480 434 334Q434 185
428 82T417 -37Q409 -58 383 -72T329 -87L340 37Z" />
<glyph unicode="&#xb7;" glyph-name="middot" horiz-adv-x="209" d="M56 124T47 131T38 151Q38 167 57 179T96 192Q122 192 122 168Q122 153 106 139T70 124Q56 124 47 131Z" />
<glyph unicode="&#xb8;" glyph-name="cedilla" horiz-adv-x="217" d="M53 -211T37 -201T20 -175Q20 -158 42 -142Q47 -165 58 -176T84 -187Q102 -187 121 -173T154 -138T167 -100Q167 -91 163 -83T150 -75Q139 -75 126 -82T92 -102Q88 -104 79 -110T65 -116Q59
-116 55 -110T51 -98Q51 -94 80 -54T126 0H139L86 -81Q101 -70 116 -64T153 -57Q198 -57 198 -99Q198 -127 182 -153T138 -195T81 -211Q53 -211 37 -201Z" />
<glyph unicode="&#xb9;" glyph-name="uni00B9" horiz-adv-x="260" d="M98 314T86 320T66 338H78L87 337Q109 337 137 342Q150 371 160 417T184 537Q197 612 205 640Q165 614 154 614Q146 614 143 618T139 632Q153 639 186 665T244 717H250Q255 712 255 701Q255
690 249 668Q242 639 231 580L212 488L199 426Q192 395 186 377T171 347Q176 348 184 348Q206 348 219 341T236 316Q210 318 193 318Q175 318 147 316Q121 314 109 314Q98 314 86 320Z" />
<glyph unicode="&#xba;" glyph-name="ordmasculine" horiz-adv-x="279" d="M137 452T122 468T107 512Q107 550 132 599T197 684T277 720Q300 720 307 706Q321 706 328 698T336 679Q336 673 326 651Q317 633 313 620T308 591Q308 575 328 575Q331 575 355 578Q350
570 339 564T314 558Q295 558 288 571Q265 517 232 485T163 452Q137 452 122 468ZM202 482T231 513T279 589Q275 605 275 629Q275 674 288 693Q251 693 220 662T171 589T152 517Q152 501 159 492T179 482Q202 482 231 513Z" />
<glyph unicode="&#xbb;" glyph-name="guillemotright" horiz-adv-x="455" d="M72 44T58 60Q120 84 150 101T220 147Q149 184 100 221T51 294Q51 300 52 306T56 316Q88 271 142 225T246 158Q241 139 212 112T146 64T87 44Q72 44 58 60ZM222 44T208 60Q270 84 300
101T370 147Q299 184 250 221T201 294Q201 300 202 306T206 316Q238 271 292 225T396 158Q391 139 362 112T296 64T237 44Q222 44 208 60Z" />
<glyph unicode="&#xbc;" glyph-name="onequarter" horiz-adv-x="642" d="M89 -43T178 104T353 417T475 675Q480 690 508 705T559 720Q540 672 415 433T230 97Q173 6 129 -40T45 -87Q89 -43 178 104ZM98 314T86 320T66 338H78L87 337Q109 337 137 342Q150 371 160
417T184 537Q197 612 205 640Q165 614 154 614Q146 614 143 618T139 632Q153 639 186 665T244 717H250Q255 712 255 701Q255 690 249 668Q242 639 231 580L212 488L199 426Q192 395 186 377T171 347Q176 348 184 348Q206 348 219 341T236 316Q210 318 193 318Q175
318 147 316Q121 314 109 314Q98 314 86 320ZM462 -23T462 0Q462 19 487 134L468 135H451Q391 135 350 126Q350 141 360 151Q432 215 486 270T569 377Q582 375 582 363Q582 360 576 340Q574 333 563 289T536 164H553Q564 164 589 169Q578 154 564 144T538 134H531Q526
107 518 54T510 -26Q462 -23 462 0ZM429 167T448 167L476 166H495L500 189Q512 249 522 279L478 236L459 218Q425 188 405 165Q429 167 448 167Z" />
<glyph unicode="&#xbd;" glyph-name="onehalf" horiz-adv-x="698" d="M95 -43T184 104T359 417T481 675Q486 690 514 705T565 720Q546 672 421 433T236 97Q179 6 135 -40T51 -87Q95 -43 184 104ZM104 314T92 320T72 338H84L93 337Q115 337 143 342Q156 371 166
417T190 537Q203 612 211 640Q171 614 160 614Q152 614 149 618T145 632Q159 639 192 665T250 717H256Q261 712 261 701Q261 690 255 668Q248 639 237 580L218 488L205 426Q198 395 192 377T177 347Q182 348 190 348Q212 348 225 341T242 316Q216 318 199 318Q181
318 153 316Q127 314 115 314Q104 314 92 320ZM537 -26T514 -19T458 3L439 11Q407 -10 383 -10Q366 -10 356 -2T345 19Q345 45 386 45Q402 45 437 38Q486 81 526 156T567 293Q567 327 554 344T518 361Q489 361 472 333T454 263Q454 247 461 227H453Q433 233 424
243T415 273Q415 315 447 346T526 378Q563 378 586 352T610 286Q610 223 568 151T469 32L477 30Q545 14 568 14Q584 14 612 32Q604 2 591 -12T555 -26Q537 -26 514 -19ZM392 8T413 21Q395 28 382 28Q375 28 372 25T368 18Q368 14 372 11T382 8Q392 8 413 21Z" />
<glyph unicode="&#xbe;" glyph-name="threequarters" horiz-adv-x="685" d="M132 -43T221 104T396 417T518 675Q523 690 551 705T602 720Q583 672 458 433T273 97Q216 6 172 -40T88 -87Q132 -43 221 104ZM125 314T104 336T83 387Q83 408 95 425T128 442Q136 442
142 440Q134 434 130 421T125 393Q125 369 138 352T173 334Q192 334 209 348T238 386T250 442Q250 475 236 500T191 533Q228 549 251 585T275 654Q275 678 264 689T234 701Q213 701 197 687T181 649Q181 635 189 616Q186 610 179 605T165 600Q155 600 150 613T144
641Q144 676 173 697T240 718Q273 718 296 701T320 652Q320 619 297 585T238 538Q274 526 291 499T308 442Q308 410 290 381T239 333T168 314Q125 314 104 336ZM505 -23T505 0Q505 19 530 134L511 135H494Q434 135 393 126Q393 141 403 151Q475 215 529 270T612
377Q625 375 625 363Q625 360 619 340Q617 333 606 289T579 164H596Q607 164 632 169Q621 154 607 144T581 134H574Q569 107 561 54T553 -26Q505 -23 505 0ZM472 167T491 167L519 166H538L543 189Q555 249 565 279L521 236L502 218Q468 188 448 165Q472 167 491
167Z" />
<glyph unicode="&#xbf;" glyph-name="questiondown" horiz-adv-x="415" d="M156 322T156 344Q156 361 172 375T208 390Q221 390 230 383T240 364Q240 347 222 335T182 322Q156 322 156 344ZM22 -280T-14 -249T-50 -161Q-50 -113 -28 -78T42 5Q85 50 108 81T145
154Q152 176 156 204Q162 239 170 256Q189 247 195 239T201 214Q201 167 178 130T109 41Q76 3 57 -23T24 -82T10 -153Q10 -202 32 -228T89 -255Q124 -255 159 -229T217 -159T240 -64Q240 -43 233 -13Q269 -18 282 -35T295 -82Q295 -133 268 -178T193 -252T85 -280Q22
-280 -14 -249Z" />
<glyph unicode="&#xc0;" glyph-name="Agrave" horiz-adv-x="592" d="M-17 -68T-17 -35Q-17 4 24 87T135 278Q74 283 27 283H-8Q11 335 96 335Q123 335 168 328Q245 444 324 546T450 692Q479 720 498 720Q519 720 551 688Q531 672 493 559T425 311T395 94Q395 54
403 34T432 14Q487 14 563 162L573 152Q542 70 496 20T400 -30Q360 -30 341 5T322 104Q322 168 339 253Q275 263 191 273Q93 93 17 -87Q-17 -68 -17 -35ZM367 382T400 483T466 657Q421 629 356 539T217 319Q257 311 301 299L346 288Q367 382 400 483ZM495 800T421
864Q424 895 443 895Q461 895 485 871T528 817T547 774Q547 768 544 760T533 748Q495 800 421 864Z" />
<glyph unicode="&#xc1;" glyph-name="Aacute" horiz-adv-x="592" d="M-17 -68T-17 -35Q-17 4 24 87T135 278Q74 283 27 283H-8Q11 335 96 335Q123 335 168 328Q245 444 324 546T450 692Q479 720 498 720Q519 720 551 688Q531 672 493 559T425 311T395 94Q395 54
403 34T432 14Q487 14 563 162L573 152Q542 70 496 20T400 -30Q360 -30 341 5T322 104Q322 168 339 253Q275 263 191 273Q93 93 17 -87Q-17 -68 -17 -35ZM367 382T400 483T466 657Q421 629 356 539T217 319Q257 311 301 299L346 288Q367 382 400 483ZM528 751T525
759T521 774Q521 786 539 816T582 871T625 895Q644 895 647 864Q573 800 535 748Q528 751 525 759Z" />
<glyph unicode="&#xc2;" glyph-name="Acircumflex" horiz-adv-x="592" d="M-17 -68T-17 -35Q-17 4 24 87T135 278Q74 283 27 283H-8Q11 335 96 335Q123 335 168 328Q245 444 324 546T450 692Q479 720 498 720Q519 720 551 688Q531 672 493 559T425 311T395 94Q395
54 403 34T432 14Q487 14 563 162L573 152Q542 70 496 20T400 -30Q360 -30 341 5T322 104Q322 168 339 253Q275 263 191 273Q93 93 17 -87Q-17 -68 -17 -35ZM367 382T400 483T466 657Q421 629 356 539T217 319Q257 311 301 299L346 288Q367 382 400 483ZM614 770T597
790T553 836Q519 824 495 811T450 779Q440 785 440 798Q440 816 462 836T512 871T554 886Q570 886 591 867T628 822T644 775Q644 753 627 744Q614 770 597 790Z" />
<glyph unicode="&#xc3;" glyph-name="Atilde" horiz-adv-x="592" d="M-17 -68T-17 -35Q-17 4 24 87T135 278Q74 283 27 283H-8Q11 335 96 335Q123 335 168 328Q245 444 324 546T450 692Q479 720 498 720Q519 720 551 688Q531 672 493 559T425 311T395 94Q395 54
403 34T432 14Q487 14 563 162L573 152Q542 70 496 20T400 -30Q360 -30 341 5T322 104Q322 168 339 253Q275 263 191 273Q93 93 17 -87Q-17 -68 -17 -35ZM367 382T400 483T466 657Q421 629 356 539T217 319Q257 311 301 299L346 288Q367 382 400 483ZM603 761T585
766T538 783Q509 795 488 801T446 807Q415 807 392 792Q428 842 479 842Q497 842 516 837T561 820Q600 806 622 800T669 794Q685 794 703 802Q670 761 621 761Q603 761 585 766Z" />
<glyph unicode="&#xc4;" glyph-name="Adieresis" horiz-adv-x="592" d="M-17 -68T-17 -35Q-17 4 24 87T135 278Q74 283 27 283H-8Q11 335 96 335Q123 335 168 328Q245 444 324 546T450 692Q479 720 498 720Q519 720 551 688Q531 672 493 559T425 311T395 94Q395
54 403 34T432 14Q487 14 563 162L573 152Q542 70 496 20T400 -30Q360 -30 341 5T322 104Q322 168 339 253Q275 263 191 273Q93 93 17 -87Q-17 -68 -17 -35ZM367 382T400 483T466 657Q421 629 356 539T217 319Q257 311 301 299L346 288Q367 382 400 483ZM449 774T439
781T428 804Q428 822 449 836T494 851Q524 851 524 823Q524 806 506 790T465 774Q449 774 439 781ZM593 753T583 760T572 783Q572 801 593 815T638 830Q668 830 668 802Q668 785 650 769T609 753Q593 753 583 760Z" />
<glyph unicode="&#xc5;" glyph-name="Aring" horiz-adv-x="592" d="M-17 -68T-17 -35Q-17 4 24 87T135 278Q74 283 27 283H-8Q11 335 96 335Q123 335 168 328Q245 444 324 546T450 692Q479 720 498 720Q519 720 551 688Q531 672 493 559T425 311T395 94Q395 54
403 34T432 14Q487 14 563 162L573 152Q542 70 496 20T400 -30Q360 -30 341 5T322 104Q322 168 339 253Q275 263 191 273Q93 93 17 -87Q-17 -68 -17 -35ZM367 382T400 483T466 657Q421 629 356 539T217 319Q257 311 301 299L346 288Q367 382 400 483ZM497 754T480
769T462 808Q462 832 478 858T523 902T584 920Q623 920 641 905T660 866Q660 842 643 816T596 772T534 754Q497 754 480 769ZM562 774T580 788T611 822T623 860Q623 875 612 886T579 897Q560 897 542 884T513 852T501 815Q501 800 512 787T543 774Q562 774 580
788Z" />
<glyph unicode="&#xc6;" glyph-name="AE" horiz-adv-x="747" d="M-17 -68T-17 -35Q-17 4 24 87T135 278Q74 283 27 283H-8Q11 335 96 335Q123 335 168 328Q276 490 371 605T498 720Q570 720 661 713T807 697Q799 676 754 669T637 661Q596 661 534 663Q517 629
494 562T450 415Q523 413 623 397L658 392Q650 371 605 364T488 356Q449 356 435 357Q395 187 395 94Q395 70 398 53Q448 46 540 38Q550 37 599 33T670 23Q662 2 617 -5T500 -13Q389 -13 351 -9Q336 6 329 35T322 104Q322 168 339 253Q275 263 191 273Q93 93 17
-87Q-17 -68 -17 -35ZM367 382T400 483T466 657Q421 629 356 539T217 319Q257 311 301 299L346 288Q367 382 400 483Z" />
<glyph unicode="&#xc7;" glyph-name="Ccedilla" horiz-adv-x="534" d="M477 -57T477 -99Q477 -127 461 -153T417 -195T360 -211Q332 -211 316 -201T299 -175Q299 -158 321 -142Q326 -165 337 -176T363 -187Q381 -187 400 -173T433 -138T446 -100Q446 -91 442 -83T429
-75Q418 -75 405 -82T371 -102Q367 -104 358 -110T344 -116Q338 -116 334 -110T330 -98Q330 -96 344 -77T374 -36Q299 -87 219 -87Q152 -87 108 -53T43 36T22 157Q22 285 85 416T244 633T433 719Q476 719 500 698T525 633Q525 594 507 543T462 456T409 420Q389
420 378 443Q415 485 450 545T485 644Q485 665 473 677T436 689Q367 689 288 600T156 380T102 140Q102 58 137 3T243 -53Q294 -53 347 -24T444 55T515 162L529 152Q482 60 418 0L365 -81Q380 -70 395 -64T432 -57Q477 -57 477 -99Z" />
<glyph unicode="&#xc8;" glyph-name="Egrave" horiz-adv-x="498" d="M122 -87T78 -63T9 3T-15 95Q-15 156 20 213T114 308T244 354Q206 385 187 426T168 512Q168 565 195 613T269 690T374 719Q429 719 458 691T488 611Q488 575 475 540T443 483T408 460Q397 460
387 469T371 492Q455 565 455 631Q455 662 437 679T384 696Q317 696 279 639T241 495Q241 394 299 344Q235 333 185 294T106 201T78 92Q78 35 109 -9T206 -53Q257 -53 310 -24T407 55T478 162L492 152Q436 44 356 -21T180 -87Q122 -87 78 -63ZM382 800T308 864Q311
895 330 895Q348 895 372 871T415 817T434 774Q434 768 431 760T420 748Q382 800 308 864Z" />
<glyph unicode="&#xc9;" glyph-name="Eacute" horiz-adv-x="498" d="M122 -87T78 -63T9 3T-15 95Q-15 156 20 213T114 308T244 354Q206 385 187 426T168 512Q168 565 195 613T269 690T374 719Q429 719 458 691T488 611Q488 575 475 540T443 483T408 460Q397 460
387 469T371 492Q455 565 455 631Q455 662 437 679T384 696Q317 696 279 639T241 495Q241 394 299 344Q235 333 185 294T106 201T78 92Q78 35 109 -9T206 -53Q257 -53 310 -24T407 55T478 162L492 152Q436 44 356 -21T180 -87Q122 -87 78 -63ZM415 751T412 759T408
774Q408 786 426 816T469 871T512 895Q531 895 534 864Q460 800 422 748Q415 751 412 759Z" />
<glyph unicode="&#xca;" glyph-name="Ecircumflex" horiz-adv-x="498" d="M122 -87T78 -63T9 3T-15 95Q-15 156 20 213T114 308T244 354Q206 385 187 426T168 512Q168 565 195 613T269 690T374 719Q429 719 458 691T488 611Q488 575 475 540T443 483T408 460Q397
460 387 469T371 492Q455 565 455 631Q455 662 437 679T384 696Q317 696 279 639T241 495Q241 394 299 344Q235 333 185 294T106 201T78 92Q78 35 109 -9T206 -53Q257 -53 310 -24T407 55T478 162L492 152Q436 44 356 -21T180 -87Q122 -87 78 -63ZM501 770T484
790T440 836Q406 824 382 811T337 779Q327 785 327 798Q327 816 349 836T399 871T441 886Q457 886 478 867T515 822T531 775Q531 753 514 744Q501 770 484 790Z" />
<glyph unicode="&#xcb;" glyph-name="Edieresis" horiz-adv-x="498" d="M122 -87T78 -63T9 3T-15 95Q-15 156 20 213T114 308T244 354Q206 385 187 426T168 512Q168 565 195 613T269 690T374 719Q429 719 458 691T488 611Q488 575 475 540T443 483T408 460Q397
460 387 469T371 492Q455 565 455 631Q455 662 437 679T384 696Q317 696 279 639T241 495Q241 394 299 344Q235 333 185 294T106 201T78 92Q78 35 109 -9T206 -53Q257 -53 310 -24T407 55T478 162L492 152Q436 44 356 -21T180 -87Q122 -87 78 -63ZM336 774T326
781T315 804Q315 822 336 836T381 851Q411 851 411 823Q411 806 393 790T352 774Q336 774 326 781ZM480 753T470 760T459 783Q459 801 480 815T525 830Q555 830 555 802Q555 785 537 769T496 753Q480 753 470 760Z" />
<glyph unicode="&#xcc;" glyph-name="Igrave" horiz-adv-x="459" d="M-33 -38T8 -23T125 -8Q155 56 183 162T249 434Q254 456 273 539T307 661Q228 659 183 655T82 641Q89 680 137 699T286 718Q351 718 424 711T548 697Q527 676 503 669T451 662Q373 662 342 661L335
625Q273 281 243 162Q226 94 206 52T159 -9Q206 -12 256 -18Q329 -27 376 -28Q333 -71 263 -71H214Q122 -72 69 -74T-38 -88Q-33 -38 8 -23ZM308 800T234 864Q237 895 256 895Q274 895 298 871T341 817T360 774Q360 768 357 760T346 748Q308 800 234 864Z" />
<glyph unicode="&#xcd;" glyph-name="Iacute" horiz-adv-x="459" d="M-33 -38T8 -23T125 -8Q155 56 183 162T249 434Q254 456 273 539T307 661Q228 659 183 655T82 641Q89 680 137 699T286 718Q351 718 424 711T548 697Q527 676 503 669T451 662Q373 662 342 661L335
625Q273 281 243 162Q226 94 206 52T159 -9Q206 -12 256 -18Q329 -27 376 -28Q333 -71 263 -71H214Q122 -72 69 -74T-38 -88Q-33 -38 8 -23ZM341 751T338 759T334 774Q334 786 352 816T395 871T438 895Q457 895 460 864Q386 800 348 748Q341 751 338 759Z" />
<glyph unicode="&#xce;" glyph-name="Icircumflex" horiz-adv-x="459" d="M-33 -38T8 -23T125 -8Q155 56 183 162T249 434Q254 456 273 539T307 661Q228 659 183 655T82 641Q89 680 137 699T286 718Q351 718 424 711T548 697Q527 676 503 669T451 662Q373 662
342 661L335 625Q273 281 243 162Q226 94 206 52T159 -9Q206 -12 256 -18Q329 -27 376 -28Q333 -71 263 -71H214Q122 -72 69 -74T-38 -88Q-33 -38 8 -23ZM427 770T410 790T366 836Q332 824 308 811T263 779Q253 785 253 798Q253 816 275 836T325 871T367 886Q383
886 404 867T441 822T457 775Q457 753 440 744Q427 770 410 790Z" />
<glyph unicode="&#xcf;" glyph-name="Idieresis" horiz-adv-x="459" d="M-33 -38T8 -23T125 -8Q155 56 183 162T249 434Q254 456 273 539T307 661Q228 659 183 655T82 641Q89 680 137 699T286 718Q351 718 424 711T548 697Q527 676 503 669T451 662Q373 662 342
661L335 625Q273 281 243 162Q226 94 206 52T159 -9Q206 -12 256 -18Q329 -27 376 -28Q333 -71 263 -71H214Q122 -72 69 -74T-38 -88Q-33 -38 8 -23ZM262 774T252 781T241 804Q241 822 262 836T307 851Q337 851 337 823Q337 806 319 790T278 774Q262 774 252 781ZM406
753T396 760T385 783Q385 801 406 815T451 830Q481 830 481 802Q481 785 463 769T422 753Q406 753 396 760Z" />
<glyph unicode="&#xd0;" glyph-name="Eth" horiz-adv-x="654" d="M128 -87T102 -78T57 -42Q82 80 145 284Q98 284 32 274Q47 314 157 321Q198 451 230 538Q242 570 262 601T308 632Q322 632 336 622Q281 495 225 323Q302 323 389 314Q349 285 286 285H213Q153
97 120 -57Q144 -61 163 -61Q266 -61 360 16T512 213T570 457Q570 574 515 633T365 693Q301 693 249 668T166 597T136 498Q136 476 141 461Q110 461 96 476T81 517Q81 564 124 611T239 689T395 720Q522 720 583 645T644 446Q644 306 574 183T392 -13T164 -87Q128
-87 102 -78Z" />
<glyph unicode="&#xd1;" glyph-name="Ntilde" horiz-adv-x="640" d="M63 -24T120 163Q181 360 258 619Q265 644 265 660Q265 683 250 683Q219 683 193 653T150 581T134 505Q134 485 139 470Q108 470 94 485T79 527Q79 570 112 615T193 690T279 720Q316 720 338
679T372 575T395 408Q416 221 439 72Q452 157 485 287T554 532T600 671Q607 687 625 703T663 720Q627 625 580 460T499 141T464 -87Q432 -87 413 -69T386 -6Q373 64 344 260T295 589Q202 254 165 132T103 -38T46 -87Q63 -24 120 163ZM545 761T527 766T480 783Q451
795 430 801T388 807Q357 807 334 792Q370 842 421 842Q439 842 458 837T503 820Q542 806 564 800T611 794Q627 794 645 802Q612 761 563 761Q545 761 527 766Z" />
<glyph unicode="&#xd2;" glyph-name="Ograve" horiz-adv-x="623" d="M156 -87T113 -57T45 30T21 161Q21 286 84 417T245 633T435 719Q473 719 495 707H484Q401 707 313 619T167 398T109 147Q109 60 142 4T243 -53Q332 -53 405 34T521 253T564 505Q564 556 553
599T519 643Q496 643 468 607T416 519T384 429Q360 435 348 448T336 478Q336 512 367 558T442 637T517 670Q563 670 582 611T602 477Q602 306 541 178T389 -19T213 -87Q156 -87 113 -57ZM474 800T400 864Q403 895 422 895Q440 895 464 871T507 817T526 774Q526
768 523 760T512 748Q474 800 400 864Z" />
<glyph unicode="&#xd3;" glyph-name="Oacute" horiz-adv-x="623" d="M156 -87T113 -57T45 30T21 161Q21 286 84 417T245 633T435 719Q473 719 495 707H484Q401 707 313 619T167 398T109 147Q109 60 142 4T243 -53Q332 -53 405 34T521 253T564 505Q564 556 553
599T519 643Q496 643 468 607T416 519T384 429Q360 435 348 448T336 478Q336 512 367 558T442 637T517 670Q563 670 582 611T602 477Q602 306 541 178T389 -19T213 -87Q156 -87 113 -57ZM507 751T504 759T500 774Q500 786 518 816T561 871T604 895Q623 895 626
864Q552 800 514 748Q507 751 504 759Z" />
<glyph unicode="&#xd4;" glyph-name="Ocircumflex" horiz-adv-x="623" d="M156 -87T113 -57T45 30T21 161Q21 286 84 417T245 633T435 719Q473 719 495 707H484Q401 707 313 619T167 398T109 147Q109 60 142 4T243 -53Q332 -53 405 34T521 253T564 505Q564 556
553 599T519 643Q496 643 468 607T416 519T384 429Q360 435 348 448T336 478Q336 512 367 558T442 637T517 670Q563 670 582 611T602 477Q602 306 541 178T389 -19T213 -87Q156 -87 113 -57ZM593 770T576 790T532 836Q498 824 474 811T429 779Q419 785 419 798Q419
816 441 836T491 871T533 886Q549 886 570 867T607 822T623 775Q623 753 606 744Q593 770 576 790Z" />
<glyph unicode="&#xd5;" glyph-name="Otilde" horiz-adv-x="623" d="M156 -87T113 -57T45 30T21 161Q21 286 84 417T245 633T435 719Q473 719 495 707H484Q401 707 313 619T167 398T109 147Q109 60 142 4T243 -53Q332 -53 405 34T521 253T564 505Q564 556 553
599T519 643Q496 643 468 607T416 519T384 429Q360 435 348 448T336 478Q336 512 367 558T442 637T517 670Q563 670 582 611T602 477Q602 306 541 178T389 -19T213 -87Q156 -87 113 -57ZM582 761T564 766T517 783Q488 795 467 801T425 807Q394 807 371 792Q407
842 458 842Q476 842 495 837T540 820Q579 806 601 800T648 794Q664 794 682 802Q649 761 600 761Q582 761 564 766Z" />
<glyph unicode="&#xd6;" glyph-name="Odieresis" horiz-adv-x="623" d="M156 -87T113 -57T45 30T21 161Q21 286 84 417T245 633T435 719Q473 719 495 707H484Q401 707 313 619T167 398T109 147Q109 60 142 4T243 -53Q332 -53 405 34T521 253T564 505Q564 556 553
599T519 643Q496 643 468 607T416 519T384 429Q360 435 348 448T336 478Q336 512 367 558T442 637T517 670Q563 670 582 611T602 477Q602 306 541 178T389 -19T213 -87Q156 -87 113 -57ZM428 774T418 781T407 804Q407 822 428 836T473 851Q503 851 503 823Q503
806 485 790T444 774Q428 774 418 781ZM572 753T562 760T551 783Q551 801 572 815T617 830Q647 830 647 802Q647 785 629 769T588 753Q572 753 562 760Z" />
<glyph unicode="&#xd7;" glyph-name="multiply" horiz-adv-x="377" d="M224 67T159 132L151 139Q118 106 98 83T52 25Q48 33 48 43Q48 66 67 96T125 167Q56 241 56 282Q56 292 60 300Q83 268 102 246T151 193Q216 258 276 305Q269 257 224 212L179 166L232 113Q276
67 284 20Q224 67 159 132Z" />
<glyph unicode="&#xd8;" glyph-name="Oslash" horiz-adv-x="623" d="M40 -101T30 -99Q52 -84 92 -39Q58 -7 40 44T21 161Q21 286 84 417T245 633T435 719Q473 719 495 707H484Q401 707 313 619T167 398T109 147Q109 62 137 12Q223 119 328 274T550 608Q538 643
519 643Q496 643 468 607T416 519T384 429Q360 435 348 448T336 478Q336 512 367 558T442 637T517 670Q549 670 569 638L573 643Q580 654 603 662T648 671Q659 671 664 670L650 649L594 566Q602 526 602 477Q602 306 541 178T389 -19T213 -87Q170 -87 132 -68Q86
-101 46 -101Q40 -101 30 -99ZM332 -53T405 34T521 253T564 505V521Q347 200 239 46Q204 -3 174 -32Q205 -53 243 -53Q332 -53 405 34Z" />
<glyph unicode="&#xd9;" glyph-name="Ugrave" horiz-adv-x="706" d="M505 -99T483 -68T460 7Q460 38 469 98Q384 -87 253 -87Q191 -87 157 -49T123 49Q123 90 137 148T182 307Q215 418 231 485T248 604Q248 692 192 692Q158 692 134 664T98 596T86 519Q86 489
94 470Q58 470 42 489T25 539Q25 581 51 623T122 692T216 720Q269 720 294 688T319 599Q319 549 304 488T256 325Q226 228 211 170T196 65Q196 15 216 -16T280 -47Q331 -47 373 -5T443 100T487 224Q541 446 583 583T661 720Q669 720 683 712T711 688Q693 676 647
550T564 276T527 42Q527 -25 545 -50T607 -75Q572 -99 541 -99Q505 -99 483 -68ZM439 800T365 864Q368 895 387 895Q405 895 429 871T472 817T491 774Q491 768 488 760T477 748Q439 800 365 864Z" />
<glyph unicode="&#xda;" glyph-name="Uacute" horiz-adv-x="706" d="M505 -99T483 -68T460 7Q460 38 469 98Q384 -87 253 -87Q191 -87 157 -49T123 49Q123 90 137 148T182 307Q215 418 231 485T248 604Q248 692 192 692Q158 692 134 664T98 596T86 519Q86 489
94 470Q58 470 42 489T25 539Q25 581 51 623T122 692T216 720Q269 720 294 688T319 599Q319 549 304 488T256 325Q226 228 211 170T196 65Q196 15 216 -16T280 -47Q331 -47 373 -5T443 100T487 224Q541 446 583 583T661 720Q669 720 683 712T711 688Q693 676 647
550T564 276T527 42Q527 -25 545 -50T607 -75Q572 -99 541 -99Q505 -99 483 -68ZM472 751T469 759T465 774Q465 786 483 816T526 871T569 895Q588 895 591 864Q517 800 479 748Q472 751 469 759Z" />
<glyph unicode="&#xdb;" glyph-name="Ucircumflex" horiz-adv-x="706" d="M505 -99T483 -68T460 7Q460 38 469 98Q384 -87 253 -87Q191 -87 157 -49T123 49Q123 90 137 148T182 307Q215 418 231 485T248 604Q248 692 192 692Q158 692 134 664T98 596T86 519Q86
489 94 470Q58 470 42 489T25 539Q25 581 51 623T122 692T216 720Q269 720 294 688T319 599Q319 549 304 488T256 325Q226 228 211 170T196 65Q196 15 216 -16T280 -47Q331 -47 373 -5T443 100T487 224Q541 446 583 583T661 720Q669 720 683 712T711 688Q693 676
647 550T564 276T527 42Q527 -25 545 -50T607 -75Q572 -99 541 -99Q505 -99 483 -68ZM558 770T541 790T497 836Q463 824 439 811T394 779Q384 785 384 798Q384 816 406 836T456 871T498 886Q514 886 535 867T572 822T588 775Q588 753 571 744Q558 770 541 790Z"
/>
<glyph unicode="&#xdc;" glyph-name="Udieresis" horiz-adv-x="706" d="M505 -99T483 -68T460 7Q460 38 469 98Q384 -87 253 -87Q191 -87 157 -49T123 49Q123 90 137 148T182 307Q215 418 231 485T248 604Q248 692 192 692Q158 692 134 664T98 596T86 519Q86 489
94 470Q58 470 42 489T25 539Q25 581 51 623T122 692T216 720Q269 720 294 688T319 599Q319 549 304 488T256 325Q226 228 211 170T196 65Q196 15 216 -16T280 -47Q331 -47 373 -5T443 100T487 224Q541 446 583 583T661 720Q669 720 683 712T711 688Q693 676 647
550T564 276T527 42Q527 -25 545 -50T607 -75Q572 -99 541 -99Q505 -99 483 -68ZM393 774T383 781T372 804Q372 822 393 836T438 851Q468 851 468 823Q468 806 450 790T409 774Q393 774 383 781ZM537 753T527 760T516 783Q516 801 537 815T582 830Q612 830 612
802Q612 785 594 769T553 753Q537 753 527 760Z" />
<glyph unicode="&#xdd;" glyph-name="Yacute" horiz-adv-x="666" d="M195 -187T156 -162T117 -93Q117 -38 177 -18Q169 -45 169 -72Q169 -114 191 -138T256 -162Q344 -162 392 -76T465 121Q468 134 481 200Q486 225 492 256T507 326Q464 243 411 197T290 151Q233
151 207 182T181 270Q181 306 190 349T217 454Q234 515 241 550T249 614Q249 649 236 670T192 692Q158 692 134 664T97 596T84 519Q84 489 92 470Q56 470 40 489T23 539Q23 581 49 623T120 692T214 720Q267 720 292 690T318 619Q318 596 311 566T289 481Q270 413
261 369T251 287Q251 191 321 191Q384 191 438 263T533 440Q564 567 593 643T653 720Q663 720 679 711T709 688Q673 631 653 582T611 455T544 194Q515 78 486 1T401 -131T255 -187Q195 -187 156 -162ZM459 751T456 759T452 774Q452 786 470 816T513 871T556 895Q575
895 578 864Q504 800 466 748Q459 751 456 759Z" />
<glyph unicode="&#xde;" glyph-name="Thorn" horiz-adv-x="508" d="M73 -87T52 -73T31 -37Q31 -24 37 -5T45 18Q99 186 141 310T232 555Q195 549 168 538T105 509Q88 498 82 498Q75 498 63 508T51 525Q161 572 241 578L253 608Q272 660 289 688T330 716Q343 716
356 708Q328 653 300 579Q358 574 410 550T496 485T529 387Q529 299 464 249T318 179T168 156L138 50Q121 -14 100 -87Q73 -87 52 -73ZM248 184T313 211T420 288T462 404Q462 478 414 516T292 558Q244 427 173 175Q248 184 313 211Z" />
<glyph unicode="&#xdf;" glyph-name="germandbls" horiz-adv-x="427" d="M-32 -100T-23 -54T2 94Q30 275 58 401T141 623T280 720Q326 720 355 691T385 610Q385 542 339 483T230 384Q218 377 218 371Q218 366 231 360Q267 344 297 308T344 228T361 147Q361 95
333 40T261 -51T173 -87Q140 -87 122 -48T103 44Q103 92 119 127T164 163Q175 163 180 162Q165 154 155 110T144 19Q144 -19 151 -43T174 -67Q199 -67 226 -32T272 56T290 161Q290 216 269 267T212 346Q192 361 192 372Q192 385 216 406Q270 457 300 503T331 611Q331
646 318 669T272 693Q222 693 188 633T133 485T87 256Q66 136 51 67T12 -54T-43 -115Q-32 -100 -23 -54Z" />
<glyph unicode="&#xe0;" glyph-name="agrave" horiz-adv-x="436" d="M15 -47T-5 -26T-26 36Q-26 95 16 168T124 292T251 343Q290 343 316 322T342 268Q342 245 329 235T293 225Q298 243 298 260Q298 285 286 300T249 316Q205 316 157 267T76 150T43 33Q43 -6 70
-6Q110 -6 164 57T280 212Q293 210 306 204T320 187Q320 179 311 162T299 141Q282 112 272 90T262 48Q262 31 270 18T296 4Q325 4 369 45T456 162L466 152Q445 99 412 58T341 -7T268 -30Q233 -30 215 -10T196 40Q196 53 199 69Q154 9 119 -19T48 -47Q15 -47 -5
-26ZM287 462T213 526Q216 557 235 557Q253 557 277 533T320 479T339 436Q339 430 336 422T325 410Q287 462 213 526Z" />
<glyph unicode="&#xe1;" glyph-name="aacute" horiz-adv-x="436" d="M15 -47T-5 -26T-26 36Q-26 95 16 168T124 292T251 343Q290 343 316 322T342 268Q342 245 329 235T293 225Q298 243 298 260Q298 285 286 300T249 316Q205 316 157 267T76 150T43 33Q43 -6 70
-6Q110 -6 164 57T280 212Q293 210 306 204T320 187Q320 179 311 162T299 141Q282 112 272 90T262 48Q262 31 270 18T296 4Q325 4 369 45T456 162L466 152Q445 99 412 58T341 -7T268 -30Q233 -30 215 -10T196 40Q196 53 199 69Q154 9 119 -19T48 -47Q15 -47 -5
-26ZM287 413T284 421T280 436Q280 448 298 478T341 533T384 557Q403 557 406 526Q332 462 294 410Q287 413 284 421Z" />
<glyph unicode="&#xe2;" glyph-name="acircumflex" horiz-adv-x="436" d="M15 -47T-5 -26T-26 36Q-26 95 16 168T124 292T251 343Q290 343 316 322T342 268Q342 245 329 235T293 225Q298 243 298 260Q298 285 286 300T249 316Q205 316 157 267T76 150T43 33Q43
-6 70 -6Q110 -6 164 57T280 212Q293 210 306 204T320 187Q320 179 311 162T299 141Q282 112 272 90T262 48Q262 31 270 18T296 4Q325 4 369 45T456 162L466 152Q445 99 412 58T341 -7T268 -30Q233 -30 215 -10T196 40Q196 53 199 69Q154 9 119 -19T48 -47Q15 -47
-5 -26ZM378 428T361 448T317 494Q283 482 259 469T214 437Q204 443 204 456Q204 474 226 494T276 529T318 544Q334 544 355 525T392 480T408 433Q408 411 391 402Q378 428 361 448Z" />
<glyph unicode="&#xe3;" glyph-name="atilde" horiz-adv-x="436" d="M15 -47T-5 -26T-26 36Q-26 95 16 168T124 292T251 343Q290 343 316 322T342 268Q342 245 329 235T293 225Q298 243 298 260Q298 285 286 300T249 316Q205 316 157 267T76 150T43 33Q43 -6 70
-6Q110 -6 164 57T280 212Q293 210 306 204T320 187Q320 179 311 162T299 141Q282 112 272 90T262 48Q262 31 270 18T296 4Q325 4 369 45T456 162L466 152Q445 99 412 58T341 -7T268 -30Q233 -30 215 -10T196 40Q196 53 199 69Q154 9 119 -19T48 -47Q15 -47 -5
-26ZM371 402T353 407T306 424Q277 436 256 442T214 448Q183 448 160 433Q196 483 247 483Q265 483 284 478T329 461Q368 447 390 441T437 435Q453 435 471 443Q438 402 389 402Q371 402 353 407Z" />
<glyph unicode="&#xe4;" glyph-name="adieresis" horiz-adv-x="436" d="M15 -47T-5 -26T-26 36Q-26 95 16 168T124 292T251 343Q290 343 316 322T342 268Q342 245 329 235T293 225Q298 243 298 260Q298 285 286 300T249 316Q205 316 157 267T76 150T43 33Q43 -6
70 -6Q110 -6 164 57T280 212Q293 210 306 204T320 187Q320 179 311 162T299 141Q282 112 272 90T262 48Q262 31 270 18T296 4Q325 4 369 45T456 162L466 152Q445 99 412 58T341 -7T268 -30Q233 -30 215 -10T196 40Q196 53 199 69Q154 9 119 -19T48 -47Q15 -47
-5 -26ZM205 436T195 443T184 466Q184 484 205 498T250 513Q280 513 280 485Q280 468 262 452T221 436Q205 436 195 443ZM349 415T339 422T328 445Q328 463 349 477T394 492Q424 492 424 464Q424 447 406 431T365 415Q349 415 339 422Z" />
<glyph unicode="&#xe5;" glyph-name="aring" horiz-adv-x="436" d="M15 -47T-5 -26T-26 36Q-26 95 16 168T124 292T251 343Q290 343 316 322T342 268Q342 245 329 235T293 225Q298 243 298 260Q298 285 286 300T249 316Q205 316 157 267T76 150T43 33Q43 -6 70
-6Q110 -6 164 57T280 212Q293 210 306 204T320 187Q320 179 311 162T299 141Q282 112 272 90T262 48Q262 31 270 18T296 4Q325 4 369 45T456 162L466 152Q445 99 412 58T341 -7T268 -30Q233 -30 215 -10T196 40Q196 53 199 69Q154 9 119 -19T48 -47Q15 -47 -5
-26ZM261 397T244 412T226 451Q226 475 242 501T287 545T348 563Q387 563 405 548T424 509Q424 485 407 459T360 415T298 397Q261 397 244 412ZM326 417T344 431T375 465T387 503Q387 518 376 529T343 540Q324 540 306 527T277 495T265 458Q265 443 276 430T307
417Q326 417 344 431Z" />
<glyph unicode="&#xe6;" glyph-name="ae" horiz-adv-x="543" d="M15 -47T-5 -26T-26 36Q-26 95 16 168T124 292T251 343Q305 343 320 301Q387 360 451 360Q513 360 513 299Q513 250 476 208T381 138T265 105Q261 88 261 69Q261 33 279 9T340 -15Q401 -15 463 36T564
162L576 153Q536 64 465 10T319 -44Q262 -44 231 -14T197 66Q153 8 118 -19T48 -47Q15 -47 -5 -26ZM312 139T358 166T436 229T469 306Q469 318 465 323T448 329Q417 329 381 298T314 219T270 124Q312 139 358 166ZM117 -6T199 99Q206 143 232 191T296 278Q287 316
249 316Q205 316 157 267T76 150T43 33Q43 -6 70 -6Q117 -6 199 99Z" />
<glyph unicode="&#xe7;" glyph-name="ccedilla" horiz-adv-x="323" d="M305 -57T305 -99Q305 -127 289 -153T245 -195T188 -211Q160 -211 144 -201T127 -175Q127 -158 149 -142Q154 -165 165 -176T191 -187Q209 -187 228 -173T261 -138T274 -100Q274 -91 270 -83T257
-75Q246 -75 233 -82T199 -102Q195 -104 186 -110T172 -116Q166 -116 162 -110T158 -98Q158 -96 174 -72T210 -25Q159 -56 107 -56Q57 -56 26 -23T-5 72Q-5 137 28 199T112 299T214 338Q252 338 268 317T285 264Q285 234 272 213T235 191Q218 191 206 206Q221 213
232 237T243 285Q243 298 238 304T221 310Q187 310 149 270T84 171T57 65Q57 29 74 6T130 -18Q191 -18 250 32T342 163L355 153Q319 60 246 -1L193 -81Q208 -70 223 -64T260 -57Q305 -57 305 -99Z" />
<glyph unicode="&#xe8;" glyph-name="egrave" horiz-adv-x="333" d="M49 -44T18 -12T-14 72Q-14 131 25 199T123 313T240 360Q302 360 302 299Q302 250 265 208T170 138T54 105Q50 88 50 69Q50 33 68 9T129 -15Q190 -15 252 36T353 162L365 153Q325 64 254 10T108
-44Q49 -44 18 -12ZM101 139T147 166T225 229T258 306Q258 318 254 323T237 329Q206 329 170 298T103 219T59 124Q101 139 147 166ZM256 470T182 534Q185 565 204 565Q222 565 246 541T289 487T308 444Q308 438 305 430T294 418Q256 470 182 534Z" />
<glyph unicode="&#xe9;" glyph-name="eacute" horiz-adv-x="333" d="M49 -44T18 -12T-14 72Q-14 131 25 199T123 313T240 360Q302 360 302 299Q302 250 265 208T170 138T54 105Q50 88 50 69Q50 33 68 9T129 -15Q190 -15 252 36T353 162L365 153Q325 64 254 10T108
-44Q49 -44 18 -12ZM101 139T147 166T225 229T258 306Q258 318 254 323T237 329Q206 329 170 298T103 219T59 124Q101 139 147 166ZM256 421T253 429T249 444Q249 456 267 486T310 541T353 565Q372 565 375 534Q301 470 263 418Q256 421 253 429Z" />
<glyph unicode="&#xea;" glyph-name="ecircumflex" horiz-adv-x="333" d="M49 -44T18 -12T-14 72Q-14 131 25 199T123 313T240 360Q302 360 302 299Q302 250 265 208T170 138T54 105Q50 88 50 69Q50 33 68 9T129 -15Q190 -15 252 36T353 162L365 153Q325 64 254
10T108 -44Q49 -44 18 -12ZM101 139T147 166T225 229T258 306Q258 318 254 323T237 329Q206 329 170 298T103 219T59 124Q101 139 147 166ZM347 436T330 456T286 502Q252 490 228 477T183 445Q173 451 173 464Q173 482 195 502T245 537T287 552Q303 552 324 533T361
488T377 441Q377 419 360 410Q347 436 330 456Z" />
<glyph unicode="&#xeb;" glyph-name="edieresis" horiz-adv-x="333" d="M49 -44T18 -12T-14 72Q-14 131 25 199T123 313T240 360Q302 360 302 299Q302 250 265 208T170 138T54 105Q50 88 50 69Q50 33 68 9T129 -15Q190 -15 252 36T353 162L365 153Q325 64 254
10T108 -44Q49 -44 18 -12ZM101 139T147 166T225 229T258 306Q258 318 254 323T237 329Q206 329 170 298T103 219T59 124Q101 139 147 166ZM174 444T164 451T153 474Q153 492 174 506T219 521Q249 521 249 493Q249 476 231 460T190 444Q174 444 164 451ZM318 423T308
430T297 453Q297 471 318 485T363 500Q393 500 393 472Q393 455 375 439T334 423Q318 423 308 430Z" />
<glyph unicode="&#xec;" glyph-name="igrave" horiz-adv-x="241" d="M35 -26T15 -3T-5 58Q-5 97 17 166T73 287T139 339Q148 339 154 333T161 317Q161 303 129 250Q96 195 77 152T57 69Q57 34 68 22T106 9Q184 9 260 162L269 152Q241 68 187 21T72 -26Q35 -26
15 -3ZM164 463T90 527Q93 558 112 558Q130 558 154 534T197 480T216 437Q216 431 213 423T202 411Q164 463 90 527Z" />
<glyph unicode="&#xed;" glyph-name="iacute" horiz-adv-x="241" d="M35 -26T15 -3T-5 58Q-5 97 17 166T73 287T139 339Q148 339 154 333T161 317Q161 303 129 250Q96 195 77 152T57 69Q57 34 68 22T106 9Q184 9 260 162L269 152Q241 68 187 21T72 -26Q35 -26
15 -3ZM171 414T168 422T164 437Q164 449 182 479T225 534T268 558Q287 558 290 527Q216 463 178 411Q171 414 168 422Z" />
<glyph unicode="&#xee;" glyph-name="icircumflex" horiz-adv-x="240" d="M35 -26T15 -3T-5 58Q-5 97 17 166T73 287T139 339Q148 339 154 333T161 317Q161 303 129 250Q96 195 77 152T57 69Q57 34 68 22T106 9Q184 9 260 162L269 152Q241 68 187 21T72 -26Q35
-26 15 -3ZM273 429T256 449T212 495Q178 483 154 470T109 438Q99 444 99 457Q99 475 121 495T171 530T213 545Q229 545 250 526T287 481T303 434Q303 412 286 403Q273 429 256 449Z" />
<glyph unicode="&#xef;" glyph-name="idieresis" horiz-adv-x="242" d="M35 -26T15 -3T-5 58Q-5 97 17 166T73 287T139 339Q148 339 154 333T161 317Q161 303 129 250Q96 195 77 152T57 69Q57 34 68 22T106 9Q184 9 260 162L269 152Q241 68 187 21T72 -26Q35 -26
15 -3ZM81 437T71 444T60 467Q60 485 81 499T126 514Q156 514 156 486Q156 469 138 453T97 437Q81 437 71 444ZM225 416T215 423T204 446Q204 464 225 478T270 493Q300 493 300 465Q300 448 282 432T241 416Q225 416 215 423Z" />
<glyph unicode="&#xf0;" glyph-name="eth" horiz-adv-x="473" d="M30 -30T7 -9T-16 54Q-16 109 26 182T131 308T253 360Q297 360 297 329Q297 325 295 315Q285 330 257 330Q207 330 160 283T84 171T54 66Q54 44 63 31T90 18Q119 18 159 55T239 156T307 293Q352
410 352 489Q352 512 348 532Q322 528 288 522T233 509Q233 536 260 547T341 566Q320 642 254 700Q269 719 293 719Q335 719 366 677T412 574Q437 576 464 579T503 586Q488 562 472 555T418 542Q422 519 422 495Q422 448 407 393T362 254Q336 181 323 137T310 57Q310
36 316 25T338 14Q359 14 387 32T444 84T492 162L504 153Q485 103 452 62T382 -2T310 -26Q276 -26 260 -4T244 49Q244 83 263 156Q212 72 158 21T59 -30Q30 -30 7 -9Z" />
<glyph unicode="&#xf1;" glyph-name="ntilde" horiz-adv-x="466" d="M289 -20T271 -3T253 44Q253 57 257 74T267 109Q273 127 277 147T282 183Q282 232 242 232Q204 232 163 192T89 103T15 -15Q-2 -15 -16 -10T-38 7Q-38 12 -25 43Q0 107 16 159T33 253Q40 261
53 267T79 274Q106 274 106 248Q106 233 97 196T74 116Q122 190 176 241T282 292Q319 292 337 266T356 202Q356 180 351 160T334 114Q325 92 320 76T315 44Q315 6 345 6Q379 6 415 51T485 162L496 149Q424 -20 323 -20Q289 -20 271 -3ZM336 356T318 361T271 378Q242
390 221 396T179 402Q148 402 125 387Q161 437 212 437Q230 437 249 432T294 415Q333 401 355 395T402 389Q418 389 436 397Q403 356 354 356Q336 356 318 361Z" />
<glyph unicode="&#xf2;" glyph-name="ograve" horiz-adv-x="365" d="M28 -32T9 -7T-10 59Q-10 100 7 145T51 220T105 250Q114 250 126 245Q114 235 97 201T68 129T55 66Q55 9 91 9Q112 9 141 31T198 89Q170 112 155 149T139 226Q139 278 165 315T237 352Q275 352
290 332T306 275Q306 237 288 190T239 97Q257 87 277 87Q306 87 337 104T384 159L396 149Q377 105 342 84T270 63Q243 63 222 73Q186 26 146 -3T69 -32Q28 -32 9 -7ZM242 154T258 194T274 269Q274 297 266 311T244 325Q230 325 216 312T192 275T182 223Q182 192
190 164T216 115Q242 154 258 194ZM264 476T190 540Q193 571 212 571Q230 571 254 547T297 493T316 450Q316 444 313 436T302 424Q264 476 190 540Z" />
<glyph unicode="&#xf3;" glyph-name="oacute" horiz-adv-x="365" d="M28 -32T9 -7T-10 59Q-10 100 7 145T51 220T105 250Q114 250 126 245Q114 235 97 201T68 129T55 66Q55 9 91 9Q112 9 141 31T198 89Q170 112 155 149T139 226Q139 278 165 315T237 352Q275 352
290 332T306 275Q306 237 288 190T239 97Q257 87 277 87Q306 87 337 104T384 159L396 149Q377 105 342 84T270 63Q243 63 222 73Q186 26 146 -3T69 -32Q28 -32 9 -7ZM242 154T258 194T274 269Q274 297 266 311T244 325Q230 325 216 312T192 275T182 223Q182 192
190 164T216 115Q242 154 258 194ZM264 427T261 435T257 450Q257 462 275 492T318 547T361 571Q380 571 383 540Q309 476 271 424Q264 427 261 435Z" />
<glyph unicode="&#xf4;" glyph-name="ocircumflex" horiz-adv-x="365" d="M28 -32T9 -7T-10 59Q-10 100 7 145T51 220T105 250Q114 250 126 245Q114 235 97 201T68 129T55 66Q55 9 91 9Q112 9 141 31T198 89Q170 112 155 149T139 226Q139 278 165 315T237 352Q275
352 290 332T306 275Q306 237 288 190T239 97Q257 87 277 87Q306 87 337 104T384 159L396 149Q377 105 342 84T270 63Q243 63 222 73Q186 26 146 -3T69 -32Q28 -32 9 -7ZM242 154T258 194T274 269Q274 297 266 311T244 325Q230 325 216 312T192 275T182 223Q182
192 190 164T216 115Q242 154 258 194ZM355 442T338 462T294 508Q260 496 236 483T191 451Q181 457 181 470Q181 488 203 508T253 543T295 558Q311 558 332 539T369 494T385 447Q385 425 368 416Q355 442 338 462Z" />
<glyph unicode="&#xf5;" glyph-name="otilde" horiz-adv-x="365" d="M28 -32T9 -7T-10 59Q-10 100 7 145T51 220T105 250Q114 250 126 245Q114 235 97 201T68 129T55 66Q55 9 91 9Q112 9 141 31T198 89Q170 112 155 149T139 226Q139 278 165 315T237 352Q275 352
290 332T306 275Q306 237 288 190T239 97Q257 87 277 87Q306 87 337 104T384 159L396 149Q377 105 342 84T270 63Q243 63 222 73Q186 26 146 -3T69 -32Q28 -32 9 -7ZM242 154T258 194T274 269Q274 297 266 311T244 325Q230 325 216 312T192 275T182 223Q182 192
190 164T216 115Q242 154 258 194ZM348 416T330 421T283 438Q254 450 233 456T191 462Q160 462 137 447Q173 497 224 497Q242 497 261 492T306 475Q345 461 367 455T414 449Q430 449 448 457Q415 416 366 416Q348 416 330 421Z" />
<glyph unicode="&#xf6;" glyph-name="odieresis" horiz-adv-x="369" d="M28 -32T9 -7T-10 59Q-10 100 7 145T51 220T105 250Q114 250 126 245Q114 235 97 201T68 129T55 66Q55 9 91 9Q112 9 141 31T198 89Q170 112 155 149T139 226Q139 278 165 315T237 352Q275
352 290 332T306 275Q306 237 288 190T239 97Q257 87 277 87Q306 87 337 104T384 159L396 149Q377 105 342 84T270 63Q243 63 222 73Q186 26 146 -3T69 -32Q28 -32 9 -7ZM242 154T258 194T274 269Q274 297 266 311T244 325Q230 325 216 312T192 275T182 223Q182
192 190 164T216 115Q242 154 258 194ZM181 435T171 442T160 465Q160 483 181 497T226 512Q256 512 256 484Q256 467 238 451T197 435Q181 435 171 442ZM325 414T315 421T304 444Q304 462 325 476T370 491Q400 491 400 463Q400 446 382 430T341 414Q325 414 315
421Z" />
<glyph unicode="&#xf7;" glyph-name="divide" horiz-adv-x="460" d="M217 240T208 247T199 267Q199 283 218 295T257 308Q283 308 283 284Q283 269 267 255T231 240Q217 240 208 247ZM35 152T84 162T214 173Q295 173 382 164Q359 148 322 142T206 135Q96 135 25
124Q35 152 84 162ZM157 -10T148 -3T139 17Q139 33 158 45T197 58Q223 58 223 34Q223 19 207 5T171 -10Q157 -10 148 -3Z" />
<glyph unicode="&#xf8;" glyph-name="oslash" horiz-adv-x="363" d="M396 149Q377 105 342 84T270 63Q243 63 222 73Q186 26 146 -3T69 -32Q48 -32 32 -24Q-16 -64 -52 -64Q-61 -64 -65 -63Q-37 -48 6 -2Q-10 21 -10 59Q-10 100 7 145T51 220T105 250Q114 250
126 245Q114 235 97 201T68 129T55 66V55Q95 103 141 167L146 174Q139 198 139 226Q139 278 165 315T237 352Q251 352 262 349Q264 352 276 372Q280 378 293 382T321 387L334 386L295 325Q306 307 306 275Q306 237 288 190T239 97Q257 87 277 87Q306 87 337 104T384
159L396 149ZM230 325T216 312T192 276T182 226Q218 281 246 325H244Q230 325 216 312ZM242 154T258 194T274 269Q274 278 272 290Q256 264 235 232T205 187L190 164Q200 134 216 115Q242 154 258 194ZM112 9T141 31T198 89Q178 106 165 128Q119 61 73 14Q81 9
91 9Q112 9 141 31Z" />
<glyph unicode="&#xf9;" glyph-name="ugrave" horiz-adv-x="438" d="M42 -30T21 -1T0 71Q0 108 15 162T52 257T88 298Q94 298 105 292T125 278Q104 245 81 184T58 77Q58 54 65 32T94 10Q129 10 170 74T260 238L276 271Q324 262 324 245Q324 243 320 232T311 211Q288
160 273 116T257 40Q257 0 290 0Q312 0 342 19T403 76T457 162L470 153Q449 100 416 59T343 -6T269 -30Q199 -30 199 44Q199 64 206 94Q174 37 142 4T75 -30Q42 -30 21 -1ZM217 422T143 486Q146 517 165 517Q183 517 207 493T250 439T269 396Q269 390 266 382T255
370Q217 422 143 486Z" />
<glyph unicode="&#xfa;" glyph-name="uacute" horiz-adv-x="438" d="M42 -30T21 -1T0 71Q0 108 15 162T52 257T88 298Q94 298 105 292T125 278Q104 245 81 184T58 77Q58 54 65 32T94 10Q129 10 170 74T260 238L276 271Q324 262 324 245Q324 243 320 232T311 211Q288
160 273 116T257 40Q257 0 290 0Q312 0 342 19T403 76T457 162L470 153Q449 100 416 59T343 -6T269 -30Q199 -30 199 44Q199 64 206 94Q174 37 142 4T75 -30Q42 -30 21 -1ZM217 373T214 381T210 396Q210 408 228 438T271 493T314 517Q333 517 336 486Q262 422 224
370Q217 373 214 381Z" />
<glyph unicode="&#xfb;" glyph-name="ucircumflex" horiz-adv-x="438" d="M42 -30T21 -1T0 71Q0 108 15 162T52 257T88 298Q94 298 105 292T125 278Q104 245 81 184T58 77Q58 54 65 32T94 10Q129 10 170 74T260 238L276 271Q324 262 324 245Q324 243 320 232T311
211Q288 160 273 116T257 40Q257 0 290 0Q312 0 342 19T403 76T457 162L470 153Q449 100 416 59T343 -6T269 -30Q199 -30 199 44Q199 64 206 94Q174 37 142 4T75 -30Q42 -30 21 -1ZM308 388T291 408T247 454Q213 442 189 429T144 397Q134 403 134 416Q134 434 156
454T206 489T248 504Q264 504 285 485T322 440T338 393Q338 371 321 362Q308 388 291 408Z" />
<glyph unicode="&#xfc;" glyph-name="udieresis" horiz-adv-x="438" d="M42 -30T21 -1T0 71Q0 108 15 162T52 257T88 298Q94 298 105 292T125 278Q104 245 81 184T58 77Q58 54 65 32T94 10Q129 10 170 74T260 238L276 271Q324 262 324 245Q324 243 320 232T311
211Q288 160 273 116T257 40Q257 0 290 0Q312 0 342 19T403 76T457 162L470 153Q449 100 416 59T343 -6T269 -30Q199 -30 199 44Q199 64 206 94Q174 37 142 4T75 -30Q42 -30 21 -1ZM135 396T125 403T114 426Q114 444 135 458T180 473Q210 473 210 445Q210 428 192
412T151 396Q135 396 125 403ZM279 375T269 382T258 405Q258 423 279 437T324 452Q354 452 354 424Q354 407 336 391T295 375Q279 375 269 382Z" />
<glyph unicode="&#xfd;" glyph-name="yacute" horiz-adv-x="389" d="M16 -280T-2 -266T-20 -227Q-20 -187 5 -157T68 -104T174 -46Q204 31 230 137Q194 78 158 44T84 10Q52 10 28 31T4 91Q4 127 20 179T57 270T92 309Q101 309 118 302T136 286Q116 257 93 193T70
90Q70 50 106 50Q133 50 169 87T239 178Q244 195 249 224Q253 243 265 259T300 275Q309 275 321 272Q321 245 299 161T243 -8Q293 12 337 54T408 162L421 152Q384 35 232 -35Q188 -143 140 -211T43 -280Q16 -280 -2 -266ZM49 -248T69 -230T114 -171T164 -70Q111
-98 81 -117T31 -162T11 -218Q11 -228 18 -238T38 -248Q49 -248 69 -230ZM218 384T215 392T211 407Q211 419 229 449T272 504T315 528Q334 528 337 497Q263 433 225 381Q218 384 215 392Z" />
<glyph unicode="&#xfe;" glyph-name="thorn" horiz-adv-x="391" d="M-71 -280T-78 -272T-90 -254T-94 -242L-76 -180Q-29 -19 3 127T64 506Q65 516 68 519T83 523Q107 523 119 510T131 477Q131 462 114 351T86 192Q117 252 161 295T259 339Q303 339 331 308T360
225Q360 172 329 113T244 14T124 -26Q99 -26 83 -21T66 -8Q66 -5 73 -4T91 -3Q143 -3 190 30T266 114T295 216Q295 250 281 271T238 293Q206 293 173 267T113 203T72 132Q35 -26 1 -142T-51 -275Q-56 -280 -63 -280Q-71 -280 -78 -272Z" />
<glyph unicode="&#xff;" glyph-name="ydieresis" horiz-adv-x="389" d="M16 -280T-2 -266T-20 -227Q-20 -187 5 -157T68 -104T174 -46Q204 31 230 137Q194 78 158 44T84 10Q52 10 28 31T4 91Q4 127 20 179T57 270T92 309Q101 309 118 302T136 286Q116 257 93 193T70
90Q70 50 106 50Q133 50 169 87T239 178Q244 195 249 224Q253 243 265 259T300 275Q309 275 321 272Q321 245 299 161T243 -8Q293 12 337 54T408 162L421 152Q384 35 232 -35Q188 -143 140 -211T43 -280Q16 -280 -2 -266ZM49 -248T69 -230T114 -171T164 -70Q111
-98 81 -117T31 -162T11 -218Q11 -228 18 -238T38 -248Q49 -248 69 -230ZM136 407T126 414T115 437Q115 455 136 469T181 484Q211 484 211 456Q211 439 193 423T152 407Q136 407 126 414ZM280 386T270 393T259 416Q259 434 280 448T325 463Q355 463 355 435Q355
418 337 402T296 386Q280 386 270 393Z" />
<glyph unicode="&#x2013;" glyph-name="endash" horiz-adv-x="677" d="M29 161T101 178T307 196Q398 196 492 186Q566 178 614 178Q562 133 483 133Q386 133 349 132Q200 132 154 130T25 114Q29 161 101 178Z" />
<glyph unicode="&#x2014;" glyph-name="emdash" horiz-adv-x="838" d="M40 161T130 178T387 196Q502 196 618 186Q712 178 771 178Q706 133 608 133Q487 133 440 132Q254 132 196 130T35 114Q40 161 130 178Z" />
<glyph unicode="&#x2018;" glyph-name="quoteleft" horiz-adv-x="144" d="M189 585T183 593T172 609Q149 642 138 660T126 692Q126 703 133 711T151 720Q154 705 166 687T181 665Q184 660 194 644T212 613Q214 607 214 604Q214 587 195 576Q189 585 183 593Z" />
<glyph unicode="&#x2019;" glyph-name="quoteright" horiz-adv-x="125" d="M124 587T124 604Q124 607 126 613Q133 628 143 644T157 665Q160 669 172 687T187 720Q197 720 204 712T212 692Q212 679 201 661T166 609Q161 601 155 593T143 576Q124 587 124 604Z" />
<glyph unicode="&#x201a;" glyph-name="quotesinglbase" horiz-adv-x="196" d="M-10 -78T-10 -51Q-10 -18 10 19T51 56Q61 56 68 48T76 28Q55 6 42 -16T20 -59T7 -88Q-10 -78 -10 -51Z" />
<glyph unicode="&#x201c;" glyph-name="quotedblleft" horiz-adv-x="254" d="M189 585T183 593T172 609Q149 642 138 660T126 692Q126 703 133 711T151 720Q154 705 166 687T181 665Q184 660 194 644T212 613Q214 607 214 604Q214 587 195 576Q189 585 183 593ZM299
585T293 593T282 609Q259 642 248 660T236 692Q236 703 243 711T261 720Q264 705 276 687T291 665Q294 660 304 644T322 613Q324 607 324 604Q324 587 305 576Q299 585 293 593Z" />
<glyph unicode="&#x201d;" glyph-name="quotedblright" horiz-adv-x="235" d="M124 587T124 604Q124 607 126 613Q133 628 143 644T157 665Q160 669 172 687T187 720Q197 720 204 712T212 692Q212 679 201 661T166 609Q161 601 155 593T143 576Q124 587 124 604ZM234
587T234 604Q234 607 236 613Q243 628 253 644T267 665Q270 669 282 687T297 720Q307 720 314 712T322 692Q322 679 311 661T276 609Q271 601 265 593T253 576Q234 587 234 604Z" />
<glyph unicode="&#x201e;" glyph-name="quotedblbase" horiz-adv-x="306" d="M-10 -78T-10 -51Q-10 -18 10 19T51 56Q61 56 68 48T76 28Q55 6 42 -16T20 -59T7 -88Q-10 -78 -10 -51ZM100 -78T100 -51Q100 -18 120 19T161 56Q171 56 178 48T186 28Q165 6 152 -16T130
-59T117 -88Q100 -78 100 -51Z" />
<glyph unicode="&#x2022;" glyph-name="bullet" horiz-adv-x="242" d="M66 118T53 127T40 156Q40 180 62 202T110 224Q128 224 143 211T158 180Q158 159 135 139T85 118Q66 118 53 127Z" />
<glyph unicode="&#x2039;" glyph-name="guilsinglleft" horiz-adv-x="285" d="M142 44T106 64T41 111T6 158Q55 179 109 225T196 316Q198 312 199 306T201 294Q201 258 152 221T32 147Q72 118 102 101T194 60Q180 44 165 44Q142 44 106 64Z" />
<glyph unicode="&#x203a;" glyph-name="guilsinglright" horiz-adv-x="304" d="M72 44T58 60Q120 84 150 101T220 147Q149 184 100 221T51 294Q51 300 52 306T56 316Q88 271 142 225T246 158Q241 139 212 112T146 64T87 44Q72 44 58 60Z" />
</font>
</defs>
</svg>
